#TITLE:Revival;
#SUBTITLE:;
#ARTIST:角巻わため;
#TITLETRANSLIT:;
#SUBTITLETRANSLIT:;
#ARTISTTRANSLIT:Tsunomaki Watame;
#GENRE:;
#CREDIT:;
#BANNER:Revival.png;
#BACKGROUND:Revival-bg.png;
#LYRICSPATH:;
#CDTITLE:cdtitle.png;
#MUSIC:Revival.ogg;
#OFFSET:-1.197000;
#SAMPLESTART:60.597000;
#SAMPLELENGTH:10.200000;
#SELECTABLE:YES;
#BPMS:0.000000=200.000000
;
#STOPS:
;
#BGCHANGES:;
#KEYSOUNDS:;
#ATTACKS:;

//---------------dance-single - ----------------
#NOTES:
     dance-single:
     :
     Beginner:
     5:
     0.146617,0.196820,0.000000,0.035088,0.000000,117.000000,117.000000,0.000000,4.000000,0.000000,0.000000,0.146617,0.196820,0.000000,0.035088,0.000000,117.000000,117.000000,0.000000,4.000000,0.000000,0.000000:
0000
0000
0000
0000
,
0000
0000
0000
0000
,
0000
0000
0000
0000
,
0000
0000
0000
0000
,
1000
0000
0000
0000
,
1000
0000
0000
0000
,
0001
0000
0000
0000
,
0001
0000
0000
0000
,
0000
0000
0000
0000
,
0000
0000
0000
0000
,
1000
0000
0000
0000
,
1000
0000
0000
0000
,
0001
0000
0000
0000
,
0001
0000
0000
0000
,
1000
0000
0000
0000
,
0010
0000
0000
0000
,
0100
0000
0000
0000
,
0001
0000
0000
0000
,
1000
0000
1000
0000
,
1000
0000
0000
0000
,
0001
0000
0001
0000
,
0001
0000
0000
0000
,
1000
0000
0100
0000
,
0010
0000
0000
0000
,
0001
0000
0100
0000
,
0010
0000
0000
0000
,
1000
0000
0000
0000
,
0000
0000
0000
0000
,
0001
0000
0000
0000
,
0000
0000
0000
0000
,
1000
0000
0000
0000
,
0000
0000
0000
0000
,
0001
0000
0000
0000
,
0000
0000
0000
0000
,
1000
0000
0000
0000
,
0100
0000
0000
0000
,
1000
0000
0000
0000
,
0010
0000
0000
0000
,
1000
0000
0000
0000
,
0001
0000
0000
0000
,
0100
0000
0000
0000
,
0001
0000
0000
0000
,
0001
0000
0010
0000
,
0001
0000
0000
0000
,
1000
0000
0010
0000
,
1000
0000
0000
0000
,
0001
0000
0010
0000
,
0100
0000
0000
0000
,
0000
0000
0000
0000
,
0000
0000
0000
0000
,
1000
0000
1000
0000
,
0010
0000
0010
0000
,
1000
0000
1000
0000
,
0100
0000
0100
0000
,
1000
0000
1000
0000
,
0010
0000
0010
0000
,
0100
0000
0100
0000
,
0001
0000
0000
0000
,
0001
0000
0001
0000
,
0010
0000
0010
0000
,
0001
0000
0001
0000
,
0100
0000
0100
0000
,
0001
0000
0001
0000
,
0010
0000
0010
0000
,
0100
0000
0100
0000
,
1000
0000
0001
0000
,
2000
0000
0000
0000
,
3000
0000
1000
0000
,
0002
0000
0000
0000
,
0003
0000
0001
0000
,
0200
0000
0000
0000
,
0300
0000
0100
0000
,
0020
0000
0000
0000
,
0030
0000
1000
0000
,
0001
0000
0001
0000
,
1000
0000
0001
0000
,
1000
0000
1000
0000
,
0001
0000
1000
0000
,
0100
0000
0100
0000
,
1000
0000
0001
0000
,
0010
0000
0010
0000
,
0010
0000
0001
0000
,
0001
0000
1000
0000
,
0001
0000
0010
0000
,
0001
0000
1000
0000
,
1000
0000
0010
0000
,
1000
0000
0001
0000
,
1000
0000
0010
0000
,
0100
0000
0001
0000
,
0001
0000
0010
0010
;

//---------------dance-single - ----------------
#NOTES:
     dance-single:
     :
     Easy:
     9:
     0.342105,0.394189,0.333333,0.166667,0.000000,273.000000,235.000000,38.000000,19.000000,0.000000,0.000000,0.342105,0.394189,0.333333,0.166667,0.000000,273.000000,235.000000,38.000000,19.000000,0.000000,0.000000:
// measure 0
0000
0000
0000
0000
,  // measure 1
0000
0000
0000
0000
,  // measure 2
0000
0000
0000
0000
,  // measure 3
0000
0000
0000
0000
,  // measure 4
2000
0000
0000
0000
,  // measure 5
3020
0000
0000
0000
,  // measure 6
0230
0000
0000
0000
,  // measure 7
0302
0000
0000
0000
,  // measure 8
0023
0000
0000
0000
,  // measure 9
0000
0000
0000
0030
,  // measure 10
0001
1001
0000
1000
,  // measure 11
1000
0000
0100
0020
0000
0000
0031
0000
,  // measure 12
1000
1001
0000
0001
,  // measure 13
0001
0000
0100
0020
0000
0000
1030
0000
,  // measure 14
0100
0110
0000
0010
,  // measure 15
0010
0000
0001
2000
0000
0000
3010
0000
,  // measure 16
0100
0110
0000
0010
,  // measure 17
0010
0000
1000
0002
0000
0000
0013
0000
,  // measure 18
0001
0100
1001
0000
,  // measure 19
1000
0001
0110
0000
,  // measure 20
0001
0010
1001
0000
,  // measure 21
0001
1000
0010
0010
,  // measure 22
0100
0001
0100
0001
,  // measure 23
1000
0000
0110
0000
,  // measure 24
0001
1000
0001
1000
,  // measure 25
0010
0000
0000
0110
0000
0000
1001
0000
,  // measure 26
1000
0000
0000
2000
0000
0000
0000
0000
,  // measure 27
0000
0000
0000
0000
,  // measure 28
3010
0000
0000
0020
0000
0000
0000
0000
,  // measure 29
0000
0000
0000
0000
,  // measure 30
0130
0000
0000
0200
0000
0000
0000
0000
,  // measure 31
0000
0000
0000
0000
,  // measure 32
0301
0000
0000
0002
0000
0000
0000
0000
,  // measure 33
0000
0000
0000
0000
,  // measure 34
1003
0000
0000
1001
0000
0000
0000
0000
,  // measure 35
0001
0000
0000
1001
0000
0000
0000
0000
,  // measure 36
0010
0000
0000
0110
0000
0000
0000
0000
,  // measure 37
0100
0000
0000
0110
0000
0000
0000
0000
,  // measure 38
0001
0000
0000
1001
0000
0000
1000
0000
,  // measure 39
0010
0000
0000
0110
0000
0000
0010
0000
,  // measure 40
1000
0000
0000
1001
0000
0000
0001
0000
,  // measure 41
0010
0000
0000
0110
0000
0000
0010
0000
,  // measure 42
0001
0000
0000
1001
0000
0000
1000
0000
,  // measure 43
0100
0000
0000
0110
0000
0000
0010
0000
,  // measure 44
0001
0000
0000
1001
0000
0000
1000
0000
,  // measure 45
0010
0000
0000
0110
0000
0000
0100
0000
,  // measure 46
0001
0000
0000
1001
0000
0000
1000
0000
,  // measure 47
0100
0000
0000
0110
0000
0000
0010
0000
,  // measure 48
0002
0000
0000
0000
,  // measure 49
0000
0000
0003
0000
,  // measure 50
1001
0000
0001
1000
,  // measure 51
0010
0000
0110
0000
,  // measure 52
1001
0000
1000
0001
,  // measure 53
0010
0000
0100
0100
,  // measure 54
1000
0000
0010
0100
,  // measure 55
0001
0000
0110
0000
,  // measure 56
1001
0000
0010
0100
,  // measure 57
1000
0000
0001
0001
,  // measure 58
1000
0000
0001
1000
,  // measure 59
0010
0000
0110
0000
,  // measure 60
1001
0000
1000
0001
,  // measure 61
0010
0000
0100
0100
,  // measure 62
0010
0000
0100
1000
,  // measure 63
0001
0000
0110
0000
,  // measure 64
1001
0000
1000
0001
,  // measure 65
0100
0000
0010
0010
,  // measure 66
1000
0010
0100
0010
,  // measure 67
1000
0001
0001
0000
,  // measure 68
0010
0001
1000
0001
,  // measure 69
0010
0100
0100
0000
,  // measure 70
0010
0001
1000
0001
,  // measure 71
0100
0010
0010
0000
,  // measure 72
0100
0001
0000
0000
0010
0000
0000
0010
,  // measure 73
0200
0300
0010
0010
,  // measure 74
1001
0001
0100
0010
,  // measure 75
1000
0100
0100
0000
,  // measure 76
0010
0001
1000
0010
,  // measure 77
0100
0001
0001
0001
,  // measure 78
1000
0100
0010
0001
,  // measure 79
1000
0100
0100
0000
,  // measure 80
0010
0001
1000
0010
,  // measure 81
0200
0000
0300
0000
,  // measure 82
0010
1001
0000
0001
,  // measure 83
0001
0000
1000
0200
0000
0000
0310
0000
,  // measure 84
0100
1001
0000
1000
,  // measure 85
1000
0000
0010
0200
0000
0000
0310
0000
,  // measure 86
0100
1001
0000
0001
,  // measure 87
0001
0000
0010
0200
0000
0000
0310
0000
,  // measure 88
0100
0000
0000
1001
0000
0000
1000
1000
,  // measure 89
0000
0000
0001
0100
0000
0100
0010
0100
;

//---------------dance-single - ----------------
#NOTES:
     dance-single:
     :
     Medium:
     12:
     0.518797,0.670121,0.307018,0.210526,0.000000,414.000000,379.000000,35.000000,24.000000,0.000000,0.000000,0.518797,0.670121,0.307018,0.210526,0.000000,414.000000,379.000000,35.000000,24.000000,0.000000,0.000000:
0000
0000
0000
0000
,
0000
0000
0000
0000
,
0000
0000
0000
0000
,
0000
0000
0000
0000
,
1000
0000
0000
0100
0000
0000
1000
0000
,
0001
0000
0000
0100
0000
0000
0001
0000
,
1000
0000
0000
0010
0000
0000
1000
0000
,
0001
0000
0000
0010
0000
0000
0001
0000
,
2000
0000
0000
0000
,
3002
0000
0000
0000
0000
1003
0001
0000
,
1000
0000
0010
0100
0000
0100
1000
0000
,
1000
0100
0000
0020
0000
0130
0001
1000
,
0001
0000
0010
0100
0000
0100
0001
0000
,
0001
0100
0000
0010
0000
0010
0100
0010
,
0001
0000
0100
0010
0000
0010
0001
0000
,
0001
0010
0000
0200
0000
0310
1000
0001
,
1000
0000
0100
0010
0000
0010
1000
0000
,
1000
0010
0000
0100
0000
0100
0010
0100
,
1000
0010
1000
0000
0011
0000
0010
0000
,
0001
1000
0001
0000
1010
0000
1000
0000
,
0001
0010
0001
0000
1100
0000
0100
0000
,
1000
0001
1000
0000
0011
0000
0110
0000
,
1001
1010
1001
1100
,
0001
1000
0001
0000
0011
0000
1001
0000
,
1000
0100
1000
0000
0001
0100
0001
0000
,
1000
0010
0100
0000
0001
0010
0100
0010
,
0100
0100
0000
2001
0000
0000
0000
0000
,
0000
0000
0000
0000
,
3010
0010
0000
1002
0000
0000
0000
0000
,
0000
0000
0000
0000
,
0013
0010
0000
2001
0000
0000
0000
0000
,
0000
0000
0000
0000
,
3010
0010
0000
1002
0000
0000
0000
0000
,
0000
0000
0000
0000
,
2003
0000
0000
0100
0000
0000
0000
0000
,
3002
0000
0000
0100
0000
0000
0000
0000
,
2003
0000
0000
0100
0000
0000
0001
0000
,
3002
0000
0000
0100
0000
0000
1000
0000
,
1003
0100
0000
1000
0000
0000
1000
0000
,
0001
0100
0000
0001
0000
0000
0001
0000
,
1000
0100
0000
0010
0000
0000
0100
0000
,
1000
0010
0000
0100
0000
0000
0010
0000
,
1000
0001
0100
0010
0000
0010
0010
0000
,
0100
0001
1000
0200
0000
0310
0100
1000
,
0001
1000
0010
0100
0000
0100
0100
0000
,
0010
1000
0001
0020
0000
0130
0010
0001
,
1000
0001
0100
0010
0000
0010
0010
0100
,
0001
1000
0100
0010
0001
0100
0001
0010
,
0200
0000
0000
0000
,
0000
0000
0300
0000
,
1001
1000
0100
0010
,
1001
0001
0100
0010
,
1000
0100
0010
0100
,
1000
0001
0100
0110
,
1001
0001
0100
0010
,
1001
1000
0100
0010
,
1000
0010
0100
0010
,
0001
0100
0010
0110
,
1001
0000
0001
0000
0010
0100
0010
0000
,
1001
0000
0001
0000
0100
0010
0100
0000
,
0001
0010
0100
0010
,
0001
1000
0010
0110
,
1001
0000
1000
0000
0010
0100
0010
0000
,
1001
0000
0001
0000
0100
0010
0100
0000
,
0001
0100
0010
0100
,
1000
0100
0001
1001
,
1000
0001
0010
0000
0010
0001
0100
0000
,
0100
0001
1000
0000
1000
0100
0010
0001
,
1000
0001
0100
0000
0100
0001
0010
0000
,
0010
0001
1000
0010
1000
0001
0010
0000
,
0001
1000
0100
0000
0100
1000
0010
0000
,
0010
1000
0001
0000
0001
0100
0010
1000
,
0100
0100
0000
0000
0011
0000
0001
1000
,
0020
0030
0000
0000
0110
0000
0110
0000
,
1000
0100
0010
0000
0010
0100
0001
0000
,
0001
0100
1000
0000
1000
0100
0010
0001
,
1000
0010
0100
0000
0100
0010
0001
0000
,
0110
0000
0110
0000
0010
1000
0100
0010
,
0001
0100
0010
0000
0010
0100
1000
0000
,
1000
0100
0001
0000
0001
0100
0010
1000
,
0001
0010
0100
0000
0100
0010
1000
0000
,
0010
0020
0030
0000
0110
0000
0110
0000
,
1000
0010
0000
0200
0000
0000
0301
0000
,
1000
0100
0000
0020
0000
0030
0010
0000
,
0001
0010
0000
0200
0000
0000
1300
0000
,
0001
0100
0000
0020
0000
0030
0010
0000
,
0100
0010
0000
0200
0000
0000
0301
0000
,
1000
0100
0000
0020
0000
0030
0010
0000
,
0001
0010
0000
0110
0000
0000
1000
1000
,
0001
0100
0000
0020
0000
0000
0130
0100
;

//---------------dance-single - ----------------
#NOTES:
     dance-single:
     :
     Hard:
     15:
     0.739348,0.788377,0.350877,0.701754,0.214912,590.000000,550.000000,40.000000,80.000000,0.000000,0.000000,0.739348,0.788377,0.350877,0.701754,0.214912,590.000000,550.000000,40.000000,80.000000,0.000000,0.000000:
0000
0000
0000
0000
,
0000
0000
0000
0000
,
0000
0000
0000
0000
,
0000
0000
0000
0000
,
1000
1000
0000
0100
0000
0010
0100
0010
,
0001
0001
0000
0100
0000
0001
0100
0100
,
0001
0001
0000
0010
0000
0100
0010
0100
,
1000
0001
0100
0010
0000
0100
0001
0100
,
0002
1000
0000
0023
0000
0000
0230
0000
,
2300
0001
0000
3020
0000
0130
0110
0000
,
1000
1000
0010
0100
0000
0100
0010
0100
,
0001
1000
0010
0200
0000
1300
0100
0001
,
1000
1000
0100
0010
0000
0010
0100
0010
,
0001
1000
0100
0020
0000
1030
0010
0001
,
0100
0100
0001
0010
0000
0010
0001
1000
,
0100
1000
0001
0200
0000
1300
0100
0001
,
0010
0010
0001
0100
0000
0100
0001
1000
,
0100
1000
0001
0020
0000
0031
0011
0000
,
1000
0010
0100
0001
1001
0000
1000
0100
,
0010
0000
0100
0000
0010
0000
0001
0000
2000
0010
0000
0000
3001
0000
0010
0000
,
0001
0010
0100
1000
1001
0000
0001
0100
,
0010
0100
0000
0000
0010
0000
1000
0000
0001
0010
0000
0000
0110
0000
0000
0000
,
1100
0000
0001
0010
0011
0000
0001
0100
,
0110
0000
0010
0000
1000
0000
0001
0000
1000
0100
0000
0000
1100
0000
0000
0000
,
0101
0100
0010
0100
0110
0010
1000
0001
,
1000
0100
0000
0000
0010
0000
0001
0010
0000
0000
0100
0000
0001
0000
0100
0000
,
1000
0100
1000
0000
0000
0000
1020
0000
0000
0000
0000
0000
0000
0000
0000
0000
,
0000
0000
0000
0000
,
0130
0001
0100
0000
0000
0000
0021
0000
0000
0000
0000
0000
0000
0000
0000
0000
,
0000
0000
0000
0000
,
0130
1000
0100
0000
0000
0000
2010
0000
0000
0000
0000
0000
0000
0000
0000
0000
,
0000
0000
0000
0000
,
3001
0100
0001
0000
0000
0000
0012
0000
0000
0000
0000
0000
0000
0000
0000
0000
,
0000
0000
0000
0000
,
1003
0001
1000
0000
0000
0000
0102
0000
0000
0000
0000
0000
1003
0000
0000
0000
,
0001
1000
0001
0000
0000
0000
2100
0000
0000
0000
0000
0000
3001
0000
0000
0000
,
1000
0100
1000
0000
0000
0000
0012
0000
0000
0000
1003
0000
0100
0000
1000
0000
,
0001
0100
0001
0000
0000
0000
2010
0000
0000
0000
3001
0000
0100
0000
0001
0000
,
1000
0100
1000
0000
0000
0000
0210
0000
0000
0000
0310
0000
0001
0000
1000
0000
,
0001
0100
0001
0000
0000
0000
0210
0000
0000
0000
0310
0000
1000
0000
0001
0000
,
1000
0100
1000
0000
0000
0000
1002
0000
0000
0000
0103
0000
0001
0000
1000
0000
,
0001
0100
0001
0000
0000
0000
2001
0000
0000
0000
3100
0000
1000
0000
0001
0000
,
1000
0010
0100
0000
0000
0000
1020
0000
0000
0000
1000
0000
1030
0000
0001
0000
,
1000
0100
0010
0000
0000
0000
1200
0000
0000
0000
1300
0000
0001
0000
0100
0000
,
0001
0100
0010
0000
0000
0000
0201
0000
0000
0000
0001
0000
0301
0000
1000
0000
,
0001
0010
0100
0000
0000
0000
0021
0000
0000
0000
0031
0000
1000
0000
0010
0000
,
1000
0010
0100
0000
0010
0000
1020
0000
0000
0000
1000
0000
1030
0000
0001
0000
,
1000
0100
0010
0000
0100
0000
0100
0000
1000
0000
0010
0000
0100
0000
0001
0000
,
0020
0000
0000
0000
0000
0000
0100
0100
,
0000
0000
0000
0000
0230
2300
3002
2003
,
0010
0000
3200
0000
1300
0100
1000
0002
,
0100
0000
0000
0000
0023
0000
0000
0000
0031
0100
0000
0000
0010
0000
0100
0000
,
0001
0100
0000
0010
2000
0000
3001
1000
,
0100
0010
0000
0000
0001
1000
0000
0000
0010
0100
0000
0000
1001
0000
0000
0000
,
0012
0000
0203
0000
0301
0100
0001
2000
,
0100
0000
0000
0000
3020
0000
0000
0000
1030
0100
0000
0000
0010
0000
0100
0000
,
1000
0200
0000
0302
0000
0103
2000
0000
,
3001
0100
0000
0000
0010
0000
0100
0000
0001
0010
0000
0000
0100
0000
0020
0000
,
1000
0000
0230
0000
1300
0010
0100
0020
,
0001
0000
0000
0000
0230
0000
0000
0000
0301
0100
0000
0000
0100
0000
0010
0000
,
1000
0010
0000
0100
0002
0000
1003
0001
,
0010
0100
0000
0000
1000
0001
0000
0000
0010
0100
0000
0000
1000
0000
0200
0000
,
0001
0000
0320
0000
0031
0100
0001
0200
,
1000
0000
0000
0000
0320
0000
0000
0000
1030
0010
0000
0000
0100
0000
0010
0000
,
2000
0000
3100
0002
0000
0103
0002
0000
,
0103
0010
0000
0000
0001
0000
0010
0000
0100
1000
0000
0000
1001
0000
0000
0000
,
1000
1000
0010
0100
0001
0001
0010
0100
,
1000
1000
0010
0100
0002
0023
0032
0203
,
0310
0010
0100
0001
1000
1000
0100
0010
,
0001
1000
0001
0000
0100
0000
0010
0000
1000
0001
1000
0001
0100
0000
0000
0000
,
0001
0001
0100
0010
1000
1000
0100
0010
,
0001
0001
0100
0010
2000
3200
2300
3020
,
0130
0101
0000
0001
0011
0000
1000
1000
,
0100
0010
0100
0000
1000
0000
0001
0000
0100
0010
0100
0000
0001
0100
0001
0000
,
1000
1000
0100
0010
0001
0001
0100
0010
,
1000
1000
0100
0010
0002
0203
0302
0023
,
0130
0100
0010
0001
1000
1000
0010
0100
,
0101
0000
0000
0000
1100
0000
0000
0000
0001
0100
0001
0100
0010
0000
0000
0000
,
1000
1000
0010
0100
0001
0001
0010
0100
,
1000
1000
0010
0100
0002
0023
0032
0203
,
0310
0010
0100
0001
1000
1000
0100
0010
,
0001
0000
1000
0010
0100
0000
0000
0000
0100
0010
0000
0000
0100
0010
0000
0000
,
1000
0010
0100
0210
0000
0301
0100
0001
,
1000
0100
1000
0002
0000
1003
1001
0000
,
0001
0010
0100
0020
0000
0130
1000
0001
,
0100
0010
0100
2000
0000
3100
0002
0000
,
1003
0010
0100
0210
0000
0301
0100
0001
,
1000
0100
0010
0002
0000
1003
1001
0000
,
0001
0010
0100
0210
0000
1300
0010
0010
,
1000
0100
0001
2000
0000
3010
0001
0001
;
