#VERSION:0.83;
#TITLE:煉獄事倉;
#SUBTITLE:;
#ARTIST:OSTER project;
#TITLETRANSLIT:rengoku jihen;
#SUBTITLETRANSLIT:;
#ARTISTTRANSLIT:;
#GENRE:;
#ORIGIN:;
#CREDIT:;
#BANNER:;
#BACKGROUND:rengoku jihen.png;
#PREVIEWVID:;
#JACKET:;
#CDIMAGE:;
#DISCIMAGE:;
#LYRICSPATH:;
#CDTITLE:;
#MUSIC:rengoku jihen.ogg;
#OFFSET:1.340000;
#SAMPLESTART:44.089001;
#SAMPLELENGTH:11.571000;
#SELECTABLE:YES;
#BPMS:0.000=280.000;
#STOPS:;
#DELAYS:;
#WARPS:;
#TIMESIGNATURES:48.000=9=4,
75.000=5=4,
85.000=9=4,
112.000=3=4,
121.000=5=4,
126.000=9=4,
162.000=7=4,
176.000=9=4,
212.000=7=4,
226.000=4=4,
266.000=7=4,
371.000=8=4,
387.000=4=4,
507.000=9=4,
516.000=4=4;
#TICKCOUNTS:0.000=4;
#COMBOS:0.000=1;
#SPEEDS:0.000=1.000=0.000=0;
#SCROLLS:0.000=1.000;
#FAKES:;
#LABELS:0.000=Song Start;
#BGCHANGES:0.500=rengoku jihen.avi=1.000=0=0=1=====,
99999=-nosongbg-=1.000=0=0=0 // don't automatically add -songbackground-
;
#KEYSOUNDS:;
#ATTACKS:
;

//---------------dance-single - kaya----------------
#NOTEDATA:;
#CHARTNAME:;
#STEPSTYPE:dance-single;
#DESCRIPTION:kaya;
#CHARTSTYLE:;
#DIFFICULTY:Medium;
#METER:11;
#RADARVALUES:0.436005,0.511129,0.182081,0.407516,0.000000,352.000000,331.000000,21.000000,47.000000,0.000000,0.000000,0.000000,0.000000,0.000000,0.436005,0.511129,0.182081,0.407516,0.000000,352.000000,331.000000,21.000000,47.000000,0.000000,0.000000,0.000000,0.000000,0.000000;
#CREDIT:;
#NOTES:
0000
0000
0000
0000
,
0000
0000
0000
0000
,
0000
0000
0000
0000
,
0000
0000
0000
0000
,
0000
0000
0000
0000
,
0000
0000
0000
0000
0000
0000
0000
1000
,
0000
0000
0000
0010
0000
0000
0000
0100
,
0000
0000
0000
0001
0000
0000
0000
2002
,
0000
0000
0000
0000
,
0000
0000
0000
0000
,
0000
0000
0000
0000
,
3003
0000
0000
0000
,
0001
0010
0100
0010
,
0001
0000
0010
0000
0100
0000
0000
2000
,
3000
1000
0010
0100
,
0010
1000
0010
0100
,
0000
0002
0003
0000
0001
0000
0010
0000
,
0100
0010
0001
0010
,
0100
0000
0000
2000
3000
0000
0010
0000
,
0000
0010
0000
0000
0020
0000
0000
0000
,
0000
0000
0200
0000
0000
0000
0330
0110
,
0000
0001
0100
0010
,
0100
0001
0100
0010
,
0000
2000
3000
0000
1000
0000
0100
0000
,
0010
0100
1000
0100
,
0010
0000
0000
0002
0003
0000
0001
0000
,
0100
0010
0100
0001
,
0100
0000
0010
0000
0000
2000
3000
0000
,
0001
0000
0000
1000
0000
0000
0020
0000
,
0000
0000
0000
0000
0031
0000
0000
1000
,
0000
0200
0000
0000
,
0000
0000
0000
0000
0301
0000
0000
0010
,
0000
0000
1000
0000
0000
0010
0000
0000
,
0001
0001
0001
1000
,
0000
0010
0000
0000
0001
0000
0000
0010
,
0000
1000
1000
1000
,
0001
0000
0000
0100
0000
0000
1000
0000
,
0000
0100
0000
0000
0001
0000
0001
0000
,
0001
0000
1000
0000
0000
0100
0000
0000
,
0001
0000
0100
1000
,
1000
1000
0020
0000
,
0000
0000
1030
0010
,
0100
0000
0001
0000
0000
0010
0000
0000
,
0100
0000
0000
1000
0000
0000
0001
0000
,
2002
0000
0000
0000
,
0000
3003
1000
1000
,
1000
0000
0002
0000
0000
0103
0000
0000
,
2000
0000
0000
3010
0000
0000
0001
0000
,
0001
0001
2002
0000
,
0000
0000
0000
3003
,
0001
0000
0001
0000
0001
0000
0000
2000
,
0000
0000
3100
0000
0000
0002
0000
0000
,
0013
0000
1000
1000
,
0001
0010
0100
1000
,
0001
0000
0000
0001
0000
0000
0001
0000
,
0010
0100
1000
0010
,
0100
0001
2000
0000
,
3020
0000
0230
0000
,
0302
0000
2003
0000
,
0000
0000
0001
0000
,
3100
0000
0010
0100
,
1000
0000
1010
0000
,
0101
0000
0001
0100
,
0010
0000
1010
0000
,
0101
0000
2002
0000
,
3003
0000
0001
1000
,
0010
0100
0002
0000
,
0000
0000
0000
0000
,
0000
0000
1000
0000
0000
1003
0000
0000
,
0000
0000
0000
0000
,
2000
0000
0000
0000
,
0000
0000
0000
0001
,
0000
3001
0000
0000
0000
0000
0000
0000
,
0000
1001
0000
0000
1000
0000
0010
0000
,
1000
0000
0010
0100
,
0001
0001
0010
0001
,
0000
0010
0100
1000
,
1000
0100
1000
0000
,
0100
0010
0001
0001
,
0100
0001
0100
0020
,
0000
0030
0000
0000
1000
0000
0100
0000
,
0010
0000
0100
1000
,
0001
0001
0100
0010
,
0000
0100
0001
0001
,
1000
0010
0100
0000
,
0010
1000
1000
0001
,
0010
0100
0000
0010
,
0001
0001
0100
0100
,
0010
0010
2000
0000
,
0000
3100
0100
0010
,
0010
0002
0000
0000
,
1003
0010
0100
0000
,
0001
0010
0100
1000
,
0000
1100
0000
0001
,
0000
0011
0000
2002
,
0000
0000
0000
0000
,
0000
0000
3003
1000
,
0001
0100
0010
1000
,
0000
1001
0000
0001
,
0010
0100
0000
1000
,
0000
1000
0000
0001
,
0100
0010
1000
0100
,
0010
0001
0000
0200
,
0000
0320
0000
2030
,
0000
3001
0000
2002
,
0000
3003
0000
0001
,
0010
0100
1000
0001
,
0100
0010
0000
1010
,
0000
0101
0000
1000
,
0100
0010
0000
0011
,
0000
1100
0000
2002
,
0000
0000
3003
1000
,
0010
0000
0200
0300
0000
0000
0001
0000
,
0010
0100
1000
0010
,
0100
0001
0000
1000
,
0100
0010
0001
0100
,
0010
1000
0000
0001
,
1000
0010
0000
1000
,
0001
0100
0000
0010
,
1000
0001
0000
0010
,
0001
1000
0000
0001
,
0100
0001
0100
0010
,
1000
0010
0000
1000
,
0100
1000
0100
0010
,
0001
0010
0000
0220
,
0000
0000
0330
0001
,
1000
0000
0000
0010
,
1000
0100
0010
0001
,
0100
0000
0010
0000
2000
3000
0000
0000
,
0000
0001
0000
0001
0000
0001
0000
0001
,
0000
0001
0000
0000
0010
0000
0000
0200
,
0300
0000
0000
0000
;

//---------------dance-single - kaya----------------
#NOTEDATA:;
#CHARTNAME:;
#STEPSTYPE:dance-single;
#DESCRIPTION:kaya;
#CHARTSTYLE:;
#DIFFICULTY:Hard;
#METER:14;
#RADARVALUES:0.631711,0.907806,0.398845,0.589597,0.034682,510.000000,464.000000,46.000000,68.000000,0.000000,0.000000,0.000000,0.000000,0.000000,0.631711,0.907806,0.398845,0.589597,0.034682,510.000000,464.000000,46.000000,68.000000,0.000000,0.000000,0.000000,0.000000,0.000000;
#CREDIT:;
#NOTES:
0000
0000
0000
0000
,
0000
0000
0000
0000
,
0000
0000
0000
0000
,
0000
0000
0000
0000
,
0000
0000
0000
0000
,
0000
0000
0000
0000
0000
0000
0000
0011
,
0000
0000
0000
1100
0000
0000
0000
1010
,
0000
0000
0000
0101
0000
0000
0000
0220
,
0000
0000
0000
0000
,
0000
0000
0000
0000
,
0330
0000
0000
0000
,
0000
1001
0000
1001
0000
1001
0000
0000
,
0001
0100
0100
1000
,
0100
0000
0100
0000
0001
1000
0000
2002
,
3003
1000
0100
0100
,
0001
0000
0100
0000
0100
0000
1000
0001
,
0000
2002
3003
0000
0001
0000
0010
0000
,
0010
1000
0010
0010
,
0001
1000
0000
2002
3003
0000
1100
0000
,
0000
1100
0000
0000
2200
0000
3300
0000
,
0100
0000
1000
0010
0000
0100
0000
0101
,
0000
0100
0010
0010
,
0001
0000
0010
0000
0010
0000
1000
0001
,
0000
2200
3300
0000
0100
0000
0010
0000
,
0010
1000
0010
0010
,
0001
1000
0000
0202
0303
0000
0100
0000
,
0100
1000
0001
0010
,
0010
0000
1000
0001
0000
1001
0000
0000
,
0101
0000
0000
0110
0000
0000
2020
0000
,
0000
3030
0000
0000
0011
0000
0000
0110
,
0000
0000
2200
0000
0000
3300
0000
0000
,
0001
0000
0000
0000
0010
0000
0000
0000
0001
0000
0000
0000
2000
0000
0000
3000
0000
0000
0000
0000
0000
0010
0000
0000
,
2000
3000
0001
0000
2000
3100
0000
0000
,
1000
0000
0010
0000
0100
0000
0002
0003
,
0000
0010
0002
0003
1000
0000
0002
0103
,
0000
0001
0010
0100
,
2000
3000
0000
0010
2000
3000
0001
0000
,
2000
3100
0000
0000
1000
0000
0010
0000
,
0100
0010
0100
0000
0002
0000
0000
0000
,
2000
3003
0001
0010
,
0100
1000
2020
0000
,
0000
3030
1000
0010
,
0100
0000
2000
0000
0000
3100
0000
0000
,
0002
0000
0000
0013
0000
0000
0100
0000
,
0220
0000
0000
0000
,
0330
0000
0001
0001
,
0001
0000
1000
0000
0010
1000
0000
0100
,
1000
0000
0010
1000
0000
0001
0100
0000
,
0010
1000
2002
0000
,
0000
0000
0000
3003
,
0001
0000
1000
0000
0001
0100
0000
1010
,
0000
0000
0011
0000
0000
1100
0000
0000
,
0202
0000
0303
0000
,
1000
0000
1000
0010
0000
0010
0000
0100
,
0001
0000
0000
0101
0000
0000
0001
0000
,
0001
0010
0000
0100
0000
1000
0000
0001
,
0010
0100
1000
0000
2000
0000
0000
0000
,
3020
0000
0130
0001
,
1000
0000
0010
0000
0100
0000
0002
0000
0000
0000
0000
0000
,
0000
0000
0103
0010
0100
0000
0000
0001
,
0100
0000
0010
0000
1000
0100
0000
1000
,
0000
1000
0000
0001
1000
0000
0100
0000
,
0010
0000
0001
0000
1000
0000
0010
1000
,
0000
1000
0000
0001
0000
0000
1000
0000
,
0010
0100
2002
0000
,
3003
0000
1000
0001
1000
0000
0010
0100
,
0000
0001
0000
0000
0202
0000
0000
0000
,
0000
0000
0000
0000
0303
0000
0100
0001
,
0100
0001
1000
0000
0000
1000
0000
0000
,
0000
0000
0000
0000
0100
1000
0100
1000
,
0002
0003
0000
0000
0002
0003
0000
0000
,
0002
0003
0010
0001
0010
0001
1000
0001
,
0000
1000
0010
1000
0010
1000
0001
0100
,
0001
0100
0000
0000
0001
0000
0100
0000
,
0010
1000
0010
0100
,
0001
1000
0001
0000
0010
0000
0100
0000
,
1000
0000
0100
0000
0010
0000
0001
1000
,
0001
1000
0100
0010
,
0001
0000
1000
0000
0001
1000
0001
0000
,
1000
0001
0100
0010
,
0000
0110
0000
0000
1000
0000
0100
0000
,
0010
0000
0100
0000
1000
0000
0100
0010
,
0000
0010
0001
0000
0100
0000
0010
0000
,
0100
0000
0001
0000
0100
0010
0000
0010
,
1000
0001
0010
0001
,
1000
0000
0001
0010
0000
0010
0001
0000
,
1000
0010
1000
0001
,
1000
0020
0000
0000
1030
0000
0100
0000
,
0010
0100
0010
0000
0001
1000
0001
0000
,
1001
0000
0001
0000
0100
0000
0010
0100
,
0010
0000
1000
0001
1000
0000
1001
0000
,
1000
0100
0010
0001
,
0100
0000
0000
0010
0000
0000
1000
0000
0000
0002
0000
0010
,
0000
0000
0000
0023
0000
0100
0000
0000
0000
0230
0000
0000
,
0000
2300
0000
0002
,
0000
0000
0000
0000
3003
0000
0000
1001
,
0000
1001
0000
1001
0000
0000
1000
0001
,
0100
0010
1000
0000
0000
0000
0110
0000
,
0000
0110
0000
1000
,
1000
0010
0000
0010
0000
0100
0001
0000
,
0000
0001
0000
1000
0000
0000
0001
0000
,
0001
0100
0000
0010
0000
1000
0000
0001
,
0100
0010
1000
0000
0000
0000
0011
0000
,
0000
1010
0000
0001
,
1000
0000
0000
0001
0000
0010
0000
0100
0000
2000
0000
0000
,
0000
0000
0000
0000
3010
0100
0010
0000
,
0000
1000
0010
0000
0100
0000
0001
0010
,
0000
0100
0000
1000
0000
0000
0002
0000
,
0023
0230
2300
3001
,
0100
0010
0000
1000
0000
0002
0000
0003
,
0200
0320
2030
3002
,
0000
0003
0000
0010
,
0100
1000
0000
0001
0000
0000
1000
0000
,
1000
0010
0000
0010
0000
0100
0001
0000
,
0100
0001
0000
0001
0000
0000
0001
0000
,
0001
0010
0000
0100
0000
1000
0000
0001
,
0010
0100
1000
0000
0001
0000
1000
0000
,
0001
0100
0000
0010
0000
1000
0000
0001
,
0000
0100
0000
0100
0010
0000
1000
0000
,
0001
0000
0010
0100
0000
1000
0000
0000
,
0001
0010
0100
1000
,
1000
0001
0001
0100
,
0100
0010
0010
1000
,
1000
0001
0001
0010
,
0010
0100
0100
2000
,
0000
0000
0000
3001
,
1001
0000
0000
0000
0000
0000
1000
0001
,
1000
0001
1000
0001
1000
0001
1000
0001
,
1000
0001
1000
0001
0000
2002
0000
3003
,
0000
1000
0000
1000
0000
1000
0000
1000
,
0000
1000
0000
0000
0001
0010
0100
1000
;

//---------------dance-single - kaya----------------
#NOTEDATA:;
#CHARTNAME:;
#STEPSTYPE:dance-single;
#DESCRIPTION:kaya;
#CHARTSTYLE:;
#DIFFICULTY:Challenge;
#METER:17;
#RADARVALUES:0.824941,1.083168,0.355492,0.684973,0.099711,666.000000,625.000000,41.000000,79.000000,0.000000,0.000000,0.000000,0.000000,0.000000,0.824941,1.083168,0.355492,0.684973,0.099711,666.000000,625.000000,41.000000,79.000000,0.000000,0.000000,0.000000,0.000000,0.000000;
#CREDIT:;
#NOTES:
// measure 0
0000
0000
0000
0000
,  // measure 1
0000
0000
0000
0000
,  // measure 2
0000
0000
0000
0000
,  // measure 3
0000
0000
0000
0000
,  // measure 4
0000
0000
0000
0000
,  // measure 5
0000
0000
0000
0000
0000
0000
0000
0002
,  // measure 6
0000
0003
1000
0000
0010
0000
2000
0000
0000
3000
0100
0000
0010
0000
0200
0000
,  // measure 7
0000
0300
0010
0000
0001
0000
0020
0000
0000
0030
0001
0000
0000
0000
0202
0000
,  // measure 8
0000
0000
0000
0000
,  // measure 9
0000
0000
0000
0000
,  // measure 10
0000
0000
0000
0000
0303
0000
0001
1000
,  // measure 11
0000
1010
0000
1010
0000
1010
0000
0000
,  // measure 12
1000
0010
1000
0010
0100
0001
1000
0010
,  // measure 13
1000
0010
0100
0001
1000
0100
0010
0002
,  // measure 14
0000
0000
1003
0100
1000
0100
0010
0001
,  // measure 15
1000
0100
1000
0100
0010
0001
1000
0010
,  // measure 16
0100
0002
0000
0003
1000
0100
0010
0100
,  // measure 17
0010
0001
1000
0010
0100
0010
0100
0001
,  // measure 18
1000
0100
0010
0002
0000
0003
1000
0000
,  // measure 19
0010
1000
0000
1000
0002
0000
0000
0000
,  // measure 20
0103
0010
1000
0001
0010
0100
0000
2000
,  // measure 21
0000
3000
0001
0010
0001
0010
0100
1000
,  // measure 22
0001
0010
0001
0010
0100
1000
0001
0100
,  // measure 23
0010
2000
0000
0000
3001
0100
0001
0100
,  // measure 24
0010
1000
0001
0100
0001
0100
0010
1000
,  // measure 25
0001
0010
0100
2000
0000
0000
3001
0010
,  // measure 26
0100
0010
0100
1000
0001
0100
0010
0100
,  // measure 27
0010
1000
0001
0010
0100
1000
0000
0000
,  // measure 28
0011
0000
0000
1001
0000
0000
2020
0000
,  // measure 29
3030
0000
0000
0000
0101
0000
0000
1001
,  // measure 30
0000
0000
2200
0000
3300
0000
0001
0100
,  // measure 31
0010
0000
0000
0000
1000
0000
0000
0000
0100
0000
0000
0000
0010
0000
0000
0001
0000
0000
1000
0000
0000
0010
0000
0000
,  // measure 32
0000
0000
0010
1000
0001
0010
0000
0010
,  // measure 33
0100
0000
1000
0000
0001
0000
0100
0001
,  // measure 34
1000
0100
0000
0000
0100
1000
0001
0100
,  // measure 35
0000
0100
0010
0000
1000
0000
0001
1000
,  // measure 36
0010
1000
0001
0100
0000
0000
0100
0001
,  // measure 37
1000
0010
0000
0010
0100
0000
0001
0000
,  // measure 38
0010
0100
1000
0000
0002
0000
0000
0000
,  // measure 39
0020
0003
0130
0001
,  // measure 40
0100
0000
0010
0100
2000
0000
0000
0000
,  // measure 41
0000
0000
3001
1000
,  // measure 42
0010
0000
1010
0000
0000
0101
0000
0000
,  // measure 43
1100
0000
0000
0000
0011
0000
0010
0100
,  // measure 44
2000
0000
0000
0000
,  // measure 45
0000
3000
1000
0010
,  // measure 46
0100
0000
0001
0000
0100
0010
0000
0100
,  // measure 47
1000
0000
0100
0010
0000
0100
0001
0000
,  // measure 48
0010
0100
2000
0000
,  // measure 49
0000
0000
0000
0000
,  // measure 50
3001
0000
1000
0000
0100
0010
0000
0022
,  // measure 51
0033
0000
2200
3300
0000
2020
3030
0000
,  // measure 52
0202
0000
0303
0000
0100
0010
1000
0001
,  // measure 53
1000
0100
0010
0100
0000
0100
0000
0001
,  // measure 54
0200
0000
0300
1000
0000
1000
0001
0100
,  // measure 55
0010
0100
0000
1000
0000
0200
0000
0310
,  // measure 56
1000
0001
0010
0100
0010
0000
0000
0010
,  // measure 57
1000
0000
0000
1000
0001
0000
0100
0000
,  // measure 58
0010
0000
0100
0000
1000
0000
0002
0000
0000
0000
0000
0000
,  // measure 59
0000
0000
0000
0000
0000
0000
1003
0000
0000
0010
0000
0000
1000
0000
0000
0000
0000
0000
0000
0000
0010
0000
0100
0000
,  // measure 60
0010
0000
0000
0000
0100
0000
0000
0000
0001
0000
0000
0000
1000
0000
0000
0100
0000
0000
0000
0000
0000
0010
0000
0000
,  // measure 61
0000
0001
0000
1000
0002
0000
0203
0000
,  // measure 62
0320
0000
2030
0000
3001
0000
0010
0100
,  // measure 63
0000
1000
0000
0001
0000
0000
2000
0000
,  // measure 64
3020
0230
0302
0003
,  // measure 65
0000
0000
0001
0010
0100
0000
1000
0010
,  // measure 66
0000
0100
0000
0002
2000
0000
0000
0000
,  // measure 67
0000
0000
3003
0000
0000
0000
1000
0001
,  // measure 68
1000
0001
0010
0100
0000
0100
1000
0000
,  // measure 69
0000
0010
0000
0010
0100
0001
1000
0001
,  // measure 70
0010
0000
0100
0000
1000
0001
0000
0010
,  // measure 71
0000
0100
1000
0001
0100
0010
1000
0001
,  // measure 72
0000
0001
0100
0010
0100
1000
0100
0010
,  // measure 73
0100
0002
0000
0000
1003
0000
0100
0010
,  // measure 74
0000
0001
0000
1000
0000
0000
0100
1000
,  // measure 75
0001
0010
0001
0000
0000
1000
0000
0001
,  // measure 76
0100
0000
0010
0100
0001
2000
0000
3000
,  // measure 77
0001
0100
0001
1000
0010
1000
0001
0010
,  // measure 78
0001
1000
0100
1000
0010
0100
0001
0000
,  // measure 79
1000
0010
0000
0100
0000
0001
0000
0010
,  // measure 80
0001
2000
0000
3000
0001
0000
0011
0000
,  // measure 81
0001
0000
0101
0000
0001
0000
0100
0010
,  // measure 82
1000
0001
1000
0000
1100
0000
1000
0000
,  // measure 83
1010
0000
1000
0000
0010
0100
0001
1000
,  // measure 84
0002
0013
0000
2000
3010
0000
0002
0013
,  // measure 85
0000
2000
3010
0000
0002
0103
0000
2000
,  // measure 86
3100
0000
0002
0103
0000
2000
3100
0000
,  // measure 87
0001
1000
0001
1000
0001
0000
0011
0000
,  // measure 88
0011
0000
0000
0000
0011
0000
0000
0000
1000
0000
0000
0000
0001
0000
0010
0100
,  // measure 89
1000
0001
1000
0000
1010
0000
1010
0000
,  // measure 90
1010
0000
0001
0000
1000
0010
0100
0001
,  // measure 91
1000
0100
0010
0100
0010
0001
1000
0010
,  // measure 92
0100
0000
0000
0010
0000
0000
0100
0000
0000
0001
0000
0000
0000
0000
0000
0000
0000
0000
0010
0000
0000
0000
0001
0000
,  // measure 93
0000
0100
0000
0010
0000
1000
0000
0100
0000
1000
0000
0000
,  // measure 94
0000
1100
0000
0022
,  // measure 95
0000
0000
0000
0000
0033
0000
0000
0011
,  // measure 96
0000
0011
0000
0011
0000
0000
0001
0010
,  // measure 97
0100
0000
1000
0100
1000
0000
0100
0000
0010
0000
0001
0000
1000
0000
0000
0000
,  // measure 98
0000
1001
0000
1000
,  // measure 99
0010
0100
0000
0010
0000
0001
0020
0000
,  // measure 100
0030
1000
0000
1000
0000
0000
0001
0010
,  // measure 101
0100
0010
0000
1000
0000
0020
0000
0031
,  // measure 102
1000
0001
0100
0010
0000
0000
0100
0000
,  // measure 103
0000
0100
1000
0000
0000
1000
0001
0000
,  // measure 104
0010
0000
0000
0100
0000
0010
0000
1000
0000
0002
0000
0000
,  // measure 105
0000
0000
0000
0000
1003
0010
1000
0000
,  // measure 106
0010
0000
0000
0100
0000
0000
0010
0000
0000
0000
1000
0000
0000
0000
0001
0000
0000
0000
1000
0000
0000
0100
0000
0000
,  // measure 107
0000
0010
0000
0001
0000
1000
0002
0000
,  // measure 108
0023
0230
2300
3001
,  // measure 109
0100
0010
0000
1000
0000
0001
0000
0000
,  // measure 110
2000
3020
0230
0302
,  // measure 111
0000
0000
0000
0000
0013
0100
1000
0000
,  // measure 112
0010
1010
0000
0101
0000
0000
0001
0010
,  // measure 113
0100
0010
0000
0010
0000
1000
0020
0000
,  // measure 114
0130
1000
0000
1000
0000
0001
1000
0010
,  // measure 115
0100
0010
0000
0001
0000
0020
0000
0130
,  // measure 116
0001
1000
0001
0010
0100
0000
1000
0001
,  // measure 117
0100
0010
0000
0100
0000
2000
0000
3200
,  // measure 118
0000
0320
0000
1030
0001
0010
0100
1000
,  // measure 119
0100
0010
0100
0002
0000
0203
0000
0300
,  // measure 120
0020
0000
0031
1000
0100
0010
0001
1000
,  // measure 121
0100
0010
0001
1000
0010
0100
0001
1000
,  // measure 122
0010
0100
0001
1000
0100
0010
0100
1000
,  // measure 123
0100
0010
0001
1000
0001
0100
0010
0100
,  // measure 124
0001
0100
0010
1000
0001
0000
0020
0000
,  // measure 125
0000
0000
0030
0000
0100
0010
0001
0000
,  // measure 126
1000
0000
0000
0010
0000
0000
0000
0000
0000
0100
0000
0000
0000
0000
0000
0000
0000
0000
0001
0000
1000
0000
0001
0000
,  // measure 127
1000
0000
0001
0000
1000
0000
0001
0000
0000
0100
0000
0000
0010
0000
0000
1000
0000
0000
0001
0000
0000
0010
0000
0000
,  // measure 128
0100
0000
1000
0100
1000
0000
0100
0000
0010
0000
0002
0000
0000
0000
0000
0000
,  // measure 129
0013
0100
0000
1100
0000
0011
0000
1100
,  // measure 130
0000
0011
0000
1000
0001
0100
0010
0220
,  // measure 131
0000
0000
0330
0000
;
