#TITLE:Red Rocket Rising;
#SUBTITLE:~GOLD edit~;
#ARTIST:BeForU;
#TITLETRANSLIT:;
#SUBTITLETRANSLIT:;
#ARTISTTRANSLIT:;
#GENRE:;
#CREDIT:;
#BANNER:Red Rocket Rising.png;
#BACKGROUND:Red Rocket Rising-bg.png;
#LYRICSPATH:;
#CDTITLE:;
#MUSIC:Red Rocket Rising.ogg;
#OFFSET:-1.163900;
#SAMPLESTART:34.425999;
#SAMPLELENGTH:12.411000;
#SELECTABLE:YES;
#BPMS:0.000000=155.000000
;
#STOPS:
;
#BGCHANGES:;
#KEYSOUNDS:;
#ATTACKS:;

//---------------dance-single - ----------------
#NOTES:
     dance-single:
     :
     Hard:
     12:
     0.476509,0.509509,0.171264,0.579034,0.236507,409.000000,388.000000,21.000000,71.000000,0.000000,0.000000,0.476509,0.509509,0.171264,0.579034,0.236507,409.000000,388.000000,21.000000,71.000000,0.000000,0.000000:
0000
0000
0000
0000
,
0000
0000
0000
0000
,
2000
0000
0020
3030
,
0102
0000
0000
1000
0000
0000
1000
0000
1003
0000
0000
0000
0000
0000
0000
0000
,
1000
0100
0010
0001
1000
0010
1000
0001
,
0200
0000
0000
0010
0000
0000
0010
0000
0310
0000
0000
0000
0000
0000
0000
0000
,
0100
1000
0100
0001
1000
0100
0001
0100
,
2000
0000
0000
0001
0000
0000
0001
0000
3001
0000
0000
0000
0000
0000
0000
0000
,
0001
0100
0010
1000
0001
0010
0001
1000
,
0200
0000
0000
0010
0000
0000
0010
0000
0310
0000
0000
0000
0000
0000
0000
0000
,
1100
0000
0000
0000
1010
0000
0000
0000
0102
0000
0000
0010
0000
0000
0013
0000
,
0100
0000
0000
1000
0000
0000
0001
0000
1001
0000
0000
0000
0000
0000
0000
0000
,
1100
0000
0001
0000
1100
0010
0001
1000
,
0020
0000
0000
0001
0000
0000
0031
0000
0010
0000
0100
0000
0001
0000
0000
0000
,
0110
0000
1000
0000
0110
0001
0100
0010
,
2000
0000
0000
0001
0000
0000
3001
0000
1000
0000
0100
0000
0010
0000
0001
0000
,
0200
0000
0000
0010
0000
0000
0310
0000
0100
0000
0001
0000
0010
0000
0000
0000
,
0200
0000
0000
1000
0000
0000
1300
0000
1100
0000
0000
0000
0001
0000
0000
0000
,
0200
0000
0000
1000
0000
0000
1000
0000
1300
0000
0001
0000
0010
0000
1000
0000
,
0001
0000
0000
0001
0000
0000
0001
0000
1000
0000
0000
1000
0000
0000
1000
0000
,
0100
0010
0100
0010
0100
1000
0100
0010
,
0001
1000
1001
0000
1000
0100
0010
0001
,
2000
0000
0000
0010
0000
0000
0010
0000
3020
0000
0000
0001
0000
0000
0001
0000
,
0031
0000
0000
1000
0000
0000
0100
0000
0001
0000
0000
0000
0000
0000
1000
0000
,
0200
0000
0000
0001
0000
0000
0001
0000
0302
0000
0000
0100
0000
0000
0100
0000
,
0203
0000
0000
1000
0000
0000
1000
0000
1300
0000
0100
0000
0010
0000
0001
0000
,
0200
1300
0200
0310
,
0200
0000
0301
0000
0200
0000
0310
1000
,
0001
0000
0000
0001
0000
0000
0001
0000
1000
0000
0000
1000
0000
0000
1000
0000
,
0100
0010
0000
0000
1001
0000
0000
0000
0001
0000
0100
0000
0010
0000
1000
0000
,
0002
0000
0000
0010
0000
0000
0010
0000
0023
0000
0000
1000
0000
0000
1000
0000
,
1030
0000
0000
0001
0000
0000
0100
0000
1000
0000
0000
0000
0000
0000
0001
0000
,
0200
0000
0000
1000
0000
0000
1000
0000
2300
0000
0000
0100
0000
0000
0100
0000
,
3200
0000
0000
0001
0000
0000
0001
0000
0301
0000
0100
0000
0010
0000
1000
0000
,
0200
0301
0200
0310
,
0200
1300
0200
0310
,
0011
0000
0000
0100
0000
0000
0100
0000
1010
0000
0000
0100
0000
0000
0100
0000
,
0002
0023
2030
3200
,
0301
0000
1000
0000
0010
0000
0000
0000
0100
0000
0000
0100
0000
0000
0100
0000
,
0001
0000
0010
0000
0100
0000
0000
0000
1000
0000
0000
1000
0000
0000
1000
0000
,
0001
0100
0001
0100
1000
0100
1000
0100
,
0010
0100
0010
0100
0001
0100
0010
1000
,
0000
0000
0002
0000
,
0023
0000
2030
0000
,
3020
0000
0230
0000
,
0302
0000
0000
0000
0000
0000
0000
0000
0203
0000
0000
1000
0000
0000
1000
0000
,
1300
0000
2000
0000
,
3020
0000
0032
0000
,
0023
0000
0230
0000
,
2300
0000
0000
0000
0000
0000
0000
0000
3100
0000
0000
0100
0000
0000
0100
0000
,
0001
0000
0000
0001
0000
0000
0001
0000
1000
0000
0100
0000
1000
0000
0100
0000
,
0010
0001
0010
0001
0100
0010
0110
0000
,
1000
0000
0100
0000
0010
0000
0001
0000
0200
0000
0000
0010
0000
0000
0310
0000
,
0200
0000
0000
1000
0000
0000
1300
0000
0200
0000
0000
0010
0000
0000
0310
0000
,
0200
0000
0000
0001
0000
0000
0301
0000
0101
0000
0000
0010
0000
0000
0010
0000
,
1100
0000
0000
0010
0000
0000
0010
0000
0001
0000
0000
0100
0000
0000
0010
0000
,
1000
0100
0010
0100
0002
0000
0103
0000
,
2000
3001
0200
1300
,
0002
0000
0000
0000
0013
0000
0000
0000
1000
0000
0000
1000
0000
0000
1000
0000
,
0001
0000
0000
0001
0000
0000
0001
0000
0100
0010
0000
0000
0110
0000
0000
0000
,
1000
0000
0100
0000
0010
0000
0001
0000
2000
0000
0000
0010
0000
0000
0010
0000
,
3020
0000
0000
0001
0000
0000
0001
0000
0031
0000
0000
1000
0000
0000
0100
0000
,
0001
0000
0000
0000
0000
0000
1000
0000
0200
0000
0000
0001
0000
0000
0001
0000
,
0302
0000
0000
0100
0000
0000
0100
0000
0203
0000
0000
1000
0000
0000
1000
0000
,
1300
0100
0010
0001
0200
0000
1300
0000
,
0002
0013
2000
3001
,
0020
0000
0000
0000
0130
0000
0000
0000
1000
0000
0000
0001
0000
0000
1000
0000
,
0010
0000
0000
0100
0000
0000
0010
0000
1000
0000
0010
0000
0100
0000
0001
0000
,
0010
0100
0010
0001
2000
0000
3000
0010
,
0002
0000
0000
1000
0000
0000
1003
0000
0200
0000
0000
0000
0300
0000
0001
0000
,
1000
0000
0100
0000
0010
0000
0001
0000
1010
0000
0000
0100
0000
0000
0100
0000
,
0011
0000
0000
0100
0000
0000
0100
0000
2000
0000
0000
0000
3020
0000
0000
0000
,
0032
0000
0000
0000
0203
0000
0000
0000
1300
0000
0000
1000
0000
0000
1000
0000
,
0001
0000
0000
0001
0000
0000
0001
0000
0110
0000
0000
0000
0000
0000
0000
0000
;

//---------------dance-single - ----------------
#NOTES:
     dance-single:
     :
     Medium:
     8:
     0.356508,0.449567,0.171264,0.277284,0.036699,306.000000,285.000000,21.000000,34.000000,0.000000,0.000000,0.356508,0.449567,0.171264,0.277284,0.036699,306.000000,285.000000,21.000000,34.000000,0.000000,0.000000:
0000
0000
0000
0000
,
0000
0000
0000
0000
,
2000
0000
3002
0000
,
0013
0000
0000
0010
0000
0000
0010
0000
1001
0000
0000
0000
0000
0000
0000
0000
,
1000
0100
0010
0001
1000
0000
0010
0000
,
0001
0010
1000
0000
,
0010
0100
0001
0010
0100
0000
1000
0000
,
0010
1000
0001
0000
,
0010
0100
1000
0010
0100
0000
0001
0000
,
0010
0001
1000
0000
,
2100
3010
0102
0013
,
0100
1000
0001
0100
0010
0000
0000
0000
,
1000
0000
0010
0000
1000
0100
0010
0001
,
0100
0010
0101
0000
,
0001
0000
0010
0000
0001
0100
0010
1000
,
0100
0010
1100
0000
,
1000
0000
0000
1000
0000
0000
1000
0000
0010
0000
0000
0000
0101
0000
0000
0000
,
0001
0000
0000
0001
0000
0000
0001
0000
0010
0000
0000
0000
0100
0000
0000
0000
,
1000
0000
0001
0000
1000
0010
0100
0001
,
0020
0000
0230
0000
,
1300
0001
1000
0001
1000
0000
0001
0100
,
0010
0000
0110
0000
1000
0100
0010
0001
,
2000
0010
3020
0001
,
0031
0000
1000
0100
0001
0000
0000
0000
,
0020
0100
0230
0001
,
0301
0000
0100
1000
0010
0000
0100
0000
,
0001
0010
1100
0000
,
1000
0010
0101
0000
,
0001
0001
1000
0100
,
0020
0000
0000
0030
0001
0100
0010
1000
,
0002
0010
0023
1000
,
1030
0000
0001
0100
1000
0000
0000
0000
,
0020
0100
0230
1000
,
1300
0000
0100
0001
0010
0000
0100
0000
,
1000
0001
0101
0000
,
0001
1000
1100
0000
,
1000
0000
0000
1000
0000
0000
1000
0000
0001
0000
0000
0001
0000
0000
0001
0000
,
0010
1000
0100
0001
,
0010
0010
0001
1000
,
0010
0010
0100
0001
,
1000
0100
1000
0000
0001
0010
0001
0000
,
1000
0010
0100
0001
,
0010
0000
0002
0000
,
0203
0000
2300
0000
,
3200
0000
0320
0000
,
2030
0000
0001
0001
,
3001
0000
2000
0000
,
3200
0000
0302
0000
,
0203
0000
0320
0000
,
0032
0000
1003
0010
,
0100
0001
0020
0000
,
0000
0000
0000
0030
0001
1000
0001
0000
,
1000
0100
0010
0001
0100
0000
1000
0000
,
0100
0010
0100
0001
,
0100
0000
0000
0000
0010
0000
0000
0000
1000
0000
0000
1000
0000
0000
1000
0000
,
0001
0000
0000
0001
0000
0000
0001
0000
0101
0000
0000
0000
1000
0000
0000
0000
,
1100
0010
0001
0100
,
1010
0000
1000
0100
,
0011
0000
1000
1000
,
0001
0100
0020
0000
,
1030
0100
0010
0001
2000
0000
0010
0000
,
3020
0000
0001
0000
0031
0000
1000
0100
,
0001
0000
0020
0100
,
0230
0000
0001
0000
0301
0000
0100
1000
,
0010
0100
0001
0010
,
1100
0000
1000
0010
,
0101
0000
0001
0001
,
1000
0100
0020
0000
,
0031
0001
1100
0000
,
1000
1000
0101
0000
,
0010
0010
1001
0000
,
0001
1000
0010
0001
,
0100
0000
0000
0000
1000
0000
0000
0000
0010
0000
0000
0010
0000
0000
0010
0000
,
0100
0000
0000
0100
0000
0000
0100
0000
1001
0000
0000
0000
0000
0000
0000
0000
;
