#TITLE:Red Nikita;
#ARTIST:Osamu Kubota;
#BANNER:Red Nikita.png;
#BACKGROUND:Red Nikita-bg.png;
#JACKET:Red Nikita-jacket.png;
#CDTITLE:./CDTITLES/BEATMANIA IIDX.PNG;
#MUSIC:Red Nikita.ogg;
#SAMPLESTART:38.571;
#SAMPLELENGTH:15;
#BPMS:0=140;

//---------------dance-single - t7r----------------
#NOTES:
     dance-single:
     t7r:
     Beginner:
     3:
     :
0000
0000
0000
0000
,
0000
0000
0000
0000
,
0000
0000
0000
0000
,
0000
0000
0000
0000
,
0000
0000
0000
0000
,
0000
0000
0000
0000
,
0100
0000
0000
0000
,
0010
0000
0000
0000
,
1000
0000
0000
0000
,
0001
0000
0000
0000
,
0010
0000
0000
0000
,
0100
0000
0000
0000
,
1000
0000
0000
0000
,
0001
0000
0000
0000
,
0100
0000
0000
0000
,
0000
0000
0000
0010
,
0000
0000
0000
0100
,
0000
0000
0000
0001
,
0000
0000
0000
1000
,
0000
0000
0100
0000
,
0100
0000
0010
0010
,
0010
0000
0001
0000
,
1000
0000
0000
0010
,
0000
0010
0000
0100
,
0000
0100
0000
0001
,
0000
0001
0000
1000
,
1000
0000
0100
0000
,
0010
0000
0001
0000
,
0000
0000
0000
0000
,
0000
0000
1000
0000
,
0000
0000
0010
0000
,
0000
0000
0100
0000
,
0000
0000
0001
0000
,
0000
0000
0010
0000
,
0100
0000
1000
0000
,
0001
0000
0100
0000
,
0010
0000
1000
0000
,
0001
0000
1000
0000
,
0100
0000
0000
0010
,
0000
0010
0000
0001
,
0000
0000
0000
1000
,
0000
0000
0000
0010
,
0010
0000
0100
0000
,
0100
0000
0000
0001
,
0000
1000
0000
0100
,
0000
0010
0010
0000
,
0000
0001
0000
0000
,
1000
0000
0000
0010
,
0000
0000
0100
0100
,
0000
0000
0000
0010
0000
0000
0000
0000
,
0000
1001
0000
0000
0000
0000
0000
0000
;

//---------------dance-single - t7r----------------
#NOTES:
     dance-single:
     t7r:
     Easy:
     7:
     :
0000
0000
0000
0000
,
0000
0000
0000
0000
,
0000
0000
0000
0000
,
0000
0000
0000
0000
,
0000
0000
0000
0000
,
0000
0000
0000
0000
,
0010
1000
0100
0010
,
0010
0001
0100
0001
,
0010
0001
0100
0010
,
0010
1000
0100
1000
,
0100
1000
0010
0100
,
0100
0001
0010
0001
,
0100
0001
0010
0100
,
0100
0000
0000
0000
1000
0000
0000
0000
0010
0000
0000
0010
0000
0000
1000
0000
,
0000
1000
0000
0000
0001
0000
0000
0001
0000
0000
0010
0000
0000
0010
0000
0000
,
0000
0000
0000
0000
0000
0001
1000
0000
,
0000
1000
0001
0000
0000
0100
0010
0000
,
0000
0010
0100
0000
0000
0010
1000
0000
,
0000
1000
0010
0000
0000
0100
0001
0000
,
0000
0001
0100
0000
0001
0000
0010
0000
,
0100
0100
1000
0010
,
0001
0010
1000
0001
,
0100
0001
1000
0000
0001
0000
0010
0000
,
0100
0100
0010
0001
,
0100
0000
0000
0100
0000
0000
0000
0010
0000
0000
0000
0000
1000
0000
0000
0000
,
0100
0010
0010
0100
,
1000
0000
0000
1000
0000
0000
0010
0000
0000
0010
0000
0000
0100
0000
0000
0100
,
0000
0000
0001
0000
0000
0001
0000
0000
1000
0000
0000
0000
0000
0000
0000
0000
,
0000
0000
0000
0000
,
0000
0000
0001
0000
,
0000
0000
0000
0010
0000
0000
0100
0000
,
0000
1000
0000
0000
0010
0000
0000
0000
,
0000
0000
0000
0100
,
0000
0001
0000
0000
1000
0000
0010
0000
,
0010
0100
0001
0010
,
0010
0100
1000
0001
,
0001
0010
0001
1000
,
1000
0000
0010
0000
1000
0001
1000
0000
,
0001
1000
0001
0000
1000
0000
0100
0000
,
0001
0000
0010
0000
0000
1000
0001
0000
,
1000
0000
0100
0000
0000
0010
0001
0000
,
1000
0001
0100
0100
,
0010
0010
1000
1000
,
0001
0000
0010
0000
0000
0001
1000
0000
,
0000
0000
0010
0000
0100
0000
0000
0000
0001
0000
0000
0001
0000
0000
1000
0000
,
0000
1000
0000
0000
0010
0000
0000
0000
1000
0000
0000
0000
0100
0000
1000
0000
,
0000
0100
0010
0000
0001
0010
0000
0001
,
1000
0000
0000
0000
0010
0000
0100
0000
0000
0000
0010
0000
1000
0000
0000
1000
,
0000
0000
0001
0000
0000
0001
0000
0000
0100
0000
0000
0000
0100
0000
0000
0000
,
0000
0010
0000
0010
0000
0000
0000
0000
,
0000
1001
0000
0000
0000
0000
0000
0000
;

//---------------dance-single - t7r----------------
#NOTES:
     dance-single:
     t7r:
     Medium:
     9:
     :
0000
0000
0000
0000
,
0000
0000
0000
0000
,
0000
0000
0000
0000
,
0000
0000
0000
0000
,
0000
0000
0000
0000
,
0000
0000
0000
0000
,
0100
0000
0000
0000
0001
0000
0000
1000
0000
0000
0000
0000
0010
0000
0000
1000
,
0000
0000
0000
0000
0100
0000
0000
0000
1000
0000
0000
0010
0000
0000
0000
0000
,
1000
0000
0000
0000
0100
0000
0000
0010
0000
0000
0000
0000
0001
0000
0000
1000
,
0000
0000
0000
0000
0010
0000
0000
0000
0100
0000
0000
0001
0000
0000
0000
0000
,
0010
0000
0000
0000
0001
0000
0000
1000
0000
0000
0000
0000
0100
0000
0000
1000
,
0000
0000
0000
0000
0010
0000
0000
0000
1000
0000
0000
0100
0000
0000
1000
0000
,
0001
0000
0000
0000
0010
0000
0000
0100
0000
0000
0000
0000
1000
0000
0000
0010
,
0000
0000
0000
0000
0100
0000
0000
0000
0010
0000
0000
1000
0000
0000
0001
0000
,
0000
0010
0000
0000
0001
0000
0000
1000
0000
0000
0010
0000
0000
0100
0000
0000
,
0001
1000
0100
0000
0000
1000
0010
0000
,
0000
1000
0100
0000
0000
0010
0001
0000
,
0000
0100
0001
0000
0000
0100
0010
0000
,
0000
1000
0001
0000
0000
0010
0100
0000
,
0000
0010
0001
0000
1000
0010
1000
0010
,
1000
0001
0100
0000
0001
0000
0010
0000
,
0100
0000
1000
0000
0001
0000
0100
0010
,
1000
0000
0100
0000
0010
0000
0000
0000
0001
0000
1000
0000
0010
0000
0000
1000
,
0000
0000
0100
0000
1000
0000
0000
0010
0000
0000
1000
0000
0100
0000
1000
0000
,
0010
0000
0000
0100
0000
0000
0000
0001
0000
0000
1000
0000
0001
0000
0000
0010
,
0000
0000
0001
0000
0100
0000
0000
0001
0000
0000
0010
0000
0001
0000
0100
0000
,
0001
0000
0000
1000
0000
0000
0100
0000
0000
0010
0000
0000
0001
0000
0000
1000
,
0000
0000
0010
0000
0000
0100
0000
0000
0001
0000
0000
0000
0000
0000
0000
0000
,
0000
0000
0000
0000
,
0000
0000
0010
0100
,
0010
0000
0000
0001
1000
0000
0000
0000
0010
0000
0000
0000
0100
0000
0000
0000
,
0010
0000
0000
1000
0001
0000
0000
0000
0100
0000
0000
0000
0010
0000
0000
0000
,
0100
0000
0000
0001
1000
0000
0000
0000
0100
0000
0000
0000
0010
0000
0000
0000
,
0100
0000
0000
1000
0001
0000
0000
0000
1000
0000
0000
0000
0010
0000
0000
0000
,
0100
0000
0000
0010
1000
0000
0000
0000
0001
0000
0000
0000
0010
0000
0000
0000
,
0100
0000
0000
0010
0001
0000
0000
0000
1000
0000
0000
0000
0100
0000
0000
0000
,
0001
0000
0000
0100
1000
0000
0000
0000
0001
0000
0000
0000
0100
0000
0000
0000
,
1000
0000
0000
0100
0001
0000
0000
0000
1000
0000
0010
0000
1000
0000
0000
0000
,
0001
0000
0010
0000
0001
0000
0000
0000
0000
1000
0000
0001
1000
0000
0000
0000
,
0010
0100
0000
0010
0100
0000
0010
0000
0000
0000
1000
0000
0001
0000
1000
0000
,
0001
0000
0000
0010
0000
0100
0000
0000
0000
0010
0000
0000
0001
0000
0000
1000
,
0000
0010
0000
0000
0000
1000
0000
0100
0000
0000
1000
0000
0001
0000
0010
0000
,
1000
0010
0001
0010
1000
0010
0001
1000
,
0010
0000
0000
0100
0000
0000
0001
0000
0000
0000
1000
0000
0010
0000
0000
0000
,
0000
0100
0000
0000
0001
0000
0000
0000
0010
0000
0000
1000
0000
0000
0010
0000
,
0000
0001
0000
0000
1000
0000
0000
0000
0010
0000
0000
0100
0000
0000
0001
0000
,
0100
0000
0001
0000
1000
0000
0000
0100
0000
0000
0010
0000
0100
0000
1000
0000
,
0001
0000
0000
0010
0000
0000
0001
0000
1000
0000
0010
0000
0100
0000
0000
0010
,
0000
1000
0001
0100
0001
0000
0001
0010
,
0100
1000
0000
1000
0000
0000
0000
0000
,
0000
0110
0000
0000
0000
0000
0000
0000
;

//---------------dance-single - t7r----------------
#NOTES:
     dance-single:
     t7r:
     Hard:
     13:
     :
0000
0000
0000
0000
,
0000
0000
0000
0000
,
0000
0000
0000
0000
,
0000
0000
0000
0000
,
0000
0000
0000
0000
,
0000
0000
0000
0000
,
0010
0000
1000
0000
0100
1000
0000
0001
0000
0000
1000
0000
0100
0000
1000
0010
,
0000
1000
0000
0100
1000
0000
0010
0000
1000
0100
0000
1000
0000
0000
0000
0001
,
0000
0001
0010
0001
0000
0100
0000
0001
0000
0000
0010
0000
0001
0000
0100
0001
,
0000
1000
0000
0001
0010
0000
0001
0000
0100
0001
0000
1000
0000
0000
0000
0000
,
0001
0000
1000
0010
1000
0100
0000
1000
0000
0000
0010
0000
1000
0000
0100
1000
,
0000
0010
0000
1000
0100
0000
1000
0000
0010
1000
0000
0001
1000
0000
0001
0000
,
0010
0000
0001
0100
0001
0010
0000
0001
0000
0000
0100
0000
0001
0000
0010
0001
,
0000
0100
0000
0001
0010
0001
1000
0000
0100
1000
0000
0010
0000
0000
0100
0001
,
0000
0010
0000
0000
0100
1000
0000
0010
0000
0000
0100
0001
0000
0010
0000
0000
,
0001
1000
0001
1000
0001
0000
1000
0001
0000
1000
0010
1000
0001
0000
0000
0000
,
0000
1000
0010
1000
0100
0000
0000
0000
0000
1000
0010
1000
0001
0000
0000
0000
,
0000
0100
0001
1000
0010
0000
1000
0000
0000
0001
0010
0001
1000
0000
0000
0000
,
0000
0001
0010
0001
0100
0000
0000
0000
0000
0001
0010
0001
1000
0000
0000
0000
,
0000
0100
1000
0001
0010
0000
0001
0000
1000
0000
0100
0000
0001
0000
0100
0000
,
1000
0001
0010
0000
0001
0000
0100
0000
,
0010
0000
1000
0000
0001
0100
1000
0100
,
0001
1000
0001
1000
0001
0100
0001
0000
1000
0000
0100
1000
0010
1000
0000
0001
,
0000
0000
1000
0000
0100
0000
1000
0010
0000
1000
0000
0100
1000
0000
0001
0000
,
1000
0010
0000
0100
0000
0000
0000
0001
0000
0001
0010
0001
0000
0100
0000
0001
,
0000
0000
0010
0000
0001
0000
0100
0001
0000
0010
0000
0001
1000
0010
1000
0000
,
0100
1000
0000
0010
0000
0000
0100
0001
0000
0010
0000
0000
0100
1000
0000
0010
,
0000
0000
0100
0001
0000
1000
0000
0000
0001
0000
0000
0000
0000
0000
0000
0000
,
0000
0000
0000
0000
,
0000
0000
0000
0000
0000
0000
0000
0000
1000
0000
0000
0001
0100
0000
0000
0001
,
0000
0010
0000
0001
1000
0000
0000
0000
0001
0000
0000
1000
0100
0000
0000
1000
,
0000
0010
0000
1000
0001
0000
0000
0000
1000
0000
0000
0010
1000
0000
0000
0100
,
0000
1000
0000
0010
1000
0000
0000
0000
0001
0000
0000
0100
0001
0000
0000
0010
,
0000
0001
0000
1000
0001
0000
0000
0000
1000
0000
0000
0001
1000
0000
0000
0010
,
0000
0010
0000
0001
1000
0000
0000
0000
0001
0000
0000
1000
0001
0000
0000
0010
,
0000
0010
0000
1000
0001
0000
0000
0000
1000
0000
0000
0100
0100
0000
0000
0001
,
0000
1000
0000
0100
0100
0000
0000
0000
0001
0000
0000
0010
0010
0000
0000
1000
,
0000
0001
0000
0010
0010
0000
0100
0100
1000
0000
0100
0100
0001
0000
0010
0010
,
1000
0000
0010
0010
0001
0000
0000
0000
0000
1000
0000
0001
0010
0010
0000
1000
,
0100
0100
0000
0001
0001
0000
1001
0000
0000
0000
1000
0000
0010
0000
0001
0000
,
0010
0000
1000
0010
0000
0100
0000
0000
0000
0001
0000
0001
0010
0000
1000
0010
,
0000
0001
0010
0000
0000
0100
0000
1000
0000
0000
0010
0000
0100
0000
0001
0000
,
0010
0100
1000
0010
0100
0001
0010
0100
,
1000
0000
0010
0100
0010
0000
1000
0001
0000
1000
0010
0000
1000
0000
0000
0000
,
0000
0001
0010
0000
0001
0000
0000
0000
1000
0000
0000
0010
0000
0000
0001
0000
,
0000
0100
0000
0000
1000
0000
0000
0000
0001
0010
0000
0001
0000
0100
0010
0000
,
0100
0000
0001
0000
1000
0010
0000
0100
0000
0010
1000
0000
0010
0000
0100
0000
,
0001
1000
0000
0100
0000
0100
0001
0000
1000
0000
0100
0000
1000
0001
0000
0100
,
0000
0100
1000
0001
0000
1000
0001
1000
0001
0000
0000
0000
0001
0000
0100
0100
,
1000
0010
0000
0010
0000
0000
0000
0000
,
0000
1001
0000
0000
0000
0000
0000
0000
;

//---------------dance-double - t7r----------------
#NOTES:
     dance-double:
     t7r:
     Easy:
     7:
     :
00000000
00000000
00000000
00000000
,
00000000
00000000
00000000
00000000
,
00000000
00000000
00000000
00000000
,
00000000
00000000
00000000
00000000
,
00000000
00000000
00000000
00000000
,
00000000
00000000
00000000
00000000
,
00100000
00010000
10000000
10000000
,
00100000
00010000
00001000
00000000
,
00010000
00000100
00001000
00001000
,
00000001
00000010
00001000
00000000
,
00010000
00000100
00001000
00001000
,
00000100
00010000
00001000
01000000
,
00010000
10000000
00100000
00100000
,
00010000
00000000
00001000
00000000
00010000
00000000
00000000
00000100
,
00000000
00000000
00001000
00000000
00000000
00000001
00000000
00000000
,
00000100
00000000
00001000
00000000
,
00010000
00000000
00100000
00000000
,
10000000
00000000
01000000
00000000
,
00010000
00000000
00001000
00000000
,
00000010
00000000
00000100
00000100
,
00001000
00000001
00001000
00000000
00000001
00000000
00000100
00000000
,
00001000
00010000
01000000
10000000
,
00100000
01000000
00100000
00000000
00000000
10000000
00010000
00000000
,
10000000
01000000
00100000
00100000
,
00001000
00000000
00000000
00010000
00000000
00000000
00000000
00000000
00000010
00000000
00000000
00000000
00001000
00000000
00000000
00000000
,
00000001
00000001
00000010
00000100
,
00010000
00000000
00000000
00010000
00000000
00000000
00001000
00000000
00000000
00001000
00000000
00000000
01000000
00000000
00000000
01000000
,
00000000
00000000
00100000
00000000
00000000
00100000
00000000
00000000
10000000
00000000
00000000
00000000
00000000
00000000
00000000
00000000
,
00000000
00000000
00000000
00000000
,
00000000
00000000
01000000
00000000
,
00000000
00000000
00000000
00010000
00000000
00000000
00001000
00000000
,
00000000
00010000
00000000
00000000
00000100
00000000
00000000
00000000
,
00000000
00000000
00001000
00000001
,
00000000
00000100
00000000
00000000
00001000
00000000
00010000
00000000
,
00000100
00000100
00010000
00001000
,
01000000
01000000
00001000
00010000
,
00000010
00000010
00010000
00001000
,
00100000
00100000
00001000
00010000
,
00100000
10000000
01000000
00000000
,
00010000
00000000
00000000
00000000
00000000
00001000
00010000
00000000
,
00000100
00000000
00001000
00000000
00000000
00000001
00000100
00000000
,
00000001
00001000
00000100
00010000
,
00001000
01000000
00010000
10000000
,
00100000
00000000
10000000
00000000
00000000
01000000
00100000
00000000
,
00000000
00001000
00010000
00000000
00000010
00000000
00000100
00000000
,
00000001
00000000
00000000
00000000
00001000
00000000
00000000
00000000
00000100
00000000
00000000
00000100
00000000
00000000
00000000
00000000
,
00010000
00000000
00001000
00000000
00010000
00000000
00000000
00010000
00000000
00000000
00000000
00000000
00001000
00000000
01000000
00000000
,
00010000
00000000
00000000
00010000
00000000
00000000
00000000
00000000
10000000
00000000
00100000
00000000
10000000
00000000
00000000
10000000
,
00000000
00000000
01000000
00000000
00000000
00010000
00000000
00000000
00001000
00000000
00000000
00000000
00001000
00000000
00000000
00000000
,
00010000
00000100
00000000
00000100
00000000
00000000
00000000
00000000
,
00000000
00001001
00000000
00000000
00000000
00000000
00000000
00000000
;

//---------------dance-double - t7r----------------
#NOTES:
     dance-double:
     t7r:
     Medium:
     9:
     :
00000000
00000000
00000000
00000000
,
00000000
00000000
00000000
00000000
,
00000000
00000000
00000000
00000000
,
00000000
00000000
00000000
00000000
,
00000000
00000000
00000000
00000000
,
00000000
00000000
00000000
00000000
,
00000100
00000000
00000000
00000000
00001000
00000000
00000000
00000010
00000000
00000000
00000000
00000000
00000100
00000000
00000000
00000000
,
00000001
00000000
00000000
00000000
00000010
00000000
00000000
00000000
00000100
00000000
00000000
00010000
00000000
00000000
00000000
00000000
,
00001000
00000000
00000000
00000000
01000000
00000000
00000000
00010000
00000000
00000000
00000000
00000000
10000000
00000000
00000000
00000000
,
00100000
00000000
00000000
00000000
01000000
00000000
00000000
00000000
00010000
00000000
00000000
10000000
00000000
00000000
00000000
00000000
,
01000000
00000000
00000000
00000000
00010000
00000000
00000000
00001000
00000000
00000000
00000000
00000000
00010000
00000000
00000000
00000000
,
00000010
00001000
00000001
00000100
,
00001000
00000000
00000000
00000000
00010000
00000000
00000000
00000100
00000000
00000000
00000000
00000000
00010000
00000000
00000000
00000000
,
00001000
00000000
00000000
00000000
01000000
00000000
00000000
00000000
00010000
00000000
00000000
10000000
00000000
00000000
00100000
00000000
,
00000000
01000000
00000000
00000000
00001000
00000000
00000000
00010000
00000000
00000000
00000100
00000000
00000000
00000010
00000000
00000000
,
00000001
00000000
00001000
00000000
00000000
00000001
00000100
00000000
,
00000000
00001000
00010000
00000000
00000000
00100000
10000000
00000000
,
00000000
01000000
00010000
00000000
00000000
00001000
00010000
00000000
,
00000000
00001000
00000100
00000000
00000000
00000010
00001000
00000000
,
00000000
00000001
00000010
00000000
00000001
00000000
00000100
00000000
,
00000010
00001000
00000001
00000000
00000010
00000000
00001000
00000000
,
00010000
00000000
00001000
00000000
00100000
00000000
00010000
10000000
,
00010000
00000000
00000000
00000000
10000000
00000000
00000000
00000000
01000000
00000000
00000000
00000000
10000000
00000000
00000000
00100000
,
00000000
10000000
00010000
00000000
10000000
00000000
01000000
00000000
,
00010000
00000000
00000000
00001000
00000000
00000000
00000000
00000000
00010000
00000000
00000100
00000000
00001000
00000000
00000000
00000001
,
00000000
00000100
00000010
00000000
00001000
00000000
00000100
00000000
,
00010000
00000000
00000000
00001000
00000000
00000000
01000000
00000000
00000000
00010000
00000000
00000000
10000000
00000000
00000000
00100000
,
00000000
00000000
00010000
00000000
00000000
00001000
00000000
00000000
00010000
00000000
00000000
00000000
00000000
00000000
00000000
00000000
,
00000000
00000000
00000000
00000000
,
00000000
00000000
00001000
00000010
,
00000001
00000100
00000001
00000000
00001000
00000000
00000100
00000000
,
00010000
00001000
00010000
00000000
00001000
00000000
00010000
00000000
,
00100000
10000000
00100000
00000000
10000000
00000000
01000000
00000000
,
00100000
00010000
00100000
00000000
00001000
00000000
00010000
00000000
,
00000100
00000000
00000000
00001000
00000001
00000000
00000000
00000000
00000100
00000000
00000000
00000000
00000010
00000000
00000000
00000000
,
00010000
00000000
00000000
00001000
00010000
00000000
00000000
00000000
00000100
00000000
00000000
00000000
00010000
00000000
00000000
00000000
,
00001000
00000000
00000000
00010000
00100000
00000000
00000000
00000000
10000000
00000000
00000000
00000000
01000000
00000000
00000000
00000000
,
00100000
00000000
00000000
00001000
00010000
00000000
00001000
00000000
00000010
00000000
00000000
00000000
00000001
00000000
00000000
00000000
,
00001000
00000000
00000100
00000000
00010000
00000000
00001000
00000000
00000000
00010000
00000000
00000000
00001000
00000000
00000000
00000000
,
01000000
00010000
00000000
01000000
00010000
00000000
10000000
00000000
00000000
00000000
00010000
00000000
00100000
00000000
00010000
00000000
,
00100000
00000000
00000000
00001000
00000000
00010000
00000000
00000000
00000000
00000010
00000000
00000000
00001000
00000000
00000000
00000001
,
00000000
00001000
00000000
00000000
00000000
00000001
00000000
00000010
00000000
00000000
00000001
00000000
00000100
00000000
00000000
00000000
,
00001000
00010000
01000000
10000000
,
00100000
00000000
00000000
00000000
10000000
00000000
00000000
01000000
00000000
00000000
00010000
00000000
00001000
00000000
00000000
00000000
,
00000000
00010000
00000000
00000000
00000010
00000000
00000000
00000000
00001000
00000000
00000000
00000001
00000000
00000000
00000100
00000000
,
00000000
00001000
00000000
00000000
00010000
00000000
00000000
00000000
00001000
00000000
00000000
00100000
00000000
00000000
00010000
00000000
,
10000000
00000000
00000000
00000000
00010000
00000000
00000000
10000000
00000000
00000000
01000000
00000000
00100000
00000000
00000000
00000000
,
00001000
00000000
00000000
00010000
00000000
00000000
00000010
00000000
00001000
00000000
00000000
00000000
00000001
00000000
00000000
00000100
,
00000000
00000000
00001000
00000000
00000000
00010000
00000000
00000000
00001000
00000000
00000000
00000000
01000000
00000000
00000000
00000000
,
00010000
00100000
00000000
00100000
00000000
00000000
00000000
00000000
,
00000000
00011000
00000000
00000000
00000000
00000000
00000000
00000000
;

//---------------dance-double - t7r----------------
#NOTES:
     dance-double:
     t7r:
     Hard:
     13:
     :
00000000
00000000
00000000
00000000
,
00000000
00000000
00000000
00000000
,
00000000
00000000
00000000
00000000
,
00000000
00000000
00000000
00000000
,
00000000
00000000
00000000
00000000
,
00000000
00000000
00000000
00000000
,
00000100
00000000
00001000
00000010
00000000
00001000
00000000
00000001
00000000
00000000
00000100
00000000
00001000
00000000
00010000
00001000
,
00000000
01000000
00000000
00010000
10000000
00000000
00100000
00000000
10000000
01000000
00000000
10000000
00000000
00000000
00000000
00010000
,
00000000
00010000
10000000
00010000
00000000
10000000
00000000
00100000
00000000
00000000
10000000
00000000
01000000
00000000
00010000
00001000
,
00000000
00010000
00000000
00000100
00001000
00000000
00000001
00000000
00000100
00001000
00000000
00010000
00000000
00000000
00000000
00000000
,
00000100
00000000
00000010
00000001
00000010
00000001
00000000
00001000
00000000
00000000
00000001
00000000
00000010
00000000
00001000
00010000
,
00000000
00001000
00000000
00100000
00000000
00000000
00010000
00000000
10000000
00000000
00100000
00000000
00010000
00000000
00001000
00000000
,
01000000
00000000
00010000
00100000
00010000
00100000
00000000
00010000
00000000
00000000
10000000
00000000
00100000
00000000
00010000
00001000
,
00000000
00100000
00000000
00001000
00010000
00000000
00001000
00000000
00000010
00000100
00000000
00010000
00000000
00000000
00001000
00000100
,
00000000
00000001
00000000
00000000
00001000
00000100
00000000
00010000
00000000
00000000
00001000
00010000
00000000
01000000
00000000
00000000
,
10000000
00000000
00000000
00000000
00100000
00000000
00000000
00000000
00000000
00010000
00001000
00010000
00001000
00000000
00000000
00000000
,
00000000
00010000
00000100
00010000
00000100
00000000
00000000
00000000
00000000
00000010
00000001
00000010
00000001
00000000
00000000
00000000
,
00000000
00000000
00000100
00000000
00001000
00000000
00000000
00000000
00000000
00010000
00001000
00010000
00001000
00000000
00000000
00000000
,
00000000
01000000
00010000
01000000
00010000
00000000
00000000
00000000
00000000
10000000
01000000
10000000
01000000
00000000
00000000
00000000
,
00000000
00100000
00010000
00000000
10000000
00100000
01000000
00010000
,
00001000
00000100
00000010
00000000
00000001
00000000
00000100
00000000
,
00001000
00000000
00010000
00000000
01000000
10000000
00100000
01000000
,
00001000
00010000
00001000
00010000
00001000
00000000
00010000
00000000
00001000
00000000
00000100
00000010
00000000
00000100
00000000
00000001
,
00000000
00000000
00000010
00000000
00000100
00000000
00001000
00000100
00000000
00010000
00000000
00001000
00000000
00000000
00010000
00000000
,
01000000
10000000
00000000
00100000
00000000
00000000
00000000
10000000
00000000
00100000
10000000
00100000
00000000
10000000
00000000
00010000
,
00000000
00000000
00100000
00000000
00001000
00000000
00010000
00001000
00000000
00000010
00000000
00000100
00000000
00000000
00001000
00000000
,
00000001
00000100
00000000
00001000
00000000
00000000
00010000
01000000
00000000
10000000
00000000
00000000
00100000
00010000
00000000
00001000
,
00000000
00000000
00000010
00001000
00000000
00010000
00000000
00000000
00001000
00000000
00000000
00000000
00000000
00000000
00000000
00000000
,
00000000
00000000
00000000
00000000
,
00000000
00000000
00000000
00000000
00000000
00000000
00000000
00000000
00010000
00000000
00000000
00001000
01000000
00000000
00000000
00010000
,
00000000
10000000
00000000
01000000
00100000
00000000
00000000
00000000
00001000
00000000
00000000
00010000
00000100
00000000
00000000
00001000
,
00000000
00000001
00000000
00000100
00000010
00000000
00000000
00000000
00010000
00000000
00000000
00001000
00100000
00000000
00000000
00010000
,
00000000
10000000
00000000
00100000
01000000
00000000
00000000
00000000
00001000
00000000
00000000
00010000
00000010
00000000
00000000
00001000
,
00000000
00000001
00000000
00000010
00000100
00000000
00000000
00000000
00010000
00000000
00000000
00000100
00001000
00000000
00000000
00000001
,
00000000
00000100
00000000
00000100
00001000
00000000
00000000
00000000
00000100
00000000
00000000
00010000
00001000
00000000
00000000
01000000
,
00000000
01000000
00000000
10000000
00010000
00000000
00000000
00000000
10000000
00000000
00000000
00100000
00100000
00000000
00000000
00001000
,
00000000
00010000
00000000
00001000
00000010
00000000
00000000
00000000
00000001
00000000
00000000
00000100
00000100
00000000
00000000
00010000
,
00000000
00001000
00000000
00010000
00010000
00000000
10000000
00000000
01000000
00000000
00010000
00000000
00001000
00000000
00000010
00000000
,
00000001
00000000
00000100
00000000
00001000
00000000
00010000
00000000
00000000
00001000
00000000
00010000
00001000
00010000
00000000
00001000
,
00010000
00001000
00000000
01000000
00100000
00000000
10000000
00000000
00000000
00000000
00010000
00000000
00100000
00000000
01000000
00000000
,
00010000
00000000
00001000
00010000
00000000
00000100
00000000
00000000
00000000
00010000
00000000
00001000
00000010
00000000
00000001
00001000
,
00000000
00000001
00000100
00000000
00000000
00001000
00000000
00010000
00000000
00000000
00001000
00000000
00000100
00000000
00000001
00000000
,
00000010
00001000
00010000
01000000
10000000
00100000
00010000
00001000
,
00010000
00000000
00000100
00001000
00000100
00000000
00001000
00000001
00000000
00000100
00000010
00000000
00010000
00000000
00000000
00000000
,
00000000
00001000
01000000
00000000
00010000
00000000
00000000
00000000
10000000
00000000
00000000
00100000
00000000
00000000
00010000
00000000
,
00000000
00001000
00000000
00000000
00000010
00000000
00000000
00000000
00000001
00000100
00000000
00001000
00000000
00010000
00001000
00000000
,
00000100
00000000
00000001
00000000
00000010
00001000
00000000
00010000
00000000
00001000
00000100
00000000
00001000
00000000
00010000
00000000
,
00100000
10000000
00000000
01000000
00000000
01000000
00010000
00000000
00100000
00000000
00001000
00000000
00010000
00001000
00000000
00000100
,
00000000
00000100
00001000
00000001
00000000
00000010
00000100
00010000
00001000
00000000
00000000
00000000
00010000
00000000
00001000
00001000
,
00000100
00010000
00000000
00010000
00000000
00000000
00000000
00000000
,
00000000
10010000
00000000
00000000
00000000
00000000
00000000
00000000
;
