#TITLE:Reaching for the Stars;
#SUBTITLE:;
#ARTIST:Serena;
#TITLETRANSLIT:;
#SUBTITLETRANSLIT:;
#ARTISTTRANSLIT:;
#GENRE:;
#CREDIT:NOWHERE Dance Club;
#MUSIC:Reaching for the Stars.ogg;
#BANNER:Reaching for the Stars.png;
#BACKGROUND:Reaching for the Stars-bg.png;
#LYRICSPATH:Reaching for the Stars.lrc;
#CDTITLE:cdtitle.png;
#SAMPLESTART:93.612;
#SAMPLELENGTH:21.223;
#SELECTABLE:YES;
#OFFSET:-0.261;
#BPMS:0.000=188.000;
#STOPS:;
#BGCHANGES:;
#FGCHANGES:;

//--------------- dance-single - NOWHERE Dance Club ----------------
#NOTES:
     dance-single:
     NOWHERE Dance Club:
     Beginner:
     3:
     0,0,0,0,0:
0000
0000
0000
0000
,
0000
0000
0000
0000
,
0000
0000
0000
0000
,
0000
0000
0000
0000
,
0000
0000
0000
0000
,
0000
0000
0000
0000
,
1000
0000
0000
0000
,
0100
0000
0000
0000
,
0010
0000
0000
0000
,
0001
0000
0010
0010
,
0001
0000
1000
0000
,
0010
0000
0100
0010
,
1000
0000
0001
0000
,
0010
0000
0100
0010
,
0100
0000
0010
0000
,
0001
0000
1000
0000
,
1000
0000
0010
0000
,
0100
0000
0001
1000
,
0100
0100
0010
0000
,
0100
0000
0010
0000
,
0001
0001
1000
0000
,
0001
0000
0100
0000
,
0010
0010
1000
0000
,
0001
0000
1000
0000
,
0100
0100
0010
0000
,
0001
0000
1000
0010
,
0100
0000
0000
0010
0000
0000
1000
0000
,
0000
0001
1000
1001
,
1000
0000
0000
0100
0000
0000
0010
0000
,
0000
0001
1000
1001
,
1000
0000
0000
0010
0000
0000
0100
0000
,
0000
0010
0010
1000
,
0001
0000
0000
0010
0000
0010
0000
0010
,
0000
0010
0000
0010
0000
0010
0000
0200
,
0000
0000
0000
0000
,
0300
0000
0010
0000
,
0002
0000
0000
0000
,
0000
0000
0000
1003
0000
0000
0000
0000
,
2001
0000
0000
0000
,
0000
0000
3020
0000
,
0230
0000
0302
0000
,
1003
0000
0100
0010
,
0100
0000
1000
0000
,
0010
0000
0100
0000
,
0010
0000
1000
0000
,
0001
1000
0001
0000
,
0010
0000
0100
0000
,
0010
0000
0100
0000
,
1000
0000
0100
0000
,
1000
0000
0001
1000
0000
1000
0000
0000
,
1001
0000
0001
0000
,
0100
0010
0100
0000
,
0001
0000
0010
0000
,
0100
0010
0100
0000
,
0010
0100
0000
0200
0000
0000
0000
0000
,
0310
0001
0010
0010
,
0001
0000
0100
0000
,
0010
0000
1000
1000
,
0002
0000
0000
0000
,
0023
0000
0000
0000
,
0230
0000
1000
0000
,
1300
0000
0001
0000
,
2000
0000
0000
0000
,
3020
0000
0000
0000
,
0230
0000
0301
0000
,
0001
0000
1000
0000
,
0001
0000
0100
0000
,
0010
0000
1000
0000
,
0010
0000
0001
0000
,
0010
0000
1000
0000
,
1001
0000
0000
1001
0000
0000
0000
0110
,
0000
0000
0110
0000
0000
0010
0000
0000
,
0001
0000
0000
0010
0000
0010
0000
0010
,
0000
0001
0000
1000
0000
0000
0000
0000
,
1001
0000
0001
0000
,
0100
0000
1000
0100
,
0001
0000
1000
0000
,
0100
0000
0010
0000
,
1001
0000
0001
0000
,
0100
0010
1000
0000
,
0010
0001
0010
1000
,
0001
0000
0010
0100
,
1000
0000
0000
1001
0000
0000
0000
0000
,
0001
0000
0000
0000
0100
0000
0010
1000
,
0000
0010
0000
1000
0000
0010
0000
0000
,
1000
0000
0000
0001
0000
1000
0000
0000
,
1001
0000
0000
1100
0000
0000
0000
1001
,
0000
0002
0103
0000
,
0001
0100
0000
0010
0000
0010
0000
1000
,
0020
0000
1030
0001
,
2002
0000
0000
0000
,
0000
0000
3003
0000
;

//--------------- dance-single - NOWHERE Dance Club ----------------
#NOTES:
     dance-single:
     NOWHERE Dance Club:
     Easy:
     5:
     0,0,0,0,0:
0000
0000
0000
0000
,
0000
0000
0000
0000
,
0000
0000
0000
0000
,
0000
0000
0000
0000
,
0000
0000
0000
0000
,
0000
0000
0000
0000
,
0001
0000
0000
0000
,
0100
0000
0010
0000
,
0010
0000
0000
0000
,
1000
0000
0001
0001
,
0010
0000
0001
0000
,
0010
0000
0100
0010
,
0001
0000
1000
0000
,
0010
0000
0100
0010
,
0100
0000
0010
0000
,
1000
0000
0001
0000
,
0001
0010
0000
0000
0010
0000
0000
0000
,
0100
1000
0000
0000
1001
0000
0001
0000
,
0100
0000
0100
0100
0000
0000
0010
1000
,
0000
0010
1000
0100
,
1000
0000
0100
0100
0000
0000
0010
0001
,
0000
1000
0010
0100
,
0210
0000
0000
0301
0000
0000
0000
1001
,
0000
0001
0010
0100
,
1100
0000
0000
1001
0000
0000
0000
1000
,
0001
1000
0000
0000
0001
0000
0010
0000
,
0100
0000
0000
0010
0000
0000
0011
0000
,
0000
1000
0001
1001
,
0001
0000
0000
0100
0000
0000
0110
0000
,
0000
1000
0001
1001
,
0001
0000
0000
0010
0000
0000
0110
0000
,
0000
0010
0010
0001
,
2000
0000
0000
3010
0000
1010
0000
0010
,
0000
0110
0000
0010
0000
1010
0000
0020
,
0000
0000
0000
0000
,
0000
0000
0000
0000
1030
0010
0000
0000
,
2000
0000
0000
0000
,
0000
0000
3200
0320
,
0000
0000
0000
0032
0000
0000
0000
0013
,
0000
0001
0000
0100
0002
0000
0000
0000
,
0103
0000
0000
0010
0000
0000
1000
0001
,
1000
0001
0010
0100
,
0110
0000
0020
0000
,
0100
0000
0031
1000
,
0002
0000
0010
0000
,
0013
0100
1000
0001
,
0200
0000
0320
0000
,
0230
0000
0302
0000
,
2003
0000
0010
3020
0000
0000
0230
0000
,
0302
0000
0000
0010
0000
1003
0000
0000
,
1002
0000
2003
0000
,
3020
0000
0230
0000
,
0320
0000
0000
0000
1030
0000
0001
0020
,
0000
0032
0000
0203
0000
0320
0000
0000
,
0230
0010
0000
0320
0000
0000
0000
0000
,
2030
0000
0001
0000
,
3100
1000
0001
0010
,
0100
1000
0010
0100
,
0002
0000
1000
0000
,
0103
0001
0010
0000
,
0001
0000
0100
0100
,
0001
0100
0010
0000
,
0010
0000
1000
0000
,
0100
0000
0010
0000
,
0001
0000
0010
0010
,
0001
0000
1000
0000
,
0001
0000
0010
0000
,
0100
0000
0010
0010
,
0001
0000
1000
1000
,
0001
0000
0100
0000
,
0110
0000
0000
0100
0000
0010
0000
1010
,
0000
0000
0000
2010
0000
0000
0000
0000
,
3002
0000
0000
0013
0000
0010
0000
0010
,
0000
0100
0000
0010
0000
0001
0000
1000
,
0001
0000
0100
0001
0000
0100
0010
0000
,
1000
0000
0100
1000
0100
0000
0010
0000
,
0012
0000
0003
1002
0000
1003
0000
0010
,
0000
1000
0000
0100
0000
0010
0000
0001
,
1000
0000
0100
1000
0000
0100
0010
0000
,
0001
0000
0100
0001
0100
0000
0010
0000
,
2010
0000
3000
2001
0000
3001
0000
0010
,
0000
0001
0000
0100
0000
0010
0000
0100
,
0010
0000
0010
1000
0000
0010
0100
0000
,
0001
0000
0010
0001
0010
0000
0100
1000
,
0000
0001
0000
0010
0000
0001
0000
0100
,
0000
0001
0000
0010
0000
0100
0000
0100
,
0010
0000
0010
0001
0000
0010
0100
0000
,
1000
0000
0001
1000
0002
0000
0000
0000
,
0203
0000
0000
0310
0000
1000
0000
2020
,
0000
0000
0000
0000
0000
0000
0000
3030
,
2002
0000
0000
0000
,
0000
0000
0000
3003
;

//--------------- dance-single - NOWHERE Dance Club ----------------
#NOTES:
     dance-single:
     NOWHERE Dance Club:
     Medium:
     11:
     0,0,0,0,0:
0000
0000
0000
0000
,
0000
0000
0000
0000
,
0000
0000
0000
0000
,
0000
0000
0000
0000
,
0000
0000
0000
0000
,
0000
0000
0000
0000
,
0001
0000
1000
0001
0000
0000
1000
0000
,
0010
0000
0100
0010
0000
0000
1000
0000
,
0001
0000
1000
0001
0000
0000
1000
0000
,
0100
0000
0010
0100
0020
0000
0032
0000
,
0023
0000
1000
0000
,
0032
0000
0000
0000
0103
0010
0000
0010
,
2000
0000
0010
0000
,
3001
1000
0010
0010
,
0200
0000
0010
0000
,
1000
0000
0000
0000
0310
1000
0000
1000
,
0001
1000
0000
0001
0011
0000
0000
0001
,
1000
0010
0000
1000
2010
0000
3001
0000
,
1000
0000
0000
2100
0000
0001
0000
3100
,
0000
0100
0010
0000
0001
0010
0001
0000
,
1001
0000
0001
0100
0000
0010
1000
1010
,
0000
1000
0010
0000
0200
0000
0010
0000
,
0302
0000
0000
1003
0000
0001
0010
0001
,
0000
1000
0001
0000
0100
0000
0010
0000
,
1020
0000
0000
0001
0000
0000
1030
0010
,
0000
1000
0100
0010
0001
0000
1000
0000
,
1001
0000
0000
0110
0000
0000
1002
0000
,
0000
0000
1003
0100
1000
0100
0010
0000
,
1001
0000
0000
0110
0000
0000
1001
0000
,
0000
0001
0100
0001
0100
0010
1000
0001
,
2000
0000
0000
3200
0000
0000
0302
0000
,
0000
0103
1000
0001
,
1001
0000
0000
1100
0000
0110
0000
1100
,
0000
0110
0000
0011
0000
1001
0000
2001
,
0000
0000
0000
3010
0001
0000
0010
1000
,
0000
0001
1000
0000
0001
0000
0010
0000
,
0210
0000
0000
1300
0100
0000
0001
0100
,
0000
1000
0001
0000
0100
0010
1000
0020
,
0000
0000
1030
0100
0010
0000
0010
0001
,
0000
1000
0010
0000
1000
0010
1000
0100
,
0010
0000
0001
1000
0000
0001
1000
0001
,
0000
0010
0100
0000
1000
0000
0001
0000
,
1002
0000
0103
0010
,
0120
0000
1030
0001
,
1000
0100
0001
0000
,
0001
0100
1000
0001
,
1000
1000
0010
0010
,
0100
0000
0100
0000
0001
0000
0001
1000
,
0000
0000
1000
0001
0000
0000
0001
0010
,
0000
0010
0100
0020
0000
0031
1000
0000
,
1001
0002
0023
2030
,
3010
0001
1000
0000
0001
1000
0001
0000
,
0010
0001
0010
0000
0100
0010
0100
0000
,
1000
0100
1000
0001
0000
1000
0000
0100
,
0010
0001
0000
2000
0000
0000
0000
3001
,
0100
0010
1000
0010
0200
0000
0301
0001
,
2000
3200
0320
0032
,
2003
3020
0230
0301
,
1001
0000
1000
0000
,
0100
0000
0000
0000
0010
0000
0001
0010
,
0001
0000
0100
0000
,
0010
1000
0010
0100
,
0001
0000
0000
0000
1000
0000
0000
0100
,
0010
0000
0001
0000
,
1000
0000
0010
0100
,
0010
0100
0001
2000
,
3001
0000
0010
0000
,
0100
0000
1000
0000
,
0100
0000
0010
0000
0200
0000
0000
0310
,
0000
0010
0000
0020
0000
0001
0000
0000
,
0031
0000
0100
0010
1000
0000
0010
0100
,
0000
0010
0000
1000
0000
0001
0000
0000
,
1001
0000
1000
0020
0000
0130
0000
0110
,
0000
0010
0000
1000
0000
0001
0000
0000
,
1001
0000
0001
0010
0000
0001
1000
0002
,
0000
0013
0100
1000
0100
2000
0000
3002
,
0000
0203
0000
2300
0000
3200
0000
0301
,
0000
1000
0000
0010
0000
0100
0000
0000
,
2001
0000
0000
3100
0000
1000
0001
2000
,
0000
3010
0100
0001
0100
0000
0001
0000
,
1000
0200
0000
0302
0000
0203
0000
1300
,
0000
0001
0000
0100
0000
0100
0000
0000
,
0110
0000
0100
0010
0000
1000
0010
2000
,
0000
3001
1000
0001
1000
0020
0000
0032
,
0000
0023
0000
2030
0000
3002
0000
1003
,
0000
0001
0000
0010
0000
0010
0000
0000
,
0110
0000
0100
0010
0000
0001
0010
0002
,
0000
0000
1003
0001
2000
0000
0000
0000
,
3010
0002
0000
0023
0000
2030
0000
3001
,
1000
0000
0100
0010
0000
0001
1000
0000
,
2002
0000
0000
0000
,
0000
0000
0000
0000
,
3003
0000
0000
0000
;

//--------------- dance-single - NOWHERE Dance Club ----------------
#NOTES:
     dance-single:
     NOWHERE Dance Club:
     Hard:
     13:
     0,0,0,0,0:
0000
0000
0000
0000
,
0000
0000
0000
0000
,
0000
0000
0000
0000
,
0000
0000
0000
0000
,
0000
0000
0000
0000
,
0000
0000
0000
0000
,
0001
0000
0100
0010
0000
0000
1000
0000
,
0100
0000
0010
0001
0000
0000
1000
0000
,
0010
0000
0100
0001
0000
0100
0010
1000
,
0010
0000
1000
0100
0020
0000
0032
0000
,
2003
3000
1001
0001
,
0200
0000
0000
0000
0310
1000
0000
1000
,
0010
1000
0200
0320
,
0032
0000
0000
0000
0013
0001
1000
0010
,
2000
0000
0010
0000
,
3001
1000
0002
1000
,
0103
0001
0000
0001
0100
0000
0010
0000
,
1000
0001
0000
0001
2000
0000
3200
0000
,
0310
0001
0010
0001
0010
1000
0010
0002
,
0000
0000
1003
0000
0010
0100
0001
2000
,
0000
0000
3001
1001
0000
0001
1000
0010
,
0000
1000
0010
0000
0100
0000
0010
0000
,
1000
0010
1000
0010
0001
0010
1000
0001
,
0000
0100
0010
1000
0002
0000
0000
0000
,
1003
0000
0100
0010
0001
0010
1000
0010
,
0000
0001
0010
0001
0010
0100
1000
0000
,
0200
0000
0000
0301
0000
0100
2100
0000
,
0000
0000
3001
0100
0010
1000
0001
0000
,
0020
0000
0000
1030
0000
0010
0012
0000
,
0000
1003
1001
0101
,
1020
0000
0000
1030
0000
0000
1002
0000
,
0000
0000
1003
0000
0100
0010
0001
0000
,
0012
0000
0000
1003
0000
1001
0000
1100
,
0000
1001
0000
0101
0000
0110
0000
1020
,
0000
0000
0000
0000
0130
0010
1000
0001
,
0000
0100
0010
0000
1000
0010
0000
1000
,
0020
0000
0000
1030
0100
0010
0100
1000
,
0000
0001
0010
0000
0001
1000
0010
0100
,
0002
0000
0000
1003
0010
0100
0010
1000
,
0000
0001
1000
0000
0002
0000
0023
0000
,
0230
0000
0320
0000
1030
0010
0001
1000
,
0000
0001
0010
0100
1000
0000
0001
0000
,
0012
0000
0000
0023
0000
0100
0000
1000
,
0000
0000
0000
0130
0000
0010
0000
0002
,
0000
0000
0000
0000
0100
0000
0000
1000
,
0000
1003
0010
0100
0010
1000
0010
0010
,
1000
0001
0010
0001
1000
0100
0010
0001
,
0010
0010
0001
0100
0010
1000
0010
0020
,
0000
0000
1030
0000
0010
0000
1000
0000
0000
0000
0001
1000
0001
0000
2000
0000
,
0000
3010
0100
0020
0000
0100
0000
0000
,
1030
0002
0000
1003
0020
0000
1030
0100
,
0001
0100
1000
1000
0001
1000
0100
0010
,
0002
0000
0000
0203
0000
0300
0010
0200
,
0000
0320
0000
2030
0000
3020
0000
0032
,
0000
0023
0000
2030
0000
0000
0000
0000
,
3001
0010
0001
0001
0010
0100
1000
1000
,
0001
0001
0100
0010
1000
0010
0100
0100
,
0010
1000
1000
0010
0002
0000
0023
0000
,
2030
0000
3200
0000
,
0320
0000
0031
0001
,
0010
0000
0001
0000
0100
0000
0010
1000
,
0000
1000
0000
0010
0000
0100
0000
0001
,
0000
0000
1000
0001
1000
0000
0001
0010
,
0000
0100
0000
1000
0000
0100
0000
0020
,
0000
0000
0000
0130
0010
0002
0000
0023
,
0000
2030
0000
3020
0000
0032
0000
0000
,
1003
0000
0001
0100
0001
0000
0100
0020
,
0000
2030
0000
3020
0000
0230
0000
0310
,
2000
0000
0000
3001
0100
0000
0010
1000
,
0000
0000
1000
0001
1000
0000
0001
0000
0000
0000
2000
0000
0000
0000
0000
0000
,
3001
0000
0001
0010
0000
0100
0000
1100
,
0000
1000
0000
0010
0000
0100
0000
0002
,
0000
0000
0013
1010
0000
0010
0000
0011
,
0000
0000
0000
0000
,
0001
0100
0010
2000
0000
3010
0001
0020
,
0000
0000
1030
0001
1000
0100
0000
0020
,
0000
1000
0000
0100
0000
0031
1000
0001
,
0000
0100
0010
1000
0010
0100
0001
0000
,
0012
0000
0000
1003
0000
0001
0010
0002
,
0000
0000
0013
1000
0020
0000
0000
0000
,
0031
1000
0000
0001
0000
0101
0000
1001
,
0000
0001
0000
0100
0000
0010
0000
1000
,
0010
1000
0010
0001
0010
1000
0100
0020
,
0000
0000
0130
0010
0001
0010
0001
0020
,
0000
1000
0000
0100
0000
0031
0000
1000
,
0000
0001
0000
0100
0000
0010
0000
0100
,
0010
0000
1000
1010
0000
0110
0000
0101
,
0000
0002
2003
0000
,
3100
0010
0000
0011
0000
1010
0000
1001
,
0000
0000
1000
0100
0000
0010
0001
0000
,
2002
0000
0000
0000
,
0000
0000
0000
0000
,
3003
0000
0000
0000
;
