#TITLE:Reach The Sky;
#SUBTITLE:;
#ARTIST:YUKIYANAGI;
#TITLETRANSLIT:;
#SUBTITLETRANSLIT:;
#ARTISTTRANSLIT:;
#GENRE:;
#CREDIT:;
#MUSIC:Reach The Sky.ogg;
#BANNER:Reach The Sky.png;
#BACKGROUND:;
#CDTITLE:;
#SAMPLESTART:93.269;
#SAMPLELENGTH:15.000;
#SELECTABLE:YES;
#OFFSET:1.319;
#BPMS:0.000=170.000;
#STOPS:;
#BGCHANGES:;
#FGCHANGES:;

//--------------- dance-single - ----------------
#NOTES:
     dance-single:
     :
     Beginner:
     5:
     0,0,0,0,0:
0000
0000
0000
0000
,
0000
0000
0000
0000
,
0000
0000
0000
0000
,
0000
0000
0000
0000
,
0000
0000
0000
0000
,
0000
0000
0000
0000
,
0000
0000
0000
0000
,
0001
0000
0001
0000
,
0100
0000
0000
0000
,
1000
0000
1000
0000
,
0200
0000
0000
0300
,
1000
1000
1000
0000
,
1000
0000
0100
0000
,
1000
0010
1000
0000
,
0010
0000
0100
0000
,
0001
0001
0001
0000
,
0001
0000
0100
0000
,
0001
0010
0001
0000
,
2000
0000
3002
0000
,
1003
0000
0100
0000
,
0001
0100
1000
0000
,
1000
0000
0010
0000
,
1000
0000
0000
0000
,
0001
0000
0100
0000
,
1000
0100
0001
0000
,
0001
0000
0010
0000
,
0002
0000
0000
0003
,
1000
1000
1000
0100
,
1000
1000
0010
0000
,
0100
0100
0001
0000
,
0001
0001
0100
0000
,
0010
0010
0100
0000
,
0001
0000
0010
0000
,
0100
0100
1000
0000
,
2002
0000
3003
0000
,
0001
0001
0001
0010
,
0001
0001
0010
0000
,
0100
0100
1000
0000
,
1000
1000
0100
0000
,
0010
0010
0100
0000
,
1000
0000
0010
0000
,
0100
0100
0001
0000
,
2000
0000
3002
0000
,
0103
0100
0100
0000
,
0010
0010
0010
0000
,
1000
1000
1000
0000
,
0001
0001
0001
0000
,
0010
0100
0010
0000
,
0001
1000
0001
0000
,
0100
0010
0100
0000
,
0001
1000
0001
0000
,
2002
0000
3003
0000
,
0220
0000
0330
0000
,
2000
0000
0000
0000
,
0000
0000
3000
1000
,
0002
0003
0020
0030
,
0002
0000
0003
0001
,
2000
3000
0020
0030
,
2000
0000
0000
3000
,
0010
0000
0010
0000
,
0100
0000
0100
0000
,
0001
0000
1000
0000
,
0001
0000
1000
0000
,
0001
0001
0010
0000
,
0100
0100
1000
0000
,
0001
1000
0001
1000
,
2002
0000
3003
0000
,
0010
0010
0100
0000
,
0100
0100
0010
0000
,
0001
0100
0001
0100
,
0010
1000
0010
0000
,
1000
1000
0001
0000
,
0001
0001
1000
0000
,
0100
0000
0010
0000
,
2002
0000
0000
3003
,
1000
0010
1000
0010
,
0100
0001
0100
0000
,
0001
0010
0001
0010
,
0100
1000
0100
0000
,
1100
0000
0011
0000
,
0101
0000
1010
0000
,
1000
0010
0100
0001
,
1000
0001
1001
0000
,
2000
0000
0000
0000
,
0000
0000
0000
3000
,
0002
0000
0000
0000
,
0000
0000
0000
0003
;

//--------------- dance-single - ----------------
#NOTES:
     dance-single:
     :
     Easy:
     9:
     0,0,0,0,0:
0000
0000
0000
0000
,
0000
0000
0000
0000
,
0000
0000
0000
0000
,
0000
0000
0000
0000
,
0000
0000
0000
0000
,
0000
0000
0000
0000
,
0000
0000
0000
0000
,
1000
1000
0010
0100
,
0001
0001
0010
0100
,
1000
1000
0001
0001
,
2002
0000
0000
3003
,
1000
0010
0100
0001
,
1000
0010
0100
0001
,
0010
0100
0010
0001
,
1000
0000
0100
0000
0010
0000
0001
1000
,
0001
1000
1001
0000
,
0001
1000
0001
0000
1001
0000
0000
0000
,
1000
0010
0100
0001
,
0010
0010
2002
3003
,
0001
0010
0001
0010
,
0100
0000
1000
0000
0001
1000
0001
0000
,
1000
0010
1000
0010
,
0100
0000
0001
0000
1000
0001
1000
0000
,
0100
0010
0100
0010
,
0001
0000
1000
0000
0001
1000
0001
0000
,
0100
0010
1000
0001
,
2002
0000
0000
3003
,
1000
0000
0100
0200
0000
0320
0000
0032
,
0000
0100
0100
0103
,
0010
1000
0100
0001
,
0100
1000
0010
0100
,
0001
0001
0000
0010
0000
0011
0000
0000
,
1000
1000
0000
0100
0000
1100
0000
0000
,
1000
1000
0000
0010
0000
1010
0000
0000
,
0001
0001
0000
0100
0100
0000
0110
0000
,
0001
0000
0100
0200
0000
0320
0000
2030
,
0000
0100
0100
3100
,
0010
0001
0100
1000
,
0100
0001
0010
0100
,
1000
1000
0000
0010
0000
1010
0000
0000
,
0001
0001
0000
0100
0000
0101
0000
0000
,
0001
0001
0000
0010
0000
0011
0000
0000
,
1000
1000
0000
0100
0100
0000
0110
0000
,
0002
2003
3002
2003
,
3020
0230
0320
0230
,
0302
2003
3020
2030
,
3002
0023
0032
2003
,
3200
0000
2300
0000
3010
0100
0010
0000
,
0200
0000
0302
0000
0013
0100
0010
0000
,
0200
0000
0320
0000
0031
1000
0001
0000
,
0200
0000
0320
0000
1030
0001
1000
0000
,
0002
0000
0000
0000
0000
0000
0103
0020
,
0000
0230
0000
0320
0000
2030
0000
3200
,
0000
0000
0000
0000
,
0000
0000
0000
0310
,
0002
0000
0000
2003
0000
0000
3020
0000
,
0000
0000
0000
0130
,
0020
0000
0000
2030
0000
0000
0002
0000
,
0000
0000
0000
3003
,
0001
0000
0000
0001
0000
0001
0001
0000
,
1000
0000
0000
1000
0000
1000
1000
0000
,
0010
0000
0000
0100
0000
0100
0010
0000
,
1000
0000
0000
0100
0000
0010
0001
0000
,
1000
1000
0001
0001
,
0100
0100
0010
0010
,
1000
0001
1000
0000
0001
1000
0001
0000
,
0220
0000
0330
1001
,
1000
0100
1000
0000
0001
0010
0001
0000
,
1000
0100
1000
0000
1100
0000
0011
0000
,
0001
0100
0001
0000
1000
0010
1000
0000
,
0001
0100
0001
0000
0010
0000
0100
0000
,
1000
0001
0100
0000
0001
1000
0100
0000
,
1000
0001
0100
0000
0110
0000
1001
0000
,
1000
0000
0010
0100
0000
0200
0000
0020
,
0000
0300
1000
1030
,
0001
0000
0010
0000
1000
0010
0001
0000
,
0001
0000
1000
0000
0100
1000
0100
0000
,
1000
0000
0010
0000
0001
0010
1000
0000
,
1000
0000
0001
0000
0100
0001
0100
0000
,
2002
3003
0220
0330
,
2002
3003
0101
1010
,
1000
0010
1000
0000
0100
0010
0001
0000
,
0001
0010
0001
0100
0010
0000
1001
0000
,
2000
3020
0230
0302
,
0023
0230
2300
3020
,
0230
0302
2003
3020
,
2030
3002
0203
0310
;

//--------------- dance-single - ----------------
#NOTES:
     dance-single:
     :
     Medium:
     12:
     0,0,0,0,0:
0000
0000
0000
0000
,
0000
0000
0000
0000
,
0000
0000
0000
0000
,
0000
0000
0000
0000
,
0000
0000
0000
0000
,
0000
0000
0000
0000
,
0000
0000
0000
0000
,
0001
0010
0100
0000
0100
1000
0010
0000
,
0100
0001
1000
0000
1000
0010
0100
0000
,
0001
0010
0100
1000
0100
0010
0001
1000
,
0010
0010
0100
0010
0110
0000
1001
0000
,
1000
0010
0100
0000
0001
0100
0010
0000
,
1000
0001
0010
0000
0001
0100
1000
0000
,
0100
0010
1000
0000
0100
0010
0001
0000
,
1000
0001
0010
0000
0100
0010
0100
0000
,
1000
0100
1000
0100
1000
0010
0100
0000
,
0001
0100
0001
0100
0010
1000
0001
0000
,
0010
0001
0010
0001
0100
0010
1000
0100
,
0010
0110
0002
2003
,
3001
0100
0010
1000
0001
0001
1000
1000
,
0001
0010
0011
0000
1000
0010
1010
0000
,
0010
0100
0001
0000
1000
0100
0010
0000
,
0001
0100
1000
0100
0001
1000
1001
0000
,
1000
0100
0010
0001
1000
1000
0001
0001
,
1000
0010
1010
0000
0001
0010
0011
0000
,
0010
0100
1000
0000
0001
0100
0010
0000
,
1000
0100
0001
0100
1000
0001
1001
0000
,
0001
0100
0001
0200
0000
0310
0000
0010
,
1000
0100
1000
0200
0000
0310
0000
0010
,
0001
1000
0100
0000
1000
0001
0010
0000
,
0001
0100
0010
2000
0000
0001
3001
0000
,
1000
0100
0010
0002
0000
1000
1003
0100
,
0100
1000
0010
0100
0000
0100
0010
0000
,
1000
0010
2000
0000
3001
0100
0002
0000
,
1003
0100
0001
0100
1000
1000
1000
0000
,
0001
0010
0001
0020
0000
0130
0000
0100
,
1000
0010
1000
0010
0200
0000
0301
1000
,
0020
0001
0100
1030
,
1000
0100
0001
0200
0000
1000
1300
0000
,
0001
0010
1000
0020
0000
0001
0031
1000
,
0010
0100
0001
0020
0000
0130
1000
0002
,
0000
0103
0010
2000
0000
3001
0020
0000
,
0031
0100
0010
1000
1000
0001
1001
0000
,
1000
0100
2000
0000
3010
1000
0020
0000
,
0130
0001
0200
0000
0301
0010
0002
0000
,
1003
0010
0200
0000
0301
0010
0200
0000
,
1300
0100
1000
0100
0010
0001
2000
0000
,
3002
0000
0103
1000
0100
0001
2000
0000
,
3002
0000
1003
0100
0001
0100
2000
0000
,
3002
0000
0013
1000
0010
0001
2000
0000
,
3002
0000
0103
0010
1000
0001
1000
0000
,
0200
0010
0000
0010
0320
0000
0031
2000
,
0000
3002
0000
0203
0000
0320
0000
2030
,
0001
0001
0000
0010
3020
0000
0230
0000
,
0301
0002
0000
1000
2003
0000
3200
0000
,
2300
0000
3010
0200
0000
0301
2000
0000
,
0100
0100
0000
0010
0010
0000
3001
0010
,
0002
0000
0100
0203
0000
0010
0320
0000
,
1030
0001
0100
0001
1000
0100
1000
0000
,
1100
0000
1000
1010
0000
1000
0010
0100
,
0101
0000
0001
0011
0000
0001
0010
0100
,
0110
0000
0010
1001
0000
1000
0001
0100
,
0010
0000
1000
0010
0010
0100
0002
0000
,
1003
0100
1000
0100
0010
0001
1000
0000
,
0001
0100
0001
0100
0010
1000
0001
0000
,
1000
0010
0100
0001
0010
0100
1000
0010
,
0100
0100
0010
0100
0110
0000
1001
0000
,
1000
0100
0010
0001
1000
0100
0010
0001
,
1000
0001
0100
0010
1000
0001
0100
0010
,
0100
1000
0100
0001
0100
1000
0100
0001
,
0010
1000
0010
0001
0010
1000
0010
0001
,
1000
0100
1000
0100
0010
0001
0010
0001
,
1000
0010
1000
0010
0100
0001
0100
0001
,
1000
0010
0010
0101
0000
1010
0000
2002
,
0000
0000
0000
3003
0000
0000
0001
1000
0001
1000
0001
1000
,
0001
0100
0010
0100
0001
1000
0010
0100
,
0010
1000
0100
0001
0100
1000
0001
0001
,
1000
0100
0010
0100
1000
0001
0010
0100
,
0010
0001
0100
1000
0100
0001
1000
1000
,
0001
0000
0010
0001
0011
0000
0001
0100
,
0101
0000
1000
0100
1100
0000
1010
0000
,
1000
0010
0100
0001
0010
0100
1000
0010
,
0100
1000
0100
0010
0100
0001
0010
0000
,
0001
1000
0002
0000
0203
0000
0320
0000
,
1030
0001
0200
0000
0320
0000
2030
0000
,
3001
0010
0002
0000
2003
0000
3200
0000
,
1300
0010
0200
0000
0302
0000
1003
0000
;

//--------------- dance-single - ----------------
#NOTES:
     dance-single:
     :
     Hard:
     16:
     0,0,0,0,0:
0000
0000
0000
0000
,
0000
0000
0000
0000
,
0000
0000
0000
0000
,
0000
0000
0000
0000
,
0000
0000
0000
0000
,
0000
0000
0000
0000
,
0000
0000
0000
0000
,
1000
0010
1000
0010
0100
0001
1000
0001
,
1000
0000
0100
0000
0010
0000
0001
0000
0000
0000
0001
0000
0100
0010
0100
0010
,
1000
0010
0100
0001
0010
0100
1000
0001
,
0100
0000
0100
0000
0010
0000
0100
0001
1000
0000
0001
0000
1001
0000
0000
0000
,
1000
0000
0010
0000
0100
0000
0001
0000
0001
0000
0100
0000
0010
0000
1000
0100
,
1000
0010
0100
0001
0010
0100
1000
0001
,
0001
0000
1000
0000
0100
0000
0010
0000
0001
0000
0100
0000
0010
0000
1000
0010
,
1000
0000
0010
0000
0100
0000
0001
0100
0001
0000
1000
0000
0000
0000
1000
0000
,
0001
0000
0010
0000
1000
0000
0010
0000
0001
0000
1000
0000
0010
0000
0100
0001
,
0100
0000
0010
0000
0001
0000
0010
0000
1000
0000
0001
0000
0010
0000
0100
1000
,
0100
0000
0010
0000
1000
0000
0010
0000
0001
0000
0100
0000
0010
0000
1000
0001
,
2000
0000
0000
0000
0000
0000
3001
0000
0000
0010
0000
0000
0001
0000
1000
0000
0001
0000
1000
0000
0100
0000
0010
0000
,
0001
0100
0010
2000
3200
2300
3002
0203
,
0310
0000
1000
0100
1000
0000
0001
0000
0010
0000
0100
1000
0100
0000
0100
0000
,
1000
0010
0100
0001
0010
1000
0010
0001
,
0100
0010
1000
0100
0001
0100
1000
0010
,
0100
0001
1000
0020
2030
3002
0023
0032
,
0103
0000
0010
1000
0010
0000
0100
0000
0001
0000
1000
0010
1000
0000
1000
0000
,
0001
0000
0001
0000
1000
0000
1000
0000
0100
0000
0010
0000
0001
1000
0001
1000
,
0001
0100
0010
0200
0000
0310
1001
0000
,
1000
0100
1000
1100
0100
0101
0100
0110
,
0010
0010
0001
1001
1000
0010
0100
0001
,
1000
0100
1000
0001
0010
0001
0100
0010
,
1000
0001
0100
0110
0000
1001
1000
0001
,
0010
0010
0001
0102
0000
1003
1000
0100
,
0100
1000
0010
2010
0000
3001
0001
1000
,
0100
0010
0001
1000
0010
0100
0001
1000
,
0100
0000
2000
0000
3010
0000
0200
0000
0301
1000
0001
1000
0001
0000
0000
0000
,
0001
0100
0001
0101
0100
1100
0100
0110
,
0010
0010
1000
0001
0001
0010
0100
1000
,
0001
0100
0010
1000
0001
0100
0001
1000
,
0100
0010
0001
0012
0000
0013
0010
0001
,
0010
0100
1000
2100
0000
3001
0001
0100
,
0100
0001
0100
0010
1000
1000
0010
0100
,
0001
0010
1000
0010
0001
1000
0010
0100
,
1000
0000
0100
0000
0001
0000
1000
0001
1000
0001
1000
0001
0100
0010
0100
0010
,
2000
0001
3001
0020
0100
0130
1001
0000
,
0002
0010
0013
0200
1000
1300
0001
0010
,
0002
0100
0103
0020
1000
1030
0110
0000
,
2000
0000
0001
0000
3001
0000
0200
0000
0010
0000
0310
0000
1000
0000
0010
0100
,
0002
0203
1300
0002
0023
1030
1010
0000
,
2000
3200
0301
2000
3020
0031
0011
0000
,
0002
0023
1030
0002
0203
1300
1100
0000
,
2000
3020
0031
2000
3200
0301
0101
0000
,
0001
2000
0000
3010
0210
0000
1000
0001
,
0000
0001
0000
0320
0000
0230
0000
0302
,
1000
1000
0000
0100
0103
0020
0000
0130
,
0002
1000
0000
1003
1000
0100
2000
0000
,
3020
0000
0100
2030
0000
0100
3002
0000
,
0010
0203
0000
0010
0302
0000
1003
0100
,
1200
0000
1300
1020
0000
0130
2001
0000
,
3100
0010
0001
0001
0100
0010
1000
1000
,
0001
0000
0000
0000
0011
0000
0010
0000
0000
0000
0001
0000
0100
0010
1000
0010
,
0100
0000
0001
0000
0100
0000
0101
0000
0000
0000
1010
0000
1000
0001
0100
0001
,
1000
0000
0000
0000
1100
0000
0100
0000
0000
0000
0010
0000
0001
0010
0100
0010
,
0001
0000
0100
0000
0010
0000
1000
0000
1000
0000
0100
0000
0010
0001
1000
0000
,
0002
0000
0103
0010
1000
0000
0002
0000
0103
0010
1000
0010
1000
0000
0001
0000
,
2000
0000
3100
0010
0001
0000
2000
0000
3100
0010
0100
0010
0001
0000
1000
0000
,
0001
0100
0001
0100
0010
1000
0010
1000
0001
1000
0001
1000
0100
0010
0100
0010
,
0100
0000
1000
0000
0010
0000
0100
0010
0000
0010
0100
0000
1001
0000
0000
0000
,
0001
0000
1000
0200
0000
1300
0002
0000
0013
0000
0001
2000
0000
3010
0200
0000
,
0301
0000
1000
0200
0000
1300
0020
0000
0130
0000
0001
1000
0001
0000
0100
0000
,
0010
0000
1000
0002
0000
0013
0200
0000
0310
0000
0001
2000
0000
3100
2000
0000
,
3010
0000
0100
0002
0000
0013
0200
0000
1300
0000
0010
0000
0100
0000
0101
0000
,
0001
0000
1000
0200
0000
0310
0002
0000
0103
0000
0010
2000
0000
3001
0200
0000
,
0310
0000
1000
0002
0000
0013
0002
0000
0103
0000
0010
1000
0010
0000
0100
0000
,
0002
0000
1000
2003
0000
3020
0000
0100
,
1030
0000
0000
1001
0000
0000
0001
0010
0100
1000
0010
0100
,
0001
0000
0001
0010
0001
0000
0011
0000
0010
0000
1010
0000
0010
0000
0011
0000
,
0001
0000
1000
0100
0000
0100
1000
0000
0010
0000
0100
0001
1000
0000
0001
0000
,
0100
0000
0010
1000
0100
0000
1100
0000
0100
0000
0101
0000
0100
0000
1100
0000
,
1000
0000
0001
0010
0000
0010
0100
0000
1000
0000
0010
0000
0100
0000
0001
0000
,
2000
0000
0000
3100
0000
0100
0010
0000
0002
0000
0000
0103
0000
0100
0010
0000
,
2000
0000
0000
3100
0000
0100
0010
0000
0002
0000
1003
0100
2000
0000
3001
0000
,
0100
0010
1000
0010
1000
0001
0100
0001
0100
0001
1000
0100
1000
0100
0010
0001
,
1000
0000
0010
1000
0010
0100
0001
1000
0100
0010
0100
0000
1001
0000
0000
0000
,
1000
0020
0130
0002
1003
0200
1300
0002
,
0013
0002
0103
0020
1030
0020
0130
0002
,
1003
0200
1300
0002
0013
0002
0103
0020
,
1030
0002
0103
0002
1003
0200
0310
0000
;
