#TITLE:Rave Superstar;
#SUBTITLE:;
#ARTIST:W&W x AXMO ft. Haley Maze;
#TITLETRANSLIT:;
#SUBTITLETRANSLIT:;
#ARTISTTRANSLIT:;
#GENRE:Hard Dance;
#CREDIT:darkanine;
#MUSIC:Rave Superstar.ogg;
#BANNER:Rave Superstar.png;
#BACKGROUND:Rave Superstar-bg.png;
#CDTITLE:;
#SAMPLESTART:46.400;
#SAMPLELENGTH:25.600;
#SELECTABLE:YES;
#OFFSET:0.000;
#BPMS:0.000=150.000
,152.000=75.000
,154.000=150.000
;
#STOPS:;
#BGCHANGES:;
#FGCHANGES:;

//--------------- dance-single - ----------------
#NOTES:
     dance-single:
     :
     Hard:
     13:
     0,0,0,0,0:
0000
0000
0000
0000
,
0000
0000
0000
0000
,
0000
0000
0000
0000
,
0000
0000
0000
0000
,
0000
0000
0000
0000
,
1000
0010
0100
0010
1000
1000
0001
1000
,
0001
0000
0010
0000
0100
0000
1000
0000
0001
0000
0000
0000
0100
0000
0010
1000
,
0010
0100
0001
0001
0010
0100
1000
1000
,
0001
0010
1000
0010
0001
0000
0100
0100
,
1000
0100
0001
0010
1000
0010
0001
1000
,
0001
0000
1000
0000
0010
0000
0100
0000
0010
0000
0000
0000
1000
0000
0100
1000
,
0100
0010
0001
0001
0100
0010
1000
1000
,
0010
0000
0010
0000
0100
0000
0100
0000
0010
0100
0010
0000
0100
0020
0200
0000
,
0000
0000
0000
0330
,
0001
0001
0010
0001
0100
0010
1000
0000
,
1000
1000
0100
1000
0001
0000
0000
1000
,
0010
0010
0100
0001
0010
0010
0100
1000
,
0010
0010
0001
0010
1000
0010
0100
0001
,
1000
1000
0001
0010
0100
1000
0001
0000
,
0001
0000
0001
0000
0100
0000
0010
0000
1000
0000
0000
0000
0000
0000
1000
0001
,
0010
0100
0010
1000
0010
0001
1000
1000
,
0010
0000
0100
0000
0010
0000
0100
0010
0100
0010
0100
0010
0200
0000
0300
0000
,
0101
0000
1000
1000
,
0011
0000
0100
0100
,
1010
0000
0001
1000
,
0110
0000
0000
0000
1000
0100
1000
0001
,
1001
0000
0000
0001
0010
0100
0010
0001
,
1001
0000
0000
1000
1010
0000
0011
0000
,
1001
0000
0001
0000
1000
0000
0001
0000
1000
0001
1000
0001
1000
0001
1000
0002
,
1000
0000
0010
0000
0013
0100
0110
0000
,
0011
0000
1000
0001
0010
0001
0100
0010
,
1010
0000
0001
1000
0010
1000
0100
0010
,
0110
0000
0000
0000
0001
0000
0010
0000
1000
0000
0010
0100
0010
0000
0001
0000
,
0011
0000
0000
0000
1010
0000
0000
0000
1001
0000
1000
0001
1000
0000
0000
0000
,
1010
0000
0001
0100
1000
0100
0010
0100
,
0101
0000
1000
0100
0001
0100
0010
0100
,
1100
0000
0000
0000
0001
0000
0010
0000
1000
0000
0010
0100
0010
0000
0001
0000
,
1000
0000
0001
0000
1000
0000
0001
1000
0001
1000
0001
1000
0002
0000
0000
0000
,
0103
0000
0000
0100
0110
0000
2000
0000
3001
0000
0100
0000
0010
0000
0100
0000
,
0001
0000
0010
0000
0100
0000
1000
0000
0010
0000
1000
0000
0100
0000
0010
0100
,
0010
0000
0100
1000
0100
0000
1000
0000
0001
0000
0010
0000
1000
0000
0010
0000
,
0001
0000
1000
0100
2000
0000
0000
0000
3001
0000
0100
0000
1000
0000
0100
0000
,
0010
0001
0010
1000
0001
1000
0100
0001
,
0100
0010
1000
0010
0001
1000
0010
0100
,
1000
0100
0001
2000
0001
0000
0100
0000
,
3100
0010
0110
0000
2002
0000
0000
0000
,
0000
0003
0000
0000
,
3010
1000
0010
0100
1000
0100
0002
0003
,
0100
1000
0100
0001
2000
0000
3000
0100
,
1000
0100
1000
0100
0001
0100
0001
0200
,
0310
0000
1000
0000
0010
0000
0001
0000
1000
0000
0200
0300
0020
0030
0002
0003
,
1000
0010
0001
0010
0100
0010
2000
3000
,
0010
0000
0100
0000
1000
0000
0100
0000
0002
0000
0000
0000
0003
0000
1000
0100
,
0010
0001
0010
1000
0010
0100
0001
0100
,
1000
1000
0001
0001
1000
0000
0000
0000
,
1002
0010
1000
1003
,
2001
0010
0100
3100
,
0120
1000
0001
0031
,
0210
0001
1000
1300
,
0012
1000
0100
0103
,
2010
3100
1002
0103
,
0001
1000
0001
1000
0010
0010
0010
0100
,
0010
0000
0100
0000
0010
0000
0100
0010
0100
0010
0100
0010
0200
0000
0300
0000
,
0101
0001
1000
0000
1100
0100
0010
0000
,
0011
0010
0100
0010
0001
0000
0110
0000
,
1001
0001
0100
0000
1010
1000
0100
0000
,
0110
0010
1000
0010
0001
0000
0011
0010
,
1001
0000
1100
0000
0101
0100
0010
0000
,
1010
0000
0010
0000
0001
0000
0010
0000
0100
0000
0000
0000
0101
0000
0100
0001
,
1000
0100
0010
0100
0001
0100
0010
0001
,
1000
0010
0001
0010
2000
0001
3001
1000
,
0200
0000
0000
0000
,
2300
0000
0000
0000
0000
0000
0000
0000
0000
0000
0000
3000
0000
1000
0100
0010
,
0002
0000
0000
0000
0000
0000
0000
0000
0000
0000
0000
0003
0000
0001
0010
0100
,
2000
0000
0010
0000
3010
0100
0110
0000
;
