#VERSION:0.83;
#TITLE:Raspberry Railgun;
#SUBTITLE:;
#ARTIST:OSTER project;
#TITLETRANSLIT:;
#SUBTITLETRANSLIT:;
#ARTISTTRANSLIT:;
#GENRE:;
#CREDIT:;
#MUSIC:raspberry.ogg;
#BANNER:bn.png;
#BACKGROUND:bg.png;
#CDTITLE:cdtitle-sorae.png;
#SAMPLESTART:54.507;
#SAMPLELENGTH:16.901;
#SELECTABLE:YES;
#OFFSET:0.000;
#BPMS:0.000=142.000;
#STOPS:;
#JACKET:jk.png;
#BGCHANGES:;
#FGCHANGES:;

//--------------- dance-single - ----------------
#NOTEDATA:;
#STEPSTYPE:dance-single;
#DESCRIPTION:XO;
#DIFFICULTY:Hard;
#METER:13;
#RADARVALUES:0,0,0,0,0;
#CREDIT:sorae;
#NOTES:
0000
0000
0000
0000
,
0000
0000
0000
0000
,
0000
0000
0000
0000
,
0001
0000
0010
0000
0001
0000
0100
0000
0001
0000
1000
0020
0000
0000
1030
0000
,
0010
0000
1000
0000
0100
0000
1000
0000
0001
0020
0000
0000
0031
0000
0100
0000
,
0010
0000
1000
0000
0100
0000
0010
0000
0001
0000
0012
0000
0000
1003
0000
0000
,
2010
0000
0000
3001
0000
1002
0000
0000
0000
0000
0023
0000
0000
0000
0130
0000
,
0010
0002
0000
0000
1003
0000
0010
0000
0100
0000
0001
0000
0001
0000
1000
0000
,
0100
0020
0000
0000
0000
0130
0000
0000
1000
0000
0002
0000
0000
0000
0103
0000
,
0010
2000
0000
0000
3001
0000
0010
0000
0100
0000
1000
0000
0010
0000
0100
0000
,
2000
0000
0000
3100
0010
0000
0000
0100
0001
0000
1000
0000
1000
0000
0100
0000
,
0010
0200
0000
0000
1300
0000
0001
0000
0100
0000
0010
0000
0001
0000
0010
0000
,
0100
0001
0000
0000
0010
0000
0000
0100
0000
0000
1000
0000
0001
0000
0100
0000
,
0010
1000
0000
0000
0100
0000
0000
0010
0000
0000
0001
0000
0100
0000
0001
0000
,
0010
0001
0100
0001
1000
0020
0000
0130
,
0010
2000
0000
0000
3001
0000
0010
0000
0100
0000
1000
0000
1000
0000
0001
0000
,
0100
0020
0000
0000
0000
0130
0000
0000
0001
0000
2000
0000
0000
0000
3100
0000
,
0010
0002
0000
0000
1003
0000
0010
0000
0100
0000
0001
0000
0010
0000
0100
0000
,
0002
0000
0000
0103
0010
0000
0000
0100
1000
0000
0001
0000
0001
0000
0100
0000
,
0010
0200
0000
0000
0301
0000
1000
0000
0100
0000
0010
0000
1000
0000
0010
0000
,
0100
1000
0000
0000
0010
0000
0000
0100
0000
0000
0001
0000
1000
0000
0100
0000
,
0010
0001
0000
0000
0100
0000
0000
0010
0000
0000
1000
0000
0100
0000
1000
0000
,
0010
1000
0100
0010
0001
1001
1000
0010
,
0100
0000
0001
0000
0000
0010
0000
0000
0001
0000
1002
0000
0103
0000
0010
0000
,
0001
0010
1000
0100
0010
1000
0010
0001
,
0100
0010
1000
0100
1000
0010
0100
0001
,
0010
0001
1001
1000
0010
0100
0001
1000
,
0001
0010
0100
1000
0010
0100
0101
0000
,
0000
1100
0000
0000
2000
0000
0000
3002
,
0000
0000
0000
0003
0101
0000
0000
0000
1001
0000
0000
0000
1100
0000
0000
0000
,
1001
0000
0001
0000
0100
0000
0010
1000
,
0010
0100
0010
1000
0200
0000
0000
0000
,
0000
0000
0000
0300
1100
0000
1000
0000
0001
0000
0100
0000
0010
0000
0000
1000
,
0000
2000
0000
0000
3200
0000
0000
0000
0301
0000
0100
0000
0010
0000
0001
0000
,
1000
0000
0010
0000
0100
0000
0001
0000
1000
0000
0100
0000
0010
0000
0000
0001
,
0000
0002
0000
0000
0203
0000
0000
0000
1300
0000
0100
0000
0010
0000
1000
0000
,
0001
0000
0010
0000
0011
0000
0001
0000
1000
0000
0010
0200
0000
0000
0301
0000
,
1000
0000
0100
0020
0000
0000
0130
0000
1000
0000
0010
0000
0001
0000
0010
0000
,
0001
0000
0010
0000
0100
0000
0001
0000
1000
0000
0000
0100
0000
0010
0000
0001
,
0000
0010
0000
0000
0100
0000
0000
1000
0000
0001
0000
1002
0000
0000
0103
0000
,
0010
0000
1000
1000
0001
0001
0010
0010
,
0100
0000
0100
2000
0000
0000
3001
0000
0100
0000
0000
0010
0000
1000
0000
2001
,
0000
0000
3200
0000
0000
0310
0002
0000
,
1003
0010
0100
0001
0010
0100
2000
0000
,
3001
0100
0002
0000
1003
0100
1000
0001
,
0100
0010
2000
0000
0000
3100
0010
0000
,
0002
0000
1003
0010
0100
0001
1000
0100
,
1000
0001
0100
0001
0010
0100
1000
0010
,
0200
0000
0301
0000
0000
1000
0000
0000
,
0001
0000
0000
1000
0000
0000
0100
0000
,
0010
0000
0001
0000
0100
0001
0100
0001
,
0100
0001
1000
0100
1000
0100
1000
0100
,
0110
0000
0000
0000
0000
0000
0000
0000
0001
0000
0000
0100
0000
0100
0000
0110
,
0000
0000
0000
1001
0000
0000
0000
0110
0000
0000
0000
0001
0000
2000
0000
0000
,
3100
0000
1000
0000
0001
0000
0100
0000
0010
0000
0000
1000
0000
2000
0000
0000
,
3200
0000
0301
0100
0010
0001
1000
0010
,
1010
0000
1000
0000
0001
0000
0010
0200
0000
0000
1300
0000
0001
0000
0100
0020
,
0000
0130
0001
0010
1000
0010
1000
0010
,
0100
0000
1000
0000
0001
0000
0000
0100
0000
0010
0000
1000
0000
0010
0000
0000
,
0100
0000
0000
0001
0000
1000
0000
1002
0000
0000
0013
0000
0100
0000
1000
0000
,
0010
0000
0000
0100
0000
0001
0000
2001
0000
0000
3010
0000
0100
0000
0001
0000
,
0010
0000
0000
0100
0000
1000
0000
1002
0000
0000
0013
0000
0100
0000
1000
0000
,
0001
0000
0001
0000
1000
0000
1000
0000
0010
0000
0010
0000
0100
0000
0100
0002
,
0000
0000
1003
0000
0100
0000
0100
2000
0000
0000
3001
0000
0100
0000
0100
0002
,
0000
0013
0100
1000
0001
0100
0010
0001
,
2000
0000
0000
0000
0000
0000
0000
3100
0000
0100
0010
0000
0000
0000
0000
0000
;

//--------------- dance-single - sorae ----------------
#NOTEDATA:;
#STEPSTYPE:dance-single;
#DESCRIPTION:XO;
#DIFFICULTY:Challenge;
#METER:16;
#RADARVALUES:0,0,0,0,0;
#CREDIT:sorae;
#NOTES:
0000
0000
0000
0000
,
0000
0000
0000
0000
,
0000
0000
0000
0000
,
0001
0000
0010
0000
0100
0000
0010
0000
0001
0000
0100
0001
0000
0001
1000
0000
,
0010
0000
0100
0000
0010
0000
1000
0000
0100
1000
0001
1000
0010
0000
0100
0001
,
0000
1000
0000
0100
0010
0001
1000
0001
0100
0010
2000
0000
0000
3100
0000
0010
,
0002
0000
0103
0010
0000
2001
0000
0000
0000
0000
3200
0000
0000
0000
0310
0001
,
1000
0020
0000
0000
0130
0000
0010
0000
1000
0000
0001
0000
0001
0000
0010
0100
,
1000
0002
0000
0000
0103
0010
0000
1000
0001
0000
0020
0000
0000
0000
0130
1000
,
0001
0200
0000
0000
0310
0100
0000
0001
1000
0000
0100
1000
0001
1000
0010
0100
,
2000
0000
0000
3100
0010
1000
0000
0001
0010
0100
1000
0000
1000
0000
0100
0010
,
0001
1000
0000
0010
0100
0001
0000
1000
0100
0010
1000
0010
0100
0010
0000
0001
,
0100
0010
0000
1000
0001
0000
0010
0200
0000
0000
1300
0000
0001
0100
0010
0100
,
0001
1000
0000
1000
0100
0000
0010
0002
0000
0000
1003
0010
0100
0001
0000
0001
,
1000
0010
0100
0001
0000
0001
1000
0100
0010
0001
0200
0000
0000
0000
0310
1000
,
0001
0020
0000
0000
0130
0000
0010
0000
0001
0000
1000
0000
1000
0000
0010
0100
,
0001
2000
0000
0000
3100
0010
0000
0001
1000
0000
0020
0000
0000
0000
0130
0001
,
1000
0200
0000
0000
0310
0100
0000
1000
0001
0000
0100
0001
1000
0001
0010
0100
,
0002
0000
0000
0103
0010
0001
0000
1000
0010
0100
0001
0000
0001
0000
0100
0010
,
1000
0001
0000
0010
0100
1000
0001
0100
0010
0000
0001
0010
0100
0010
0000
1000
,
0100
0010
0000
0001
1000
0000
0010
0200
0000
0000
0301
0000
1000
0100
0010
0100
,
1000
0001
0000
0001
0100
0000
0010
2000
0000
0000
3001
0010
0100
1000
0000
1000
,
0001
0010
0100
1000
0000
1000
0001
0100
0010
1000
0100
0000
0010
0000
0001
1000
,
0001
0000
0100
0000
0001
1000
0000
0001
1000
0000
1001
0000
0001
0010
0001
0010
,
0100
0000
0010
0000
0001
0000
1000
0010
1000
0010
0100
0000
0010
0000
1000
0000
,
0001
1000
0001
1000
0100
0000
0010
0001
0100
0000
0001
0000
0010
0000
0100
0000
,
1000
0000
0010
0000
1010
0000
1000
0001
0010
0001
1000
0000
0010
0100
0010
0000
,
1000
0100
0010
0001
0100
0001
1002
0013
,
0100
2001
3010
0100
0001
0010
0100
1000
,
0010
0100
0101
0000
1001
0000
1100
0000
,
1001
0000
0000
0000
0001
0000
0000
0000
0100
0000
0000
0010
1000
0000
1000
0000
,
0100
0100
0010
0010
0004
0000
0000
0000
,
0000
0000
0000
0003
0101
0000
0100
0000
0010
1000
0001
1000
0100
0010
0000
0011
,
0000
1001
0000
0000
1000
0000
0010
0200
0000
0310
1000
0001
0010
0100
0010
0001
,
0000
0001
1000
0000
1100
0000
0100
0000
0010
0001
1000
0001
0100
0010
0000
1010
,
0000
1001
0000
0000
0002
0000
0000
0013
0100
0010
0001
1000
0010
0100
0010
1000
,
0000
1000
0001
0000
0101
0000
0100
0000
0010
0100
0001
0010
0000
0100
1000
0001
,
0100
0010
0100
1000
0000
0100
0001
1000
0001
0010
0100
0010
1000
0010
0100
0010
,
1000
0010
0001
1000
0010
0000
0100
0000
0001
1000
0100
0010
0000
0011
0000
1001
,
0000
1010
0000
0000
0010
0000
0100
0001
0000
0010
0000
1002
0000
0000
0103
0010
,
0100
0010
1000
0000
0001
0010
0001
0000
0100
0010
0100
0000
0001
0010
0001
0000
,
0100
0010
0100
2000
0000
3100
0010
1000
0001
1000
0100
0010
0000
0110
0000
2001
,
0000
0000
0000
0000
3020
0000
0000
0000
0000
0000
0130
0000
0002
0000
0000
1003
,
0100
0010
0001
0100
0010
1000
2001
0000
,
3100
0010
0001
0000
2000
0000
0000
3010
0100
0000
0001
0000
1000
0000
0100
0000
,
0010
0000
0001
0000
1002
0000
0000
0000
0000
0103
0010
0000
2000
0000
0000
3100
,
0020
0000
0000
0000
0130
1000
0001
0000
0100
0000
0001
0000
1001
0000
1000
0000
,
0100
0000
0010
0001
1000
0000
0010
0100
0001
0000
0010
0000
0100
0000
1000
0010
,
0200
0000
0302
0000
0000
0010
0000
0000
,
2003
0000
0000
0000
0000
0000
0010
0000
0000
0000
0000
0000
3001
0010
0001
0000
,
1000
0010
1000
0000
0001
0010
0001
0000
2000
0000
0010
0000
0010
0000
0010
0000
,
3010
0100
0002
0010
0010
0010
0013
0100
,
0110
0000
0000
0000
0000
0000
0000
0000
1000
0001
0000
0101
0000
0110
0000
1002
,
0000
0000
0000
0013
0000
0100
1000
0010
0000
0100
0001
0010
0000
1001
0000
0000
,
0101
0000
0100
0000
0010
1000
0001
1000
0100
0010
0000
0110
0000
1100
0000
0000
,
2001
0000
0000
3010
0100
0010
1000
0001
0010
0100
0010
0001
0000
0001
1000
0000
,
1100
0000
0100
0000
0010
0100
1000
0010
0000
0100
0001
1000
0100
0010
0100
0001
,
0000
0100
1000
0001
1000
0010
0100
0010
0001
0010
0100
0010
0001
0010
1000
0001
,
0010
0000
0100
0000
1000
0001
0100
0010
0000
1010
0000
1001
0000
0011
0000
0000
,
0010
0000
0100
1000
0000
0010
0000
2001
0000
0000
3100
0010
0100
0010
0001
0000
,
0100
0000
0001
0010
0000
0110
0000
2001
0000
3001
0100
0010
0100
0010
1000
0000
,
0100
0000
0010
0001
0000
0100
0000
1002
0000
1003
0100
0010
0100
0010
0001
0000
,
1000
0010
1000
0000
0100
0010
0100
0000
1000
0010
1000
0000
0100
0010
0100
0002
,
0000
0103
0010
0001
1000
0010
0100
2000
0000
3100
0010
1000
0001
0010
0100
0002
,
0000
0103
0010
0100
1000
0001
0100
0001
0010
0001
1000
0100
1000
0010
0100
1000
,
0002
0000
0013
0100
0010
0100
0000
0110
0000
0001
1000
0000
0000
0000
0000
0000
;
