#TITLE:Radical Faith;
#SUBTITLE:;
#ARTIST:TaQ;
#TITLETRANSLIT:;
#SUBTITLETRANSLIT:;
#ARTISTTRANSLIT:;
#GENRE:;
#CREDIT:;
#MUSIC:Radical Faith.ogg;
#BANNER:;
#BACKGROUND:Radical Faith-bg.png;
#CDTITLE:;
#SAMPLESTART:42.568;
#SAMPLELENGTH:16.853;
#SELECTABLE:YES;
#OFFSET:3.751;
#BPMS:0.000=114.000;
#STOPS:;
#BGCHANGES:;
#FGCHANGES:;

//--------------- dance-single - Pandemonium X ----------------
#NOTES:
     dance-single:
     Pandemonium X:
     Beginner:
     3:
     0,0,0,0,0:
0000
0000
0000
0000
,
0000
0000
0000
0000
,
0000
0000
0000
0000
,
0000
0000
0000
0000
,
0000
0000
0000
0000
,
0000
0000
0000
0000
,
0001
0000
0000
0000
,
1000
0000
0000
0000
,
0001
0000
0000
0000
,
1000
0000
0000
0000
0000
0010
0000
0000
,
0100
0000
0010
0000
,
0100
0000
0001
0000
,
1000
0000
0100
0000
,
1000
0000
0020
0000
,
0130
0000
0001
0000
,
1000
0000
0100
0000
,
0010
0000
0001
0000
,
1000
0000
0000
0000
,
0010
0000
0000
0000
,
0010
0000
0000
0000
,
0000
0010
0000
0000
0000
0000
0000
0000
,
0010
0010
0010
0000
,
1001
0000
0001
0000
,
1000
0000
0100
0000
,
0010
0000
0001
0000
,
0100
0000
0010
0010
,
0100
0000
0001
0000
,
1000
0000
0100
0000
,
0010
0000
0100
0000
,
1000
0000
0001
0000
,
0100
0001
0000
0000
,
1000
0010
0000
0000
,
1000
0100
0000
0000
,
0010
0100
0000
0000
,
0010
0001
0000
0000
,
0100
0010
0000
0000
,
1000
0100
0000
0000
,
0010
0010
0010
0000
,
0001
0000
1000
0000
,
0010
0000
1000
0000
,
0100
0000
0010
0000
,
0100
0000
1000
1000
,
0001
0000
0100
0000
,
0001
0000
0010
0000
,
0100
0000
0010
0000
,
0001
1000
0001
0000
,
0100
0000
0000
0000
,
0010
0000
0000
0000
,
1000
0000
0000
0000
,
0001
0001
0001
0000
,
1000
0001
0000
0100
,
0001
0010
0000
0100
,
1000
0010
0000
0100
,
0010
0000
0000
0000
0100
0000
0000
0000
0002
0000
0000
0003
0000
0000
0000
0000
;

//--------------- dance-single - Pandemonium X ----------------
#NOTES:
     dance-single:
     Pandemonium X:
     Easy:
     7:
     0,0,0,0,0:
0000
0000
0000
0000
,
0000
0000
0000
0000
,
0000
0000
0000
0000
,
0000
0000
0000
0000
,
0000
0000
0000
0000
,
0000
0000
0000
0000
,
0001
0000
1000
0000
0100
0100
0100
0000
,
1000
0000
0001
0000
0100
0100
0100
0000
,
0001
0000
1000
0000
0100
0100
0100
0000
,
0010
0000
0000
0000
0000
0200
0000
0000
,
1300
0000
0010
0000
0100
0001
0100
0000
,
0001
0000
0010
0000
0100
1000
0100
0010
,
0100
0000
0010
0000
0001
1000
0001
0000
,
1000
0010
0200
0000
,
0301
0000
0010
0000
0001
1000
0100
0000
,
0010
0000
0100
0000
0010
0001
1000
0010
,
1000
0000
0001
0000
1000
0010
1000
0000
,
0010
0100
0002
0000
,
1003
0000
0000
0000
,
1001
0000
0000
0000
,
0000
1001
0000
0000
0000
0000
0000
0000
,
0001
0000
0001
0000
0001
0200
0000
0000
,
0320
0000
0130
0000
0010
0100
0001
0000
,
2000
0000
3100
0000
1000
0100
0010
0000
,
0200
0000
0310
0000
0010
0001
0100
0000
,
0020
0000
0130
0000
0001
0010
0001
1000
,
0200
0000
1300
0000
1000
0001
0100
0000
,
0002
0000
0103
0000
0001
0010
0100
0000
,
0020
0000
0130
0000
0010
0100
0010
0000
,
0020
0000
0130
0000
0100
1000
0001
0000
,
0001
0000
1000
0000
0000
0001
1000
0000
,
0001
0000
1000
0000
0000
0001
1000
0000
,
0001
0000
1000
0000
0000
0001
1000
0000
,
0001
0000
1000
0000
1000
0020
0000
0000
,
0130
0000
0110
0000
0010
0100
0010
0000
,
0100
0000
0110
0000
0010
0100
0010
0000
,
0100
0000
0110
0000
0010
0100
0010
0000
,
1000
1000
1000
1000
,
1001
0000
0001
0000
0010
0001
0100
0000
,
1010
0000
1000
0000
0010
0100
0001
0000
,
1100
0000
1000
0000
0100
0010
0001
0000
,
0011
0000
0001
0000
0001
1000
0010
0100
,
0101
0000
1000
0000
1000
0001
0100
0000
,
0101
0000
0001
0000
0001
0100
0010
0000
,
0110
0000
0010
0000
0010
1000
0001
0000
,
1000
0100
0010
0001
0100
0010
1000
0000
,
0001
0000
0100
0000
0000
0010
1000
0000
,
0100
0000
0010
0000
0000
0001
0010
0000
,
0001
0000
0100
0000
0000
0001
1000
0000
,
0100
0100
0100
0100
,
0010
0000
0001
0000
0100
0001
0100
0000
,
0010
0000
1000
0000
0100
1000
0100
0000
,
1000
0000
0010
0000
0100
0010
0100
0000
,
0010
0000
0000
0000
0100
0000
0000
0000
0001
0000
0000
1000
0000
0000
0000
0000
;

//--------------- dance-single - Pandemonium X ----------------
#NOTES:
     dance-single:
     Pandemonium X:
     Medium:
     12:
     0,0,0,0,0:
0000
0000
0000
0000
,
0000
0000
0000
0000
,
0000
0000
0000
0000
,
0000
0000
0000
0000
,
0000
0000
0000
0000
,
0000
0000
0000
0000
,
0001
0000
1000
0000
0000
1000
0000
0000
0100
0000
1000
0000
0010
0000
1000
0000
,
0001
0000
0100
0000
0000
0100
0000
0000
0010
0000
0001
0000
0010
0000
0100
0000
,
0001
0000
1000
0000
0000
1000
0000
0000
0100
0000
0010
0000
0100
0000
1000
0000
,
0001
0000
0000
0001
0000
0000
0001
0000
1000
0000
0001
0100
0001
0000
0100
0000
,
0010
0000
1000
0000
0001
1000
0000
1000
0100
0000
0010
0000
0100
0000
0000
0000
,
0010
0000
0001
0000
1000
0001
0000
0001
0010
0000
0100
0000
0010
0000
0001
0000
,
1000
0000
0001
0000
0010
0100
0000
0010
0001
0000
0100
0000
0001
0000
0000
0000
,
0001
0000
0010
0000
0100
1000
0000
0010
0100
0010
0000
0010
0000
0010
0000
0010
,
1000
0000
0001
0000
1000
0100
0000
0100
0010
0000
0010
0000
0010
0000
0001
0000
,
0100
0000
0001
0000
1000
0001
0000
0001
1000
0000
1000
0000
1000
0000
0100
0000
,
0010
0000
0100
0000
1000
0100
0000
0100
0010
0000
0010
0000
0010
0000
0100
0000
,
0010
0000
0000
0001
0000
0000
0000
0100
0010
0100
0000
0100
0000
0100
0000
0100
,
0001
0000
0000
0000
,
1010
0000
0000
0000
,
0000
1001
0000
0000
0000
0000
0000
0000
,
0010
0010
0010
0010
,
1001
0000
0001
0000
1000
0001
0000
0001
0100
0000
0001
0000
0010
0000
0100
0000
,
1000
0000
0100
0000
1000
0010
0000
0010
0100
0000
1000
0000
0100
0000
0001
0000
,
1000
0000
0001
0000
0010
0001
0000
0100
0001
0000
0100
0000
0010
0000
1000
0000
,
0001
0000
1000
0000
0001
1000
0000
1000
0100
0000
0001
0000
0100
0000
1000
0000
,
0010
0000
0100
0000
0001
0010
0000
0010
0001
0000
0001
0000
0100
0000
0100
0000
,
0010
0000
1000
0000
0010
1000
0000
1000
0010
0000
0010
0000
0100
0000
0001
0000
,
1000
0000
0001
0000
1000
0001
0000
0001
0010
0000
0010
0000
0001
0000
0100
0000
,
0010
0000
0100
0001
0000
0010
0000
0000
0100
1000
0100
0010
0000
0000
0000
0000
,
0100
1000
0000
0100
0010
0000
0000
0000
0001
0000
0100
0000
0001
0000
0000
0000
,
0100
0001
0000
0010
0100
0000
0000
0000
0010
0000
0001
0000
0100
0000
0010
0000
,
1000
0001
0000
0010
0100
0000
0000
0000
0010
0000
0001
0000
0100
0000
0000
0000
,
0010
1000
0000
0100
0010
0000
0000
0000
0010
0100
0000
0100
0000
0100
0000
0000
,
1000
0001
0010
0001
0010
0100
1100
0000
,
0001
1000
0100
1000
0100
0010
0011
0000
,
0001
1000
0010
1000
0010
0100
0101
0000
,
0010
0010
0010
0010
,
1001
0000
0001
0000
0100
0010
0000
1000
0100
0000
0100
0000
0010
0000
0100
0000
,
0010
0000
0001
0000
0010
0001
0000
0010
0100
0000
0010
0000
0010
0000
0001
0000
,
0100
0000
0010
0000
0100
0001
0000
0010
0100
0000
0100
0000
1000
0000
0100
0000
,
1000
0000
0010
0000
0100
0001
0000
0010
0100
0000
0010
0001
0000
0100
0010
0000
,
1000
0000
0001
0000
1000
0010
0000
0100
0001
0000
0010
0000
0100
0000
1000
0000
,
0100
0000
1000
0000
0010
0100
0000
0001
0010
0000
0001
0000
0100
0000
0010
0000
,
1000
0000
0001
0000
0010
0001
0000
0100
0010
0000
1000
0100
0000
0010
0100
0000
,
0010
0000
0001
0100
0000
0010
1000
0000
0001
1000
0001
1000
0000
0000
0000
0000
,
0001
0100
0000
0100
0010
0000
0000
0000
0100
0000
0001
0000
1000
0000
0000
0000
,
1000
0010
0000
0010
0100
0000
0000
0000
0010
0000
0100
0000
0001
0000
0000
0000
,
1000
0100
0000
0010
0100
0000
0000
0000
0100
0000
1000
0000
0010
0000
0000
0000
,
0100
0010
0000
0010
1000
0000
0000
0000
0001
0000
0100
0000
0010
0000
1000
0000
,
0100
0010
0100
0000
0010
0001
0000
0001
0100
0000
0010
0000
0110
0000
0000
0000
,
0010
0100
0010
0000
1000
0001
0000
1000
0010
0000
0100
0000
0110
0000
0000
0000
,
1000
0001
1000
0000
0001
0100
0000
0001
1000
0000
0001
0000
0010
0000
0100
0000
,
0010
0000
0001
0000
0100
0000
0010
0000
1000
0010
1000
0100
0000
0000
0000
0000
;

//--------------- dance-single - Pandemonium X ----------------
#NOTES:
     dance-single:
     Pandemonium X:
     Hard:
     15:
     0,0,0,0,0:
0000
0000
0000
0000
,
0000
0000
0000
0000
,
0000
0000
0000
0000
,
0000
0000
0000
0000
,
0000
0000
0000
0000
,
0000
0000
0000
0000
,
1000
0000
0001
0000
0100
0001
0000
0001
0100
0010
0100
0010
0100
0000
0001
0000
,
1000
0000
0100
0000
1000
0001
0000
0001
0100
0010
0100
0010
0100
0000
0010
0000
,
0100
0000
0001
0000
1000
0001
1000
0010
0100
0010
0100
0010
0100
0000
0001
0000
,
1000
0000
0001
1000
0100
1000
0001
0100
0001
1000
0200
0000
0000
0000
0000
0000
,
0310
0000
0001
0000
0100
0010
0000
0100
0001
0010
0100
0010
0001
0000
1000
0100
,
0010
0000
0100
0000
0010
0100
0000
0010
0001
0100
0010
0100
0010
0000
0100
0001
,
1000
0000
0100
0000
0010
0100
0000
0010
0001
1000
0100
1000
0010
0000
0100
0001
,
0010
0000
0000
0000
0100
0000
0000
0000
0010
0000
0001
0000
0000
0000
1000
0001
1000
0000
0001
0000
0000
0000
1001
0000
0000
0000
1001
0000
0000
0000
1001
0000
,
0001
0000
1000
0000
0100
0010
0000
0100
1000
0001
0100
0010
1000
0000
0010
0100
,
0001
0000
0100
0000
0010
1000
0000
1000
0010
0100
0001
1000
0001
0000
0010
0100
,
1000
0000
0100
0000
0010
0100
0000
0010
0001
0100
0010
1000
0010
0000
0100
0001
,
1000
0000
0000
0000
0000
0000
0100
0000
0000
0000
0000
0000
0000
0000
1000
0001
1000
0000
0001
0000
0000
0000
0001
0000
1000
0000
0100
0000
0010
0000
0001
0000
,
1000
0000
0000
0000
0000
0000
0000
0000
0000
0000
0000
0000
0001
0000
1000
0001
,
1001
0000
0000
0000
0000
0000
0000
0000
0000
0000
0000
0100
1000
0000
0001
0100
,
0010
0000
0000
1001
0000
0000
0000
0000
0000
0000
0000
0000
0000
0000
0000
0000
0000
0000
0000
0000
0000
0000
1000
0100
,
0010
0000
0000
0001
0000
0000
0000
0000
1000
0000
0100
0000
0010
0000
0000
0001
0000
0000
0000
0000
1000
0000
0100
0000
0010
0000
0000
0001
0000
0000
0000
0000
0000
0001
0000
0000
0000
0000
0000
0001
0000
0000
1000
0000
0000
0001
0000
0000
,
1000
0000
0001
0000
0001
0010
0000
0010
1000
0100
0010
0100
1000
0000
0100
0010
,
0001
0000
0001
0000
1000
0100
0010
0100
1000
0001
0010
0100
0010
0000
0001
0000
,
1000
0000
0001
0000
0001
0100
0000
0100
1000
0010
0100
0001
0010
0000
0100
1000
,
0001
0100
0000
0010
0100
0001
0100
0010
1000
0100
0010
0001
0010
0100
0010
0001
,
1000
0000
1000
0000
0001
0010
0000
0010
1000
0001
0010
0001
0100
0000
0001
1000
,
0100
0000
1000
0000
0001
0100
0000
0100
1000
0010
0000
0010
0000
0010
0000
0010
,
1000
0000
0010
0100
0000
0001
0010
0000
0100
0010
0000
0001
1000
0000
0001
0100
,
0010
0000
0100
0001
0000
0010
0000
0100
0010
0001
1000
0001
0000
0000
1000
0000
,
0001
0100
0000
0010
2000
0000
0000
0000
0100
0000
3100
0000
1100
0000
0000
0000
,
0010
0001
0000
1000
0200
0000
0000
0000
0010
0000
0310
0000
0110
0000
0000
0000
,
0100
0010
0000
0001
2000
0000
0000
0000
0001
0000
3001
0000
1001
0000
0000
0000
,
1000
0000
0001
0000
0000
0000
0010
0000
0100
0000
0000
0000
0000
0000
1000
0001
1000
0000
0001
0000
0000
0000
0001
0000
0000
0000
0001
0000
0000
0000
0001
0000
,
0100
0001
0000
0010
0001
0000
1000
0010
0000
0100
0000
0100
0000
0100
0010
1000
,
0100
0010
0000
0100
1000
0100
0000
0010
0000
0100
0000
0100
1000
0001
0010
0100
,
0010
0100
0000
0010
0001
0100
0000
0010
0000
0100
0000
0001
0000
0100
0001
0000
,
1000
0100
0000
0000
0100
0010
0000
0000
0010
0001
0000
0001
0000
0000
0000
0000
,
1001
0000
0001
0000
1000
0010
0000
1000
0010
0010
0001
1000
0001
0000
1000
0001
,
0100
0000
0001
0000
1000
0100
1000
0001
0100
0100
1000
0001
1000
0000
1000
0100
,
0010
0000
0001
0000
0100
0001
0000
0001
0010
0010
1000
0001
1000
0100
0010
0100
,
1000
0010
0100
0001
0010
0100
0010
0001
1000
0010
0100
1000
0100
0001
0100
0010
,
1000
0000
0001
0000
1000
0010
0000
1000
0100
0100
0001
1000
0010
0000
0100
0001
,
1000
0000
0001
0000
1000
0100
0000
1000
0010
0100
0000
0100
0000
0100
0000
0100
,
0001
0010
0001
1000
0010
0100
0001
0010
0001
0100
0010
1000
0001
0010
0000
0010
,
0001
0100
0100
1000
0100
0100
0001
1000
0100
0010
0001
1000
0000
0000
0000
0000
,
0001
0100
0000
0100
1000
0000
0100
0000
0010
0000
0001
0000
0100
0000
0001
0000
,
1000
0100
0000
0100
0001
0000
1000
0000
0010
0000
0100
0000
0010
0000
1000
0000
,
0001
0010
0000
0010
1000
0000
0010
0000
0100
0000
0001
0000
1000
0000
0001
0000
,
1000
0100
0000
0010
0001
0100
0000
0010
1000
0100
0000
0100
0000
0100
0010
0001
,
1000
0000
0001
0100
0001
0010
0001
1000
0010
0010
0001
1000
0001
0000
1000
0001
,
1000
0100
1000
0010
1000
0100
1000
0001
0100
0010
0000
0010
0000
0010
1000
0000
,
0001
0000
1000
0010
1000
0100
1000
0001
0100
0100
1000
0001
1000
0000
1000
0000
,
0001
0100
0010
1000
0001
0010
0100
1000
0010
0010
0001
1000
0000
0000
0000
0000
;
