#VERSION:0.83;
#TITLE:RED ZONE;
#SUBTITLE:;
#ARTIST:Tatsh&NAOKI;
#TITLETRANSLIT:;
#SUBTITLETRANSLIT:;
#ARTISTTRANSLIT:;
#GENRE:;
#ORIGIN:;
#CREDIT:;
#BANNER:sc2024-banner.png;
#BACKGROUND:sc2024-background.png;
#PREVIEWVID:;
#JACKET:RED ZONE-jacket.png;
#CDIMAGE:;
#DISCIMAGE:;
#LYRICSPATH:;
#CDTITLE:scr-cdtitle.png;
#MUSIC:RED ZONE-audio.ogg;
#OFFSET:0.000000;
#SAMPLESTART:30.546000;
#SAMPLELENGTH:11.636000;
#SELECTABLE:YES;
#DISPLAYBPM:165.000000;
#BPMS:0.000=165.000,
4.000=100000.000,
60.000=165.000;
#STOPS:4.000=1.320,
20.000=1.320,
44.000=1.320,
59.000=0.371;
#DELAYS:;
#WARPS:;
#TIMESIGNATURES:0.000=4=4;
#TICKCOUNTS:0.000=4;
#COMBOS:0.000=1;
#SPEEDS:0.000=1.000=0.000=0,
288.000=0.000=0.000=0,
288.021=1.000=4.000=0,
332.000=0.000=0.000=0,
332.021=4.000=4.000=0;
#SCROLLS:0.000=10.000,
4.000=1.010,
44.000=1.000,
60.000=0.000,
62.000=-0.825,
62.125=-0.750,
62.250=-0.625,
62.375=-0.500,
62.500=-0.375,
62.625=-0.250,
62.750=-0.125,
62.875=0.000,
63.000=0.125,
63.125=0.250,
63.250=0.375,
63.375=0.500,
63.500=0.625,
63.625=0.750,
63.750=0.875,
63.875=1.000,
124.000=0.000,
124.250=0.125,
124.500=0.250,
124.750=0.375,
125.000=0.500,
125.250=0.625,
125.500=0.750,
125.750=0.825,
126.000=1.000,
192.000=0.750,
208.000=1.000;
#FAKES:3.000=57.000;
#LABELS:0.000=Song Start;
#BGCHANGES:0.000=RED ZONE-bga.mp4=1.000=0=0=0=StretchNoLoop====,
99999=-nosongbg-=1.000=0=0=0 // don't automatically add -songbackground-
;
#KEYSOUNDS:;
#ATTACKS: TIME=0.00:LEN=5.81:MODS=*1 stealth: TIME=1.46:LEN=0.50:MODS=*0.5 50% stealth: TIME=2.79:LEN=0.50:MODS=*0.5 50% stealth: TIME=4.12:LEN=0.50:MODS=*0.5 50% stealth: TIME=5.82:LEN=5.00:MODS=*1.5 no stealth;

//---------------dance-single - [XMOD] XO, RH-----------------
#NOTEDATA:;
#CHARTNAME:we're gathering beans;
#STEPSTYPE:dance-single;
#DESCRIPTION:[XMOD] XO, RH-;
#CHARTSTYLE:;
#DIFFICULTY:Medium;
#METER:13;
#RADARVALUES:0.673089,0.748979,0.075086,0.093857,0.488057,502.000000,494.000000,8.000000,10.000000,0.000000,0.000000,0.000000,0.000000,108.000000,0.673089,0.748979,0.075086,0.093857,0.488057,502.000000,494.000000,8.000000,10.000000,0.000000,0.000000,0.000000,0.000000,108.000000;
#CREDIT:Scrypts;
#ATTACKS:TIME=0.000000:LEN=5.810000:MODS=*1 stealth:TIME=1.460000:LEN=0.500000:MODS=*0.5 50% stealth:TIME=2.790000:LEN=0.500000:MODS=*0.5 50% stealth:TIME=4.120000:LEN=0.500000:MODS=*0.5 50% stealth:TIME=5.820000:LEN=5.000000:MODS=*1.5 no stealth:TIME=0.000000:LEN=5.810000:MODS=*1 stealth:TIME=1.460000:LEN=0.500000:MODS=*0.5 50% stealth:TIME=2.790000:LEN=0.500000:MODS=*0.5 50% stealth:TIME=4.120000:LEN=0.500000:MODS=*0.5 50% stealth:TIME=5.820000:LEN=5.000000:MODS=*1.5 no stealth;
#DISPLAYBPM:165.000000;
#NOTES:
// measure 0
0000
0000
0000
0000
,  // measure 1
F000
0F00
000F
F000
00F0
000F
F000
00F0
000F
F000
0F00
000F
F000
0F00
000F
F000
,  // measure 2
00F0
000F
F000
00F0
000F
F000
0F00
00F0
F000
0F00
00F0
F000
00F0
0F00
F000
000F
,  // measure 3
0F00
00F0
000F
00F0
0F00
000F
F000
0F00
000F
0F00
F000
000F
0F00
0000
0000
0000
,  // measure 4
0000
0000
0000
0000
,  // measure 5
F000
0F00
000F
000F
00F0
F000
F000
0F00
,  // measure 6
00F0
000F
F000
00F0
0F00
F000
F000
00F0
,  // measure 7
000F
0000
000F
0000
0F00
0000
00F0
0000
F000
0000
0F00
00F0
000F
0000
F000
0000
,  // measure 8
000F
0F00
F000
F000
00F0
000F
000F
0F00
,  // measure 9
000F
000F
00F0
F000
0F00
00F0
F000
000F
,  // measure 10
0F00
0000
0000
0000
,  // measure 11
F000
0F00
0FF0
0000
000F
0F00
0FF0
0000
FF00
0000
0F0F
0000
F00F
0000
0000
0000
,  // measure 12
F000
0F00
000F
0F00
F000
000F
0F00
0000
,  // measure 13
0000
0000
0000
0000
,  // measure 14
0000
0000
0000
0000
,  // measure 15
0000
0000
0000
0000
,  // measure 16
1000
0100
0010
0001
0100
0010
1000
0001
,  // measure 17
1000
0000
0010
0000
0100
0000
0001
0000
0010
0000
0100
0000
1000
0001
0000
1000
,  // measure 18
0001
0100
0010
1000
0100
0010
0001
1000
,  // measure 19
0010
0100
0001
0010
0002
0000
0000
0000
,  // measure 20
1003
0100
0010
0001
0100
0010
1000
0001
,  // measure 21
1000
0010
0100
0001
0010
0100
1000
0001
,  // measure 22
0100
0010
1000
0100
0010
0001
1000
0010
,  // measure 23
0000
1000
0000
0000
0001
0000
0010
0001
0000
0001
0000
1000
0010
0000
0100
0001
,  // measure 24
1000
0100
0001
0100
1000
0001
0100
0001
,  // measure 25
1000
0010
0001
0010
1000
0001
0010
0001
,  // measure 26
1000
0000
0000
0100
0000
0000
0010
0000
0000
0010
0001
0000
0100
0000
0010
0000
,  // measure 27
0000
1000
0000
0000
0010
0000
0000
0100
0000
0100
0001
0000
0010
0100
1000
0000
,  // measure 28
0001
0100
1000
0100
0001
1000
0100
1000
,  // measure 29
0001
0010
1000
0010
0001
1000
0010
1000
,  // measure 30
0001
0000
0000
0010
0000
0000
0100
0000
0000
1000
0000
0000
0010
0100
0001
0000
,  // measure 31
2000
0000
0000
0000
3001
1000
0001
1000
,  // measure 32
0100
0000
0010
0000
0001
0000
1000
0000
0010
0000
0000
0001
0000
0000
0010
0000
,  // measure 33
1000
0000
0001
0000
0100
0000
0001
0000
0010
0000
0000
1000
0000
0000
0010
0000
,  // measure 34
0001
0000
1000
0000
0100
0000
1000
0000
0010
0000
0000
0001
0000
0000
0010
0000
,  // measure 35
1000
0000
0100
0000
0010
0000
0001
0000
0100
0000
0010
0000
0000
1000
0001
0000
,  // measure 36
0010
0000
0100
0000
1000
0000
0001
0000
0100
0000
0000
1000
0000
0000
0100
0000
,  // measure 37
0001
0000
1000
0000
0010
0000
1000
0000
0100
0000
0000
0001
0000
0000
0100
0000
,  // measure 38
1000
0000
0001
0000
0010
0000
0001
0000
0100
0000
0000
1000
0000
0000
0100
0000
,  // measure 39
0001
0000
0010
0000
0100
0000
1000
0000
0010
0000
0100
0000
0000
0001
1000
0000
,  // measure 40
0100
0000
0010
0000
0001
0000
0000
0100
0000
0010
0000
0000
0100
0000
0010
0000
,  // measure 41
1000
0000
0010
0000
1000
0100
0000
0100
0010
0000
0010
0002
0000
0000
1003
0000
,  // measure 42
0001
0000
0100
0000
0010
0000
0000
0100
0000
0010
0000
0000
1000
0000
0010
0000
,  // measure 43
1000
0001
0000
0000
0010
0000
0000
0100
0000
0100
1000
0000
0010
0000
1000
0000
,  // measure 44
0001
0000
0010
0000
0100
0000
0000
0010
0000
0100
0000
0100
1000
0000
0001
0000
,  // measure 45
1000
0000
0100
0010
0000
0000
0001
0000
0000
0100
0000
0000
1000
0000
0100
0001
,  // measure 46
0100
0000
0010
0000
0000
1000
0000
0000
0100
0000
0000
0010
0000
0000
0001
0000
,  // measure 47
1000
0000
0010
0000
0000
0100
0000
0000
0001
0010
0001
0000
1000
0010
1000
0000
,  // measure 48
1002
0000
1003
0000
0100
1000
0001
0100
,  // measure 49
0000
0001
1000
0010
0100
1000
0100
0010
,  // measure 50
1000
0000
1000
0000
0200
0000
0310
0002
,  // measure 51
0000
0000
0013
0000
0100
0000
1000
0001
1000
0000
0010
0000
0100
0000
0000
0000
,  // measure 52
1001
0000
0001
0000
0010
0001
1000
0010
,  // measure 53
0000
1000
0001
0010
0100
0001
0100
0010
,  // measure 54
0001
1000
0001
0000
0020
0000
0130
1000
,  // measure 55
0001
0000
0100
0000
0010
0000
1000
0000
0100
0000
0010
0000
0001
1000
0001
1000
,  // measure 56
0010
0000
0100
0000
0001
0000
1000
0000
0100
0000
0000
0001
0000
0000
0100
0000
,  // measure 57
1000
0000
0001
0000
0010
0000
0001
0000
0100
0000
0000
1000
0000
0000
0100
0000
,  // measure 58
0001
0000
1000
0000
0010
0000
1000
0000
0100
0000
0000
0001
0000
0000
0100
0000
,  // measure 59
1000
0000
0010
0000
0100
0000
0001
0000
0010
0000
0100
0000
0000
1000
0001
0000
,  // measure 60
0100
0000
0010
0000
1000
0000
0001
0000
0010
0000
0000
1000
0000
0000
0010
0000
,  // measure 61
0001
0000
1000
0000
0100
0000
1000
0000
0010
0000
0000
0001
0000
0000
0010
0000
,  // measure 62
1000
0000
0001
0000
0100
0000
0001
0000
0010
0000
0000
1000
0000
0000
0010
0000
,  // measure 63
0001
0000
0100
0000
0010
0000
1000
0000
0100
0000
0010
0000
0000
0001
1000
0000
,  // measure 64
0010
0000
0100
0000
0001
0000
0000
0010
0000
0100
0000
0000
0010
0000
0100
0000
,  // measure 65
1000
0000
0100
0000
1000
0010
0000
0010
0100
0000
0100
0002
0000
0000
1003
0000
,  // measure 66
0001
0000
0010
0000
0100
0000
0000
0010
0000
0100
0000
0000
1000
0000
0100
0000
,  // measure 67
1000
0001
0000
0000
0100
0000
0000
0010
0000
0010
1000
0000
0100
0000
1000
0000
,  // measure 68
0001
0000
0100
0000
0010
0000
0000
0100
0000
0010
0000
0010
1000
0000
0001
0000
,  // measure 69
1000
0000
0010
0100
0000
0000
0001
0000
0000
0010
0000
0000
1000
0000
0010
0001
,  // measure 70
0010
0000
0100
0000
0000
1000
0000
0000
0010
0000
0000
0100
0000
0000
0001
0000
,  // measure 71
1000
0000
0100
0000
0000
0010
0000
0000
0001
0100
0001
0000
1000
0100
1000
0000
,  // measure 72
1002
0000
0000
0003
,  // measure 73
1000
0100
0010
0001
1000
0010
0100
0001
,  // measure 74
0010
0100
1000
0001
0100
0010
1000
0001
,  // measure 75
1000
0100
0001
0100
1000
0100
0001
0100
,  // measure 76
1000
0010
0001
0010
1000
0010
0001
0010
,  // measure 77
1000
0100
0010
0001
1000
0100
0010
0001
,  // measure 78
1000
0010
0100
0001
0100
1000
0001
0010
,  // measure 79
1000
0001
0010
1000
0010
0001
0100
0010
,  // measure 80
1000
0001
0100
1000
0100
0010
1000
0001
,  // measure 81
0101
0000
0000
1000
0000
0000
1100
0000
0000
0000
1000
0000
0100
0000
1000
0000
,  // measure 82
1100
0000
0000
0001
0000
0000
0101
0000
0000
0000
0001
0000
0110
0000
1000
0000
,  // measure 83
0002
0000
0000
0000
,  // measure 84
0003
0000
0000
0000
;

//---------------dance-single - [XMOD] DS, FS, XO-----------------
#NOTEDATA:;
#CHARTNAME:brought them back;
#STEPSTYPE:dance-single;
#DESCRIPTION:[XMOD] DS, FS, XO-;
#CHARTSTYLE:;
#DIFFICULTY:Hard;
#METER:16;
#RADARVALUES:0.954660,1.182599,0.300343,0.300343,1.506406,712.000000,680.000000,32.000000,32.000000,7.000000,0.000000,0.000000,0.000000,171.000000,0.954660,1.182599,0.300343,0.300343,1.506406,712.000000,680.000000,32.000000,32.000000,7.000000,0.000000,0.000000,0.000000,171.000000;
#CREDIT:Scrypts;
#ATTACKS:TIME=0:LEN=5.81:MODS=*1 stealth:TIME=1.46:LEN=0.5:MODS=*0.5 50% stealth:TIME=2.79:LEN=0.5:MODS=*0.5 50% stealth:TIME=4.12:LEN=0.5:MODS=*0.5 50% stealth:TIME=5.82:LEN=5:MODS=*1.5 no stealth:TIME=0:LEN=5.81:MODS=*1 stealth:TIME=1.46:LEN=0.5:MODS=*0.5 50% stealth:TIME=2.79:LEN=0.5:MODS=*0.5 50% stealth:TIME=4.12:LEN=0.5:MODS=*0.5 50% stealth:TIME=5.82:LEN=5:MODS=*1.5 no stealth;
#DISPLAYBPM:165.000000;
#NOTES:
0000
0000
0000
0000
,
F000
0F00
000F
0F00
F000
00F0
000F
00F0
F000
0F00
000F
0F00
F000
00F0
000F
00F0
,
F000
0F00
000F
0F00
F000
00F0
000F
00F0
F000
0F00
000F
0F00
F000
00F0
000F
00F0
,
F000
0F00
000F
0F00
F000
00F0
000F
F000
0F00
000F
F000
0F00
000F
0000
0000
0000
,
0000
0000
0000
0000
,
FF00
00F0
00F0
0F0F
00F0
00F0
FF00
00F0
00F0
0F0F
00F0
00F0
FF00
00F0
00F0
0F0F
,
F000
0F00
000F
0F00
00F0
000F
F000
0F00
000F
0F00
00F0
000F
F000
00F0
000F
00F0
,
0F00
000F
F000
00F0
000F
00F0
0F00
000F
F000
0F00
000F
0F00
F000
000F
0F00
000F
,
F000
0F00
FF00
000F
0F00
0F0F
F000
00F0
F0F0
000F
00F0
00FF
F000
0F00
FF00
000F
,
00F0
00FF
F000
00F0
F0F0
000F
0F00
0F0F
F000
0F00
F000
000F
F000
00F0
F000
000F
,
F000
0000
0000
0000
,
F000
00F0
0F00
000F
00F0
0F00
F000
00F0
0F00
000F
00F0
0F00
F000
00F0
0F00
000F
,
00F0
0F00
F000
00F0
0F00
000F
00F0
0F00
F000
0F00
000F
0F00
F000
000F
F000
0000
,
0000
0000
0000
0000
,
0000
0000
0000
0000
,
0000
0000
0000
0000
,
1000
0100
1000
0000
0001
0100
0001
0000
1000
0010
1000
0000
0001
0010
0001
0000
,
1000
0000
0001
0100
0001
0000
1000
0010
1000
0000
0001
0010
0100
1000
0000
0001
,
1000
0100
1000
0000
0001
0100
0001
0000
1000
0010
1000
0000
0001
0010
0001
0000
,
0100
0000
0000
0010
0000
0000
0100
0000
0000
0000
0000
0000
0001
0000
0000
0010
0000
0000
0100
0000
0000
1000
0000
0000
0001
0000
0000
0000
0000
0000
1000
0000
0000
0000
0000
0000
0001
0000
0000
0000
1000
0000
0000
0000
0001
0000
0000
0000
,
1000
0100
1000
0000
0001
0100
0001
0000
1000
0010
1000
0000
0001
0010
0001
0000
,
1000
0000
0001
0100
0001
0000
1000
0010
1000
0000
0001
0100
0001
0010
0100
1000
,
0001
0100
0001
0000
1000
0100
1000
0000
0001
0010
0001
0000
1000
0010
0100
0001
,
0000
2001
0000
0000
3100
0010
0001
1000
0000
0001
0000
1000
0100
1000
0010
0100
,
0001
0000
1000
0000
0100
0000
1000
0000
0001
1000
0010
0000
0100
0001
0100
0000
,
0001
0000
1000
0000
0010
0000
1000
0000
0001
0010
0100
0000
1000
0000
1000
0000
,
0001
0100
0001
0000
1000
0100
1000
0000
0001
0010
0001
0000
1000
0010
1000
0000
,
0001
0000
1000
0100
1000
0000
0001
0100
0001
0000
1000
0100
0010
0001
0100
0010
,
1000
0000
0100
0000
1000
0000
0001
0000
1000
0010
0100
0000
0001
0100
0001
0000
,
1000
0000
0001
0000
0010
0000
0001
0000
1000
0010
0100
0000
0001
0000
0001
0000
,
1000
0100
1000
0000
0001
0100
0001
0000
1000
0010
1000
0000
0001
0010
0100
0000
,
2000
0000
0000
0000
0000
0000
0000
0000
3001
0100
0001
0100
0010
1000
0010
1000
,
0001
0010
0001
0000
1000
0000
0010
0000
1000
0100
0000
2000
0000
3010
0100
0001
,
1000
0100
1000
0000
0001
0000
1000
0000
0001
0010
0000
0002
0000
1003
0010
0100
,
0001
0010
0001
0000
1000
0000
0010
0000
0100
0001
0000
2000
0000
0000
3100
0000
,
0010
0001
0100
0010
1000
0000
0001
0010
0100
1000
0010
0000
1000
0001
0010
0001
,
1000
0010
1000
0000
0001
0000
0010
0000
0001
0100
0000
0002
0000
0013
0100
1000
,
0001
0100
0001
0000
1000
0000
0001
0000
1000
0010
0000
2000
0000
3001
0010
0100
,
1000
0010
1000
0000
0001
0000
0010
0000
0100
1000
0000
0002
0000
0000
0103
0000
,
0010
1000
0100
0010
0001
0000
1000
0010
0100
0001
0010
0000
0001
1000
0010
0000
,
1000
0000
0100
0000
0011
0000
0000
1000
0000
0011
0000
0001
1000
0000
1010
0000
,
0010
0000
0200
0000
0000
0310
0000
0010
1000
0000
1000
0002
0000
0000
0013
0000
,
0001
0000
0100
0000
1010
0000
0000
0001
0000
1010
0000
1000
0001
0000
0011
0000
,
0010
0100
1000
0010
0100
0001
0010
0100
1000
0010
0100
0001
1000
0100
0010
0000
,
0001
0000
1000
0000
0110
0000
0000
0001
0000
0110
0000
1000
0001
0000
0100
0010
,
1000
0100
1000
0010
0000
0100
0001
0000
1000
0100
0000
0010
0001
0000
1000
0010
,
0200
0000
0001
0000
0000
0001
0000
0000
1000
0000
0000
1000
0000
0000
0301
0000
,
1000
0000
0200
0000
0000
0001
0000
0000
0310
0100
1000
0000
0010
0100
0001
0000
,
1002
0000
1003
0000
0100
1000
0001
0100
,
0000
0001
1000
0010
0100
1000
0100
0010
,
1000
0000
1000
0000
0200
0000
0310
0002
,
0000
0000
0013
0000
0100
0000
1000
0001
1000
0000
0010
0000
0100
0000
0000
0000
,
1001
0000
0001
0000
0010
0001
1000
0010
,
0000
1000
0001
0010
0100
0001
0100
0010
,
0001
1000
0001
0000
0020
0000
0130
1000
,
0001
0100
0001
0000
1000
0100
1000
0000
0001
0100
0001
0000
1000
0001
1000
0001
,
1000
0010
1000
0000
0001
0000
0100
0000
0001
0010
0000
0002
0000
0103
0010
1000
,
0001
0010
0001
0000
1000
0000
0001
0000
1000
0100
0000
2000
0000
3001
0100
0010
,
1000
0100
1000
0000
0001
0000
0100
0000
0010
1000
0000
0002
0000
0000
0013
0000
,
0100
1000
0010
0100
0001
0000
1000
0100
0010
0001
0100
0000
0001
1000
0100
1000
,
0001
0100
0001
0000
1000
0000
0100
0000
1000
0010
0000
2000
0000
3100
0010
0001
,
1000
0010
1000
0000
0001
0000
1000
0000
0001
0100
0000
0002
0000
1003
0100
0010
,
0001
0100
0001
0000
1000
0000
0100
0000
0010
0001
0000
2000
0000
0000
3010
0000
,
0100
0001
0010
0100
1000
0000
0001
0100
0010
1000
0100
0000
1000
0001
0100
0000
,
0001
0000
0010
0000
1100
0000
0000
0001
0000
1100
0000
1000
0001
0000
0101
0000
,
0100
0000
0020
0000
0000
0130
0000
0100
0001
0000
0001
2000
0000
0000
3100
0000
,
1000
0000
0010
0000
0101
0000
0000
1000
0000
0101
0000
0001
1000
0000
1100
0000
,
0100
0010
0001
0100
0010
1000
0100
0010
0001
0100
0010
1000
0001
0010
0100
0000
,
1000
0000
0001
0000
0110
0000
0000
1000
0000
0110
0000
0001
1000
0000
0010
0100
,
0001
0010
0001
0100
0000
0010
1000
0000
0001
0010
0000
0100
1000
0000
0001
0100
,
0020
0000
1000
0000
0000
1000
0000
0000
0001
0000
0000
0001
0000
0000
1030
0000
,
0001
0000
0020
0000
0000
1000
0000
0000
0130
0010
0001
0000
0100
0010
1000
0000
,
1002
0000
0000
0003
,
0001
0100
0010
0000
1000
0100
0010
0000
0001
0100
0010
0000
1000
0100
0010
0000
,
0001
0010
0100
0000
1000
0010
0100
0000
0001
0010
0001
1000
0001
0010
0100
1000
,
0010
0000
0M10
0001
0010
0000
0M10
1000
0010
0000
0M10
0001
0010
0000
0001
1000
,
0100
0000
01M0
0001
0100
0000
01M0
1000
0100
0000
0100
0001
0100
0010
1000
0001
,
0100
0002
0010
1003
0100
2000
0010
3001
,
0100
0000
0002
0000
0010
0000
1003
0001
1000
0100
0010
0001
1000
0010
0100
0001
,
0010
0100
1000
0010
0000
0M10
0001
0010
0100
1000
0100
0000
0010
0001
0010
0100
,
1000
0001
1000
0100
0000
01M0
0001
0100
0010
1000
0001
0000
0010
0001
1000
0001
,
0100
0000
0000
1001
0000
0000
1100
0000
0000
0000
1001
0000
0101
0000
1001
0000
,
1100
0000
0000
1001
0000
0000
0101
0000
0000
0000
1001
0000
1100
0000
1001
0000
,
0220
0000
0000
0000
,
0330
0000
0000
0000
;

//---------------dance-single - [XMOD] XO+, DS, FS----------------
#NOTEDATA:;
#CHARTNAME:speed weed;
#STEPSTYPE:dance-single;
#DESCRIPTION:[XMOD] XO+, DS, FS;
#CHARTSTYLE:;
#DIFFICULTY:Challenge;
#METER:18;
#RADARVALUES:1.036450,1.300859,0.244028,0.628842,1.694120,773.000000,747.000000,26.000000,67.000000,0.000000,0.000000,0.000000,0.000000,188.000000,1.036450,1.300859,0.244028,0.628842,1.694120,773.000000,747.000000,26.000000,67.000000,0.000000,0.000000,0.000000,0.000000,188.000000;
#CREDIT:Scrypts;
#ATTACKS:TIME=0:LEN=5.81:MODS=*1 stealth:TIME=1.46:LEN=0.5:MODS=*0.5 50% stealth:TIME=2.79:LEN=0.5:MODS=*0.5 50% stealth:TIME=4.12:LEN=0.5:MODS=*0.5 50% stealth:TIME=5.82:LEN=5:MODS=*1.5 no stealth;
#DISPLAYBPM:165.000000;
#NOTES:
0000
0000
0000
0000
,
F000
0F00
0F00
000F
0F00
0F00
F000
00F0
00F0
000F
00F0
00F0
F000
000F
0F00
F000
,
0F00
000F
F000
0F00
000F
0F00
F000
00F0
0F00
00F0
00F0
000F
00F0
00F0
F000
0F00
,
00F0
000F
00F0
F000
00F0
000F
0F00
F000
0F00
000F
0F00
00F0
F000
0000
0000
0000
,
0000
0000
0000
0000
,
FF00
00FF
FF00
0F0F
F0F0
0F0F
F0F0
0F0F
FF00
00FF
F0F0
0F0F
F0F0
0F0F
F0F0
0F0F
,
FF00
0000
0000
0000
0000
0000
0000
0000
000F
0000
0000
0000
0F00
00F0
0F00
0000
000F
0000
F000
0000
0F00
0000
00F0
0000
F000
0000
000F
0000
0F00
0000
F000
0000
,
00FF
0F00
0F00
F0F0
0000
0000
000F
F000
00FF
0F00
0F00
F0F0
0F00
000F
0F00
F000
,
00FF
0F00
0F00
F0F0
0000
0000
0F00
0F00
00FF
0F00
0F00
F0F0
0000
0F00
F000
000F
,
FF00
00FF
FF00
0F0F
F0F0
0F0F
F0F0
0F0F
F0F0
0F0F
FF00
0F0F
F0F0
0F0F
FF00
0F0F
,
FF00
0000
0000
0000
,
F000
0F00
000F
00F0
F000
0000
F00F
0000
000F
00F0
F000
0F00
000F
0000
F00F
0000
,
F000
00F0
000F
0F00
F000
0000
F00F
0000
000F
0F00
F000
00F0
000F
0000
F00F
0000
,
0000
0000
0000
0000
,
0000
0000
0000
0000
,
0000
0000
0000
0000
,
1000
0100
1000
0001
0100
0001
1000
0010
1000
0001
0010
0001
0100
0010
0100
0000
,
0001
0010
0001
1000
0100
1000
0001
0100
0001
1000
0010
1000
0001
0010
0000
0010
,
0001
0100
0001
1000
0100
1000
0001
0010
0001
1000
0010
1000
0100
0010
0100
0000
,
1000
0000
0000
0010
0000
0000
0100
0000
0000
0001
0000
0000
0100
0000
0000
0010
0000
0000
1000
0000
0000
0001
0000
0000
0010
0000
0000
0000
0000
0000
0100
0000
0000
0000
0000
0000
1000
0000
0000
0000
0001
0000
0000
0000
1000
0000
0000
0000
,
0001
0100
0001
1000
0100
1000
0001
0010
0001
1000
0010
1000
0100
0010
0100
0000
,
1000
0010
0100
0001
1000
0100
0010
0001
1000
0010
0100
0010
1000
0100
0010
0001
,
1000
0100
1000
0001
0100
0001
1000
0010
1000
0001
0010
0001
1000
0010
0100
0001
,
0000
0021
0000
0000
0130
1000
0010
0100
0000
0100
0000
0001
0010
0100
1000
0010
,
0100
0000
0010
0000
2001
0000
0010
0000
3100
1000
0010
0000
1000
0100
0010
0001
,
0100
0000
0010
0000
1002
0000
0010
0000
0103
0001
0010
0000
0100
0000
1000
0000
,
0001
0100
0001
1000
0100
1000
0001
0010
0001
1000
0010
1000
0100
0010
0100
0000
,
1000
0010
0100
0001
1000
0100
0010
0001
1000
0010
0100
0001
0010
0100
1000
0010
,
0100
0000
0010
0000
1002
0000
0010
0000
0103
0001
0010
0000
0001
0100
0010
1000
,
0100
0000
0010
0000
2001
0000
0010
0000
3100
1000
0010
0000
0100
0000
0001
0000
,
1000
0100
1000
0001
0100
0001
1000
0010
1000
0001
0010
0001
0100
0010
0100
0000
,
0002
0000
0000
0000
0000
0000
0000
0000
1003
0100
0010
0001
1000
0100
0010
0001
,
1000
0010
0100
0000
0001
0000
1000
0000
0001
0010
0100
0002
0000
0103
0010
0001
,
1000
0010
0100
0000
0001
0000
1000
0000
0001
0100
0010
0002
0000
0013
0100
0001
,
1000
0000
0100
0000
0010
0000
0100
0000
1000
0010
0100
2000
0000
0000
3100
0000
,
0001
1000
0100
1000
0001
0000
0100
0000
0001
0010
0200
0000
0000
0310
1000
0010
,
0100
1000
0001
0000
0100
0000
0001
0000
1000
0010
0100
2000
0000
3100
0010
1000
,
0001
0010
0100
0000
1000
0000
0001
0000
1000
0100
0010
2000
0000
3010
0100
1000
,
0001
0000
0100
0000
0010
0000
0100
0000
0001
0010
0100
0002
0000
0000
0103
0000
,
1000
0001
0100
0001
1000
0000
0100
0000
1000
0010
0200
0000
0000
0301
1000
0000
,
1200
0000
0320
0000
0001
0000
0130
0020
0000
0001
0000
0130
0020
0000
0032
0000
,
0103
0000
0010
0000
1000
0010
0000
0100
0001
0000
0010
0200
0000
0000
1300
0000
,
0201
0000
0320
0000
1000
0000
0130
0020
0000
2030
0000
3100
0002
0000
0203
0000
,
1300
0100
0010
0001
0100
0010
1000
0100
0010
0100
1000
0010
0100
0010
1000
0000
,
1200
0000
0320
0000
0001
0000
0130
0020
0000
0032
0000
0103
2000
0000
3100
0001
,
0010
0100
0010
1000
0000
0010
0100
0000
0010
0001
0000
0100
0010
0000
1000
0010
,
2000
0000
0100
0000
0000
0001
0000
0000
0010
0000
0000
0001
0000
0000
0100
0000
,
3002
0000
0100
0000
0000
1000
0000
0000
0013
0100
1000
0010
0100
0001
1000
0000
,
1002
0000
1003
0000
0100
1000
0001
0100
,
0000
0001
1000
0010
0100
1000
0100
0010
,
1000
0000
1000
0000
0200
0000
0310
0002
,
0000
0000
0013
0000
0100
0000
1000
0001
1000
0000
0010
0000
0100
0000
0000
0000
,
1001
0000
0001
0000
0010
0001
1000
0010
,
0000
1000
0001
0010
0100
0001
0100
0010
,
0001
1000
0001
0000
0020
0000
0130
1000
,
0001
0010
0100
1000
0001
0100
0010
1000
0001
0010
0100
1000
0001
0100
0010
1000
,
0001
0010
0100
0000
1000
0000
0001
0000
1000
0010
0100
2000
0000
3100
0010
1000
,
0001
0010
0100
0000
1000
0000
0001
0000
1000
0100
0010
2000
0000
3010
0100
1000
,
0001
0000
0100
0000
0010
0000
0100
0000
0001
0010
0100
0002
0000
0000
0103
0000
,
1000
0001
0100
0001
1000
0000
0100
0000
1000
0010
0200
0000
0000
0310
0001
0010
,
0100
0001
1000
0000
0100
0000
1000
0000
0001
0010
0100
0002
0000
0103
0010
0001
,
1000
0010
0100
0000
0001
0000
1000
0000
0001
0100
0010
0002
0000
0013
0100
0001
,
1000
0000
0100
0000
0010
0000
0100
0000
1000
0010
0100
2000
0000
0000
3100
0000
,
0001
1000
0100
1000
0001
0000
0100
0000
0001
0010
0200
0000
0000
1300
0001
0000
,
0201
0000
0320
0000
1000
0000
0130
0020
0000
1000
0000
0130
0020
0000
2030
0000
,
3100
0000
0010
0000
0001
0010
0000
0100
1000
0000
0010
0200
0000
0000
0301
0000
,
1200
0000
0320
0000
0001
0000
0130
0020
0000
0032
0000
0103
2000
0000
3200
0000
,
0301
0100
0010
1000
0100
0010
0001
0100
0010
0100
0001
0010
0100
0010
0001
0000
,
0201
0000
0320
0000
1000
0000
0130
0020
0000
2030
0000
3100
0002
0000
0103
1000
,
0010
0100
0010
0001
0000
0010
0100
0000
0010
1000
0000
0100
0010
0000
0001
0010
,
0002
0000
0100
0000
0000
1000
0000
0000
0010
0000
0000
1000
0000
0000
0100
0000
,
2003
0000
0100
0000
0000
0001
0000
0000
3100
0010
0001
0100
0010
1000
0001
0000
,
1002
0000
0000
0003
,
1000
0100
1000
0010
0100
0001
0010
0001
1000
0100
1000
0010
0100
0001
0010
0001
,
1000
0010
1000
0100
0010
0001
0100
0001
1000
0010
1000
0100
0010
0001
0100
0001
,
1000
0010
1000
0100
0100
0001
1000
0100
0100
0001
1000
0100
0100
0001
1000
0001
,
0010
0001
1000
0010
0010
0001
1000
0010
0010
0001
1000
0010
0010
0001
1000
0010
,
0100
0001
1000
0001
0010
0001
1000
0000
0100
1000
0001
1000
0010
1000
0001
0000
,
0100
0001
1000
0001
0010
0001
1000
0001
0100
0010
1000
0100
0010
0010
1000
0001
,
1000
0100
0010
1000
0000
0010
0100
1000
0001
0100
0010
0001
0010
0100
0010
1000
,
0001
0010
0100
0001
0000
0100
0010
0001
1000
0100
0010
0001
1000
0010
0100
0001
,
0100
0000
0000
1001
0000
0000
1100
0000
0000
0000
1001
0000
0101
0000
1001
0000
,
1100
0000
0000
1001
0000
0000
0101
0000
0000
0000
1001
0000
1100
0000
1001
0000
,
0220
0000
0000
0000
,
0330
0000
0000
0000
;
