#VERSION:0.83;
#TITLE:RATATATA;
#SUBTITLE:;
#ARTIST:BABYMETAL & Electric Callboy;
#TITLETRANSLIT:;
#SUBTITLETRANSLIT:;
#ARTISTTRANSLIT:;
#GENRE:;
#ORIGIN:;
#CREDIT:;
#BANNER:;
#BACKGROUND:;
#PREVIEWVID:;
#JACKET:;
#CDIMAGE:;
#DISCIMAGE:;
#LYRICSPATH:;
#CDTITLE:;
#MUSIC:RATATATA.ogg;
#OFFSET:-0.161000;
#SAMPLESTART:48.099998;
#SAMPLELENGTH:13.285717;
#SELECTABLE:YES;
#BPMS:0.000=140.000;
#STOPS:;
#DELAYS:;
#WARPS:;
#TIMESIGNATURES:0.000=4=4;
#TICKCOUNTS:0.000=4;
#COMBOS:0.000=1;
#SPEEDS:0.000=1.000=0.000=0;
#SCROLLS:0.000=1.000;
#FAKES:;
#LABELS:0.000=Song Start;
#BGCHANGES:;
#KEYSOUNDS:;
#ATTACKS:
;

//---------------dance-single - ----------------
#NOTEDATA:;
#CHARTNAME:;
#STEPSTYPE:dance-single;
#DESCRIPTION:;
#CHARTSTYLE:;
#DIFFICULTY:Challenge;
#METER:14;
#RADARVALUES:0.701992,0.745454,0.597319,0.382284,0.553516,617.000000,542.000000,75.000000,48.000000,18.000000,0.000000,0.000000,0.000000,0.000000,0.701992,0.745454,0.597319,0.382284,0.553516,617.000000,542.000000,75.000000,48.000000,18.000000,0.000000,0.000000,0.000000,0.000000;
#CREDIT:nobarben;
#NOTES:
// measure 0
0000
0000
0000
0000
,  // measure 1
0000
0000
0000
0000
,  // measure 2
0000
0000
0000
0000
,  // measure 3
0000
0000
0000
0000
0000
0000
0001
0100
,  // measure 4
0010
0000
1000
0001
0010
0000
0110
0000
,  // measure 5
1000
1000
0001
0100
0000
0010
1000
0100
,  // measure 6
0010
0000
0001
1000
0010
0000
0110
0100
,  // measure 7
0001
0001
1000
0100
0000
0010
0100
1000
,  // measure 8
0002
0000
0203
0000
1300
1000
0100
0001
,  // measure 9
2000
0000
0000
3200
0000
0000
0302
0000
0000
0000
0103
0000
0010
0000
0100
0000
,  // measure 10
1000
0000
1100
0000
0001
0010
0011
0001
,  // measure 11
2000
0000
0000
3020
0000
0000
0032
0000
0000
0000
0013
0000
0100
0000
0010
0000
,  // measure 12
1000
0000
1100
0000
0100
0000
0110
0000
0011
0000
0000
1002
0000
0000
0013
0000
,  // measure 13
0001
0100
1000
0100
0001
2000
0100
0000
,  // measure 14
3001
0000
0101
0000
0100
0000
0110
0000
1010
0000
0000
2001
0000
0000
3010
0000
,  // measure 15
1000
0000
0100
0000
0001
0000
0100
0000
1000
0000
0010
0000
0100
0001
0100
0001
,  // measure 16
1000
0000
1100
0000
0100
0000
0110
0000
0011
0000
0000
1002
0000
0000
0103
0000
,  // measure 17
0001
0010
1000
0010
0001
2000
0010
0000
,  // measure 18
3001
0000
0101
0000
0100
0000
0110
0000
1010
0000
0000
2001
0000
0000
3100
0000
,  // measure 19
1000
0000
0010
0000
0001
0000
0010
0000
1000
0000
0100
0000
0010
0001
0010
0002
,  // measure 20
2000
0000
0000
0000
0000
0000
0000
3003
,  // measure 21
2020
0000
0000
0000
0000
0000
0000
3030
,  // measure 22
0220
0000
0000
0000
0000
0000
0000
0330
,  // measure 23
0202
0000
0000
0000
0300
0000
0000
0000
1003
0001
0010
0001
1000
0000
0001
0100
,  // measure 24
0010
0000
0000
1000
0010
0000
1000
0000
0100
0000
0000
0000
1100
0000
0100
0000
,  // measure 25
0010
0000
0000
0001
0010
0000
0001
0000
0100
0000
0000
0000
0101
0000
0100
0000
,  // measure 26
0010
0000
0000
1000
0001
0000
0010
0000
0100
0000
0000
0000
0110
0000
0010
0000
,  // measure 27
0001
0101
1000
1100
1001
0110
1001
1001
,  // measure 28
1000
0000
0001
0010
0000
0100
0020
0000
0001
0000
0000
0000
0130
0000
0110
0000
,  // measure 29
1000
0000
0001
0100
0000
0010
1000
0000
0100
1000
0100
00M0
0100
0001
0100
0000
,  // measure 30
0001
0000
1000
0100
0000
0010
0200
0000
1000
0000
0000
0000
0310
0000
0110
0000
,  // measure 31
0001
0000
1000
0010
0000
0100
0010
0000
0100
0001
0100
00M0
0100
1000
0100
0000
,  // measure 32
1000
0000
0001
0100
0000
0010
0200
0000
0001
0000
0000
0000
0310
0000
0110
0000
,  // measure 33
1000
0000
0001
0010
0000
0100
1000
0000
0010
1000
0010
0M00
0010
0001
0010
0000
,  // measure 34
0001
0000
1000
0010
0000
0100
0020
0000
1000
0000
0000
0000
0130
0000
0110
0000
,  // measure 35
0001
0000
1000
0100
0000
0010
0100
0000
0010
0001
1000
0001
0100
0000
0010
0000
,  // measure 36
1001
0000
0000
0000
0001
0010
0000
0010
0100
0000
0100
1000
0000
1000
0010
0000
,  // measure 37
1001
0000
0000
0000
1000
0010
0000
0010
0100
0000
1000
0100
0000
0001
0100
0000
,  // measure 38
1001
0000
0000
0000
1000
0100
0000
0100
0010
0000
0010
0001
0000
0001
0100
0000
,  // measure 39
1001
0000
0000
0000
0001
0100
0001
0100
0010
0000
0001
0010
0000
1000
0010
0000
,  // measure 40
2000
0000
0000
3001
0010
0000
0100
0000
0110
0000
0000
0000
0100
1000
0100
1000
,  // measure 41
0002
0000
0000
1003
0010
0000
0100
0000
0110
0000
0000
0000
0001
0100
0010
1000
,  // measure 42
0002
0000
0000
1003
0100
0000
0010
0000
0110
0000
0000
0000
0010
0001
0010
0001
,  // measure 43
2000
0000
0000
3001
0100
0000
0010
0000
0110
0000
0001
0000
0101
0000
1000
0000
,  // measure 44
0010
0M00
0011
0000
0010
0M00
1010
0000
1001
0000
0000
0021
0000
0000
0130
0000
,  // measure 45
1000
0010
0001
0010
1000
0002
0100
0000
,  // measure 46
0013
0M00
1010
0000
0010
0M00
0011
0000
1001
0000
0000
1020
0000
0000
0130
0000
,  // measure 47
0001
0000
0010
0000
1000
0000
0010
0000
0001
0000
0100
0000
0010
1000
0010
1000
,  // measure 48
0100
00M0
0101
0000
0100
00M0
1100
0000
1001
0000
0000
0201
0000
0000
0310
0000
,  // measure 49
1000
0100
0001
0100
1000
0002
0010
0000
,  // measure 50
0103
00M0
1100
0000
0100
00M0
0101
0000
1001
0000
0000
1200
0000
0000
0310
0000
,  // measure 51
0001
0000
0100
0000
0010
1000
0010
1000
0002
0000
0000
0000
0003
0000
0000
0000
,  // measure 52
0021
0000
0130
1000
0001
0010
1000
0010
,  // measure 53
0001
0100
00M0
0100
1000
0000
0001
0000
0100
0000
1000
0000
0100
0000
0001
0000
,  // measure 54
1000
0100
00M0
0100
0001
0000
1000
0000
0001
0010
0M00
0010
1000
0000
0001
0000
,  // measure 55
0020
0000
0200
0000
0000
0000
0300
0000
0031
0100
0010
1000
0001
1000
0001
1000
,  // measure 56
0002
0000
0103
0001
1000
0010
0001
0010
,  // measure 57
1000
0100
00M0
0100
0001
0000
1000
0000
0001
0000
0010
0000
1000
0000
0010
0000
,  // measure 58
0011
0000
0000
0000
1100
0000
0000
0000
0201
0000
0000
0310
1000
0000
0001
0000
,  // measure 59
0010
1000
0010
0011
1001
0110
1001
1001
,  // measure 60
0001
0000
1000
0010
0000
0100
0020
0000
0001
0000
0000
0000
0130
0001
0010
0000
,  // measure 61
0001
0000
1000
0100
0000
0010
0001
0000
0100
0001
0100
00M0
0100
1000
0100
0000
,  // measure 62
1000
0000
0001
0100
0000
0010
0200
0000
1000
0000
0000
0000
0310
1000
0100
0000
,  // measure 63
1000
0000
0001
0010
0000
0100
0010
0000
0100
1000
0100
00M0
0100
0001
0100
0000
,  // measure 64
0001
0000
1000
0100
0000
0010
0200
0000
0001
0000
0000
0000
0310
0001
0100
0000
,  // measure 65
0001
0000
1000
0010
0000
0100
0001
0000
0010
0001
0010
0M00
0010
1000
0010
0000
,  // measure 66
1000
0000
0001
0010
0000
0100
0020
0000
1000
0000
0000
0000
0130
1000
0010
0000
,  // measure 67
1000
0000
0001
0100
0000
0010
0100
0000
0010
1000
0001
1000
0100
0010
0100
0010
,  // measure 68
0001
0000
1000
0010
0000
0100
0010
0000
1000
0001
1000
0000
0100
1000
0001
0010
,  // measure 69
0100
1000
1010
0001
0010
0100
0110
0000
,  // measure 70
0010
0001
0101
1000
0010
0100
0110
1000
,  // measure 71
0001
0100
0000
0000
1000
0100
0000
0000
0010
0100
0000
0000
2002
0000
0000
0000
,  // measure 72
3003
0000
0000
0000
;

//---------------dance-single - ----------------
#NOTEDATA:;
#CHARTNAME:;
#STEPSTYPE:dance-single;
#DESCRIPTION:;
#CHARTSTYLE:;
#DIFFICULTY:Hard;
#METER:12;
#RADARVALUES:0.522228,0.544755,0.461927,0.270785,0.183178,459.000000,401.000000,58.000000,34.000000,0.000000,0.000000,0.000000,0.000000,0.000000,0.522228,0.544755,0.461927,0.270785,0.183178,459.000000,401.000000,58.000000,34.000000,0.000000,0.000000,0.000000,0.000000,0.000000;
#CREDIT:nobarben;
#NOTES:
// measure 0
0000
0000
0000
0000
,  // measure 1
0000
0000
0000
0000
,  // measure 2
0000
0000
0000
0000
,  // measure 3
0000
0000
0000
0000
0000
0000
1000
0100
,  // measure 4
1000
0000
0001
0100
0001
0000
0101
0000
,  // measure 5
1000
0001
1000
0200
0000
0310
0001
0010
,  // measure 6
0001
0000
1000
0010
1000
0000
1010
0000
,  // measure 7
0001
1000
0001
0020
0000
0130
1000
0001
,  // measure 8
0200
0000
0320
0000
1030
0100
0010
0001
,  // measure 9
1000
0000
0000
0010
0000
0000
0100
0000
0000
0000
0010
0000
0100
0000
0010
0000
,  // measure 10
1000
0000
1100
0000
0001
0010
0011
1000
,  // measure 11
0001
0000
0000
0100
0000
0000
0010
0000
0000
0000
1000
0000
0001
0000
1000
0000
,  // measure 12
0001
0000
0001
0000
1000
0000
1000
0000
0010
0000
0000
0110
0000
0000
0100
0000
,  // measure 13
0001
0010
0100
0010
0001
1000
0010
0000
,  // measure 14
1000
0000
1000
0000
0001
0000
0001
0000
0010
0000
0000
0110
0000
0000
0100
0000
,  // measure 15
1000
0010
0100
0010
2000
0000
3001
0010
,  // measure 16
0100
0000
0100
0000
1000
0000
1000
0000
0010
0000
0000
0110
0000
0000
0100
0000
,  // measure 17
0001
0010
0100
0010
0001
1000
0010
0000
,  // measure 18
0100
0000
0100
0000
0001
0000
0001
0000
0010
0000
0000
0110
0000
0000
0100
0000
,  // measure 19
1000
0010
0100
0010
1000
0001
0010
0100
,  // measure 20
0220
0000
0000
0330
,  // measure 21
2200
0000
0000
3300
,  // measure 22
2002
0000
0000
3003
,  // measure 23
0201
0000
0000
0000
0301
0010
0100
1000
,  // measure 24
0001
0000
0000
0100
0001
0000
0100
0000
0010
0000
0000
0000
1010
0000
0000
0000
,  // measure 25
1000
0000
0000
0100
1000
0000
0100
0000
0010
0000
0000
0000
0011
0000
0000
0000
,  // measure 26
1000
0000
0000
0010
0100
0000
0001
0000
1000
0000
0000
0000
1100
0000
0000
0000
,  // measure 27
0001
0001
1000
0010
0010
0100
0010
0010
,  // measure 28
1000
0000
0000
0100
0000
0000
1200
0000
0000
0000
0000
0000
1300
0000
0001
0000
,  // measure 29
0010
0000
0000
0001
0000
0000
0020
0000
0100
0000
0000
0000
0031
0000
0000
0000
,  // measure 30
0001
0000
0000
0100
0000
0000
0201
0000
0000
0000
0000
0000
0301
0000
1000
0000
,  // measure 31
0010
0000
0000
1000
0000
0000
0020
0000
0100
0000
0000
0000
1030
0000
0000
0000
,  // measure 32
0001
0000
0000
0010
0000
0000
0210
0000
0000
0000
0000
0000
1300
0000
0001
0000
,  // measure 33
0100
0000
0000
0010
0000
0000
2000
0000
0100
0000
0000
0000
3001
0000
0000
0000
,  // measure 34
1000
0000
0000
0010
0000
0000
0210
0000
0000
0000
0000
0000
0301
0000
1000
0000
,  // measure 35
0100
0000
0000
0010
0000
0000
0001
0000
0000
1000
0000
0000
1010
0000
0000
0000
,  // measure 36
1001
0000
0001
0010
0100
1000
0010
0000
,  // measure 37
1001
0000
1000
0001
0100
0010
1000
0000
,  // measure 38
1001
0000
1000
0100
0010
0001
0100
0000
,  // measure 39
1001
0000
0001
1000
0010
0100
0001
0000
,  // measure 40
1000
0000
0000
0100
0000
0000
0010
0000
0110
0000
0000
0000
1000
0001
1000
0000
,  // measure 41
0001
0000
0000
0100
0000
0000
0010
0000
1010
0000
0000
0000
0001
0010
0100
0000
,  // measure 42
1000
0000
0000
0010
0000
0000
0100
0000
0110
0000
0000
0000
1000
0001
1000
0000
,  // measure 43
0001
0000
0000
0010
0000
0000
0100
0000
1100
0000
0000
0000
0101
0000
0000
0000
,  // measure 44
1000
0000
1000
0000
0100
0000
0100
0000
0110
0000
0000
0011
0000
0000
0001
0000
,  // measure 45
1000
0010
0100
0010
0001
0010
0100
0000
,  // measure 46
0001
0000
0001
0000
0010
0000
0010
0000
0110
0000
0000
1100
0000
0000
1000
0000
,  // measure 47
0001
0100
0010
0100
1000
0100
0010
0000
,  // measure 48
0100
0000
0100
0000
0001
0000
0001
0000
0011
0000
0000
1001
0000
0000
0001
0000
,  // measure 49
1000
0010
0001
0010
0100
0010
1000
0000
,  // measure 50
0100
0000
0100
0000
1000
0000
1000
0000
1010
0000
0000
1001
0000
0000
1000
0000
,  // measure 51
0001
0010
1000
0010
0200
0000
0300
0000
,  // measure 52
2000
0000
3001
1000
0010
0001
0010
0100
,  // measure 53
0001
0000
0000
0001
0000
0000
0010
0000
1000
0000
0010
0000
0100
0000
1000
0000
,  // measure 54
0001
0000
0000
0001
0000
0000
0100
0000
0010
0000
0000
1000
0000
0000
0001
0000
,  // measure 55
0020
0000
0030
0000
0001
0100
0010
1000
,  // measure 56
0002
0000
1003
0001
0010
1000
0010
0100
,  // measure 57
1000
0000
0000
1000
0000
0000
0010
0000
0001
0000
0010
0000
0100
0000
0001
0000
,  // measure 58
1000
0000
0000
0000
1100
0000
0000
0000
1000
0000
0000
1000
0000
0000
0002
0000
,  // measure 59
0100
0000
1003
0100
0100
0010
0100
0100
,  // measure 60
1000
0000
0000
0010
0000
0000
0210
0000
0000
0000
0000
0000
0301
0000
1000
0000
,  // measure 61
0100
0000
0000
0010
0000
0000
0200
0000
0001
0000
0000
0000
1300
0000
0000
0000
,  // measure 62
0001
0000
0000
0010
0000
0000
0210
0000
0000
0000
0000
0000
1300
0000
0001
0000
,  // measure 63
0100
0000
0000
0010
0000
0000
0200
0000
1000
0000
0000
0000
0301
0000
0000
0000
,  // measure 64
1000
0000
0000
1010
0000
0000
0210
0000
0000
0000
0000
0000
1300
0000
0100
0000
,  // measure 65
0001
0000
0000
0011
0000
0000
0120
0000
1000
0000
0000
0000
0031
0000
0000
0000
,  // measure 66
0001
0000
0000
0101
0000
0000
0120
0000
0000
0000
0000
0000
0031
0000
0010
0000
,  // measure 67
1000
0000
0000
1100
0000
0000
1001
0000
0000
0110
0000
0000
1001
0000
0000
0000
,  // measure 68
1000
0000
0001
0100
0000
0010
1000
0000
0002
0000
0000
0000
1003
0100
1000
0000
,  // measure 69
0001
0010
0110
0000
1000
0001
0101
0000
,  // measure 70
1000
0100
0110
0000
0001
1000
1100
0000
,  // measure 71
0101
1010
0011
0220
,  // measure 72
0330
0000
0000
0000
;

//---------------dance-single - ----------------
#NOTEDATA:;
#CHARTNAME:;
#STEPSTYPE:dance-single;
#DESCRIPTION:;
#CHARTSTYLE:;
#DIFFICULTY:Medium;
#METER:10;
#RADARVALUES:0.453963,0.458741,0.310606,0.167249,0.095571,399.000000,360.000000,39.000000,21.000000,0.000000,0.000000,0.000000,0.000000,0.000000,0.453963,0.458741,0.310606,0.167249,0.095571,399.000000,360.000000,39.000000,21.000000,0.000000,0.000000,0.000000,0.000000,0.000000;
#CREDIT:nobarben;
#NOTES:
// measure 0
0000
0000
0000
0000
,  // measure 1
0000
0000
0000
0000
,  // measure 2
0000
0000
0000
0000
,  // measure 3
0000
0000
0000
0000
,  // measure 4
1000
1100
0001
0101
,  // measure 5
1000
0001
0100
0010
0000
1000
1000
0000
,  // measure 6
0001
0011
1000
1010
,  // measure 7
0001
1000
0100
0010
0000
0001
0001
0000
,  // measure 8
2000
0000
3020
0000
0130
0001
1000
0000
,  // measure 9
0001
0000
0000
0001
0000
0000
0020
0000
0000
0000
0130
0000
0100
0000
0000
0000
,  // measure 10
1100
1001
0101
1001
,  // measure 11
1000
0000
0000
1000
0000
0000
0200
0000
0000
0000
0310
0000
0010
0000
0000
0000
,  // measure 12
0001
0000
1000
0000
0001
0000
1000
0000
0010
0000
0000
0010
0000
0000
0000
0000
,  // measure 13
1000
0001
0010
0000
0001
0100
0010
0000
,  // measure 14
1000
0000
0001
0000
1000
0000
0001
0000
0010
0000
0000
0010
0000
0000
0000
0000
,  // measure 15
0001
1000
1100
0000
1010
0000
0110
0000
,  // measure 16
0001
0000
0010
0000
0001
0000
0010
0000
0100
0000
0000
0100
0000
0000
0000
0000
,  // measure 17
1000
0100
0001
0000
0100
1000
0001
0000
,  // measure 18
1000
0000
0010
0000
1000
0000
0010
0000
0100
0000
0000
0100
0000
0000
0000
0000
,  // measure 19
0001
0010
0110
0000
1100
0000
1000
0001
,  // measure 20
2002
0000
0000
3003
,  // measure 21
0202
0000
0000
0303
,  // measure 22
0220
0000
0000
0330
,  // measure 23
2010
0000
0000
0000
3001
0010
0100
1000
,  // measure 24
0001
0000
0001
0000
0100
0010
1000
0000
,  // measure 25
0001
0000
0000
0001
0000
0000
1000
0000
0100
0000
0010
0000
0100
0000
0000
0000
,  // measure 26
0110
0011
1001
1010
,  // measure 27
0001
0001
1000
1000
0001
0002
0000
0003
,  // measure 28
1000
0010
0100
0000
0001
1000
0100
0000
,  // measure 29
0010
0001
1000
0000
0001
0100
0010
0100
,  // measure 30
0001
0010
0100
0000
1000
0001
0100
0000
,  // measure 31
0010
1000
0100
0000
1000
0100
0010
0100
,  // measure 32
1000
0001
0010
0000
0100
0010
0001
0000
,  // measure 33
1000
0010
0100
0000
0001
1000
0100
1000
,  // measure 34
0001
1000
0010
0000
0100
0010
1000
0000
,  // measure 35
0001
0000
0000
0010
0000
0000
0100
0000
0000
1000
0000
0000
1001
0000
0000
0000
,  // measure 36
0101
0000
0100
0000
0010
1000
0001
0000
,  // measure 37
1001
0000
0001
0000
0010
0100
1000
0000
,  // measure 38
1100
0000
0100
0000
0010
0001
1000
0000
,  // measure 39
1010
0000
0010
0000
0100
0001
1000
0000
,  // measure 40
0001
0000
0000
0001
0000
0000
0010
0000
0100
0000
0000
0000
2000
0000
0000
0000
,  // measure 41
3001
0000
0000
0100
0000
0000
0001
0000
0010
0000
0000
0000
0200
0000
0000
0000
,  // measure 42
1300
0000
0000
1000
0000
0000
0010
0000
0100
0000
0000
0000
0002
0000
0000
0000
,  // measure 43
1003
0000
0000
0100
0000
0000
1000
0000
0010
0000
0000
0000
0110
0000
0000
0000
,  // measure 44
0001
0000
0010
0000
0100
0000
1000
0000
0001
0000
0000
1001
0000
0000
0000
0000
,  // measure 45
0001
0100
1000
0000
1000
0100
0001
0000
,  // measure 46
1000
0000
0100
0000
0010
0000
0001
0000
1000
0000
0000
1001
0000
0000
0000
0000
,  // measure 47
1000
0100
0001
0000
0001
0100
1000
0000
,  // measure 48
0001
0000
0100
0000
0010
0000
1000
0000
0001
0000
0000
1001
0000
0000
0000
0000
,  // measure 49
0001
0010
1000
0000
1000
0010
0001
0000
,  // measure 50
1000
0000
0010
0000
0100
0000
0001
0000
1000
0000
0000
1001
0000
0000
0000
0000
,  // measure 51
1000
0010
0001
0010
2000
0000
3000
0000
,  // measure 52
0002
0000
0103
0000
0001
1000
0100
0000
,  // measure 53
0010
0000
0000
0010
0000
0000
0001
0000
1000
0000
0000
0000
0001
0000
0000
0000
,  // measure 54
0100
0000
0000
0100
0000
0000
0010
0000
1000
0000
0000
0001
0000
0000
0010
0000
,  // measure 55
0200
0000
0300
0000
1000
0100
0010
0000
,  // measure 56
0011
0000
0001
0000
1000
0010
0100
0000
,  // measure 57
0001
0000
0000
0001
0000
0000
1000
0000
0001
0000
1000
0000
0100
0000
0000
0000
,  // measure 58
0010
0000
0000
0000
0011
0000
0000
0000
1000
0000
0000
0001
0000
0000
0200
0000
,  // measure 59
0000
0000
0010
0310
,  // measure 60
1000
0100
0010
0000
0001
1000
0010
0000
,  // measure 61
0100
0001
1000
0000
0001
0010
0100
0010
,  // measure 62
0001
0100
0010
0000
1000
0001
0010
0000
,  // measure 63
0100
1000
0010
0000
1000
0010
0100
0010
,  // measure 64
1000
0001
0100
0000
0010
0100
0001
0000
,  // measure 65
1000
0100
0010
0000
0001
1000
0010
1000
,  // measure 66
0001
1000
0100
0000
0010
0100
1000
0000
,  // measure 67
0001
0000
0000
0100
0000
0000
0010
0000
0000
1000
0000
0000
1001
0000
0000
0000
,  // measure 68
1000
1000
1000
1001
,  // measure 69
0001
0010
0001
0000
1000
0010
1000
0000
,  // measure 70
0001
0100
0001
0000
1000
0100
1000
0000
,  // measure 71
1001
0110
1001
0220
,  // measure 72
0330
0000
0000
0000
;

//---------------dance-double - ----------------
#NOTEDATA:;
#CHARTNAME:;
#STEPSTYPE:dance-double;
#DESCRIPTION:;
#CHARTSTYLE:;
#DIFFICULTY:Challenge;
#METER:14;
#RADARVALUES:0.687202,0.745454,0.493784,0.485820,0.553516,604.000000,542.000000,62.000000,61.000000,18.000000,0.000000,0.000000,0.000000,0.000000,0.687202,0.745454,0.493784,0.485820,0.553516,604.000000,542.000000,62.000000,61.000000,18.000000,0.000000,0.000000,0.000000,0.000000;
#CREDIT:nobarben;
#NOTES:
00000000
00000000
00000000
00000000
,
00000000
00000000
00000000
00000000
,
00000000
00000000
00000000
00000000
,
00000000
00000000
00000000
00000000
00000000
00000000
10000000
01000000
,
00010000
00000000
00001000
00000010
00000001
00000000
00001001
00000000
,
00001000
00000001
00000100
00000010
00000000
00000100
00000001
00000010
,
00001000
00000000
00010000
01000000
10000000
00000000
10010000
10000000
,
00010000
10000000
00100000
01000000
00000000
00100000
10000000
01000000
,
00020000
00000000
00032000
00000000
00003100
00000001
00000010
00000100
,
00000020
00000000
00000000
00002030
00000000
00000000
00023000
00000000
00000000
00000000
01030000
00000000
10000000
00000000
00100000
00000000
,
00010000
00000000
00011000
00000000
00001000
00000100
00000001
00000010
,
00002000
00000000
00000000
00023000
00000000
00000000
02030000
00000000
00000000
00000000
13000000
00000000
00010000
00000000
10000000
00000000
,
00100000
00000000
01100000
00000000
01000000
00000000
01010000
00000000
01001000
00000000
00000000
00021000
00000000
00000000
01030000
00000000
,
10000000
01000000
00010000
00000100
00000010
00000001
00002000
00000000
,
00003010
00000000
00000110
00000000
00000010
00000000
00001010
00000000
00010010
00000000
00000000
00012000
00000000
00000000
00003100
00000000
,
00000001
00000000
00000100
00000000
00001000
00000000
01000000
00000000
00100000
00000000
10000000
00000000
00010000
10000000
00010000
10000000
,
01000000
00000000
01100000
00000000
00100000
00000000
00110000
00000000
00101000
00000000
00000000
00021000
00000000
00000000
00130000
00000000
,
10000000
00100000
00010000
00000010
00000100
00000001
00002000
00000000
,
00003100
00000000
00000110
00000000
00000100
00000000
00001100
00000000
00010100
00000000
00000000
00012000
00000000
00000000
00003010
00000000
,
00000001
00000000
00000010
00000000
00001000
00000000
00100000
00000000
01000000
00000000
10000000
00000000
00010000
10000000
00010000
20000000
,
00200000
00000000
00000000
00000000
00000000
00000000
00000000
30300000
,
02020000
00000000
00000000
00000000
00000000
00000000
00000000
03030000
,
00022000
00000000
00000000
00000000
00000000
00000000
00000000
00033000
,
00002200
00000000
00000000
00000000
00000300
00000000
00000000
00000000
00003001
00000100
00000010
00000100
00000001
00000000
00001000
00000010
,
00000100
00000000
00000000
00000010
00001000
00000000
00000100
00000000
00010000
00000000
00000000
00000000
00011000
00000000
00010000
00000000
,
01000000
00000000
00000000
00100000
00010000
00000000
01000000
00000000
00001000
00000000
00000000
00000000
00011000
00000000
00001000
00000000
,
00000100
00000000
00000000
00000010
00001000
00000000
00000100
00000000
00010000
00000000
00000000
00000000
00011000
00000000
00001000
00000000
,
02000000
03000000
00020000
00030000
00000200
00000300
00002000
00003000
00020000
00030000
02000000
03000000
00020000
00030000
00002000
00003000
,
00000100
00000000
00000010
00001000
00000000
00000010
00020000
00000000
00001000
00000000
00000000
00000000
01030000
00000000
01100000
00000000
,
10000000
00000000
00010000
01000000
00000000
00100000
01000000
00000000
00010000
00100000
00010000
0M000000
00010000
00001000
00010000
00000000
,
01000000
00000000
00100000
00010000
00000000
00100000
00002000
00000000
00010000
00000000
00000000
00000000
00003100
00000000
00000110
00000000
,
00000001
00000000
00001000
00000100
00000000
00000010
00000100
00000000
00001000
00000010
00001000
00000M00
00001000
00010000
00001000
00000000
,
00000010
00000000
00000100
00001000
00000000
00000100
00020000
00000000
00001000
00000000
00000000
00000000
00130000
00000000
01100000
00000000
,
10000000
00000000
00010000
00100000
00000000
01000000
00100000
00000000
00010000
01000000
00010000
00M00000
00010000
00001000
00010000
00000000
,
00100000
00000000
01000000
00010000
00000000
01000000
00002000
00000000
00010000
00000000
00000000
00000000
00003010
00000000
00000110
00000000
,
00000001
00000000
00001000
00000010
00000000
00000100
00000010
00000000
00001000
00000100
00000010
00000001
00001000
00000000
00000010
00000000
,
00001010
00000000
00000000
00000000
00001000
00000010
00000000
00000010
00010000
00000000
00010000
00001000
00000000
00001000
00100000
00000000
,
00101000
00000000
00000000
00000000
00100000
00001000
00000000
00001000
00010000
00000000
00000100
00001000
00000000
00001000
00000010
00000000
,
00001010
00000000
00000000
00000000
00001000
00000010
00000000
00000010
00010000
00000000
00010000
00001000
00000000
00001000
00100000
00000000
,
00110000
00000000
00000000
00000000
00100000
00001000
00100000
00001000
00010000
00000000
00000100
00001000
00000000
00001000
00000010
00000000
,
00000200
00000000
00000000
00000301
00000010
00000000
00000100
00000000
00001100
00000000
00000000
00000000
00010000
00001000
00010000
00001000
,
02000000
00000000
00000000
03100000
10000000
00000000
01000000
00000000
01100000
00000000
00000000
00000000
00010000
00100000
01000000
10000000
,
00200000
00000000
00000000
01300000
00010000
00000000
00100000
00000000
00110000
00000000
00000000
00000000
00001000
00010000
00001000
00010000
,
00000200
00000000
00000000
00000310
00000001
00000000
00000100
00000000
00000110
00000000
00001000
00000000
00001100
00000000
00010000
00000000
,
00001000
000M0000
00001100
00000000
00001000
000000M0
00011000
00000000
00010010
00000000
00000000
00001200
00000000
00000000
00000310
00000000
,
00000001
00000100
00001000
01000000
10000000
01000000
00002000
00000000
,
00013000
00M00000
01010000
00000000
00010000
00M00000
00011000
00000000
00101000
00000000
00000000
02010000
00000000
00000000
03100000
00000000
,
10000000
00000000
01000000
00000000
00010000
00000000
00000100
00000000
00000001
00000000
00000100
00000000
00001000
00000100
00001000
00000100
,
00010000
0000M000
00110000
00000000
00010000
0M000000
00011000
00000000
01001000
00000000
00000000
00210000
00000000
00000000
01300000
00000000
,
10000000
00100000
00010000
00000010
00000001
00000010
00020000
00000000
,
00031000
00000M00
00001010
00000000
00001000
00000M00
00011000
00000000
00010100
00000000
00000000
00001020
00000000
00000000
00000130
00000000
,
00000001
00000000
00000010
00000000
00001000
00100000
00001000
00100000
00020000
00000000
00000000
00000000
00030000
00000000
00000000
00000000
,
20000000
00000000
30100000
00010000
00001000
00010000
01000000
00010000
,
00000100
00001000
000000M0
00001000
00010000
00000000
00001000
00000000
00010000
00000000
00001000
00000000
00000100
00000000
00001000
00000000
,
01000000
00010000
00M00000
00010000
00001000
00000000
00010000
00000000
00000100
00001000
000000M0
00001000
00010000
00000000
00000100
00000000
,
00000020
00000000
00000200
00000000
00000000
00000000
00000300
00000000
00000031
00000100
00000010
00001000
00000001
00001000
00000001
00001000
,
00000002
00000000
00000013
00001000
00010000
00001000
00000100
00001000
,
01000000
00010000
00M00000
00010000
00001000
00000000
00010000
00000000
00001000
00000000
00010000
00000000
01000000
00000000
00010000
00000000
,
00010100
00000000
00000000
00000000
01001000
00000000
00000000
00000000
00020010
00000000
00000000
00031000
00100000
00000000
00100000
00000000
,
00001000
00000000
00010000
00000000
00000100
00000000
00020000
00030000
00002000
00003000
00000020
00000030
00002000
00003000
00020000
00030000
,
00100000
00000000
01000000
00010000
00000000
01000000
00002000
00000000
00010000
00000000
00000000
00000000
00003010
00000100
00001000
00000000
,
00000001
00000000
00001000
00000010
00000000
00000100
00000010
00000000
00001000
00000100
00001000
000000M0
00001000
00010000
00001000
00000000
,
00000010
00000000
00000100
00001000
00000000
00000100
00020000
00000000
00001000
00000000
00000000
00000000
00130000
01000000
00010000
00000000
,
10000000
00000000
00010000
00100000
00000000
01000000
00100000
00000000
00010000
01000000
00010000
00M00000
00010000
00001000
00010000
00000000
,
01000000
00000000
00100000
00010000
00000000
00100000
00002000
00000000
00010000
00000000
00000000
00000000
00003100
00000010
00001000
00000000
,
00000001
00000000
00001000
00000100
00000000
00000010
00000100
00000000
00001000
00000010
00001000
00000M00
00001000
00010000
00001000
00000000
,
00000100
00000000
00000010
00001000
00000000
00000010
00020000
00000000
00001000
00000000
00000000
00000000
01030000
00100000
00010000
00000000
,
10000000
00000000
00010000
01000000
00000000
00100000
01000000
00000000
00010000
00100000
01000000
10000000
00010000
10000000
00100000
10000000
,
00010000
00000000
10000000
01000000
00000000
00010000
01000000
00000000
00100000
00010000
00100000
00000000
00001000
00010000
00001000
00010000
,
00000100
00000010
00000110
00000001
00001000
00000010
00010010
00000000
,
00001000
01000000
01100000
10000000
00010000
00100000
00110000
10000000
,
01000000
00100000
00000000
00000000
00001000
00010000
00000000
00000000
00000100
00000010
00000000
00000000
00002002
00000000
00000000
00000000
,
00003003
00000000
00000000
00000000
;
