#VERSION:0.83;
#TITLE:RATATATA;
#SUBTITLE:;
#ARTIST:BABYMETAL x Electric Callboy;
#TITLETRANSLIT:;
#SUBTITLETRANSLIT:;
#ARTISTTRANSLIT:;
#GENRE:;
#CREDIT:;
#MUSIC:RATATATA.ogg;
#BANNER:RATATATA.png;
#BACKGROUND:RATATATA-bg.png;
#CDTITLE:;
#SAMPLESTART:55.316;
#SAMPLELENGTH:9.857;
#SELECTABLE:YES;
#OFFSET:-0.459;
#BPMS:0.000=140.000;
#STOPS:;
#BGCHANGES:-1.071=RATATATA.avi=1.000=1=0=0=StretchNoLoop==CrossFade==;
#FGCHANGES:;

//--------------- dance-single - ----------------
#NOTEDATA:;
#STEPSTYPE:dance-single;
#DESCRIPTION:;
#DIFFICULTY:Beginner;
#METER:3;
#RADARVALUES:0,0,0,0,0;
#CREDIT:Kikoia;
#NOTES:
0000
0000
0000
0000
,
0000
0000
0000
0000
,
0000
0000
0000
0000
,
0000
0000
0000
0000
,
1000
0000
0000
0000
,
1000
0000
0000
0000
,
0001
0000
0000
0000
,
0001
0000
0000
0000
,
0010
0000
0010
0000
,
0100
0000
0000
0000
,
0001
0000
0001
0000
,
1000
0000
1000
0000
,
0010
0010
0010
0000
,
1000
0000
0001
0000
,
0010
0010
0010
0000
,
0001
0000
1000
0000
,
0100
0100
0100
0000
,
1000
0000
0001
0000
,
0100
0100
0100
0000
,
0001
0000
1000
0000
,
1001
0000
0000
0000
,
0001
0000
0000
0000
,
1000
0000
0000
0000
,
0010
0000
0000
0000
,
0100
0000
0100
0000
,
0001
0000
0001
0000
,
1000
0000
1000
0000
,
0100
0000
0000
0000
,
0010
0010
0010
0000
,
0001
0000
1000
0000
,
0010
0010
0010
0000
,
1000
0000
0001
0000
,
0100
0100
0100
0000
,
0001
0000
1000
0000
,
0100
0100
0100
0000
,
1000
0000
0001
0000
,
1000
0000
0000
0000
,
0100
0000
0000
0000
,
0010
0000
0010
0000
,
0001
0000
0000
0000
,
0100
0000
0000
0000
,
0010
0000
0000
0000
,
1000
0000
1000
0000
,
0001
0000
0000
0000
,
1000
1000
1000
0000
,
0001
0001
0001
0000
,
1000
1000
1000
0000
,
0001
0001
0001
0000
,
0010
0010
0010
0000
,
0100
0100
0100
0000
,
0010
0010
0010
0000
,
0100
0100
0100
0000
,
1001
0000
0000
0000
,
0000
0000
0000
0000
,
0000
0000
0000
0000
,
0000
0000
0000
0000
,
0000
0000
0000
0000
,
0000
0000
0000
0000
,
0000
0000
0000
0000
,
0000
0000
0000
0000
,
0001
0000
0001
0000
,
0100
0000
0100
0000
,
1000
0000
1000
0000
,
0100
0000
0100
0000
,
1000
0000
1000
0000
,
0010
0000
0010
0000
,
0001
0000
0001
0000
,
0000
0000
0000
0000
,
1001
0000
0000
0000
,
0110
0000
0000
0000
,
1001
0000
0000
0000
,
1000
0000
0001
0000
,
1000
0000
0100
0000
,
0010
0000
0001
0000
,
0100
0000
0010
0000
,
1000
1000
1000
0000
,
0001
0001
0000
0000
,
1000
1000
0000
0000
,
0001
0001
0000
0000
,
0010
0010
0010
0010
;

//--------------- dance-single - ----------------
#NOTEDATA:;
#STEPSTYPE:dance-single;
#DESCRIPTION:;
#DIFFICULTY:Easy;
#METER:5;
#RADARVALUES:0,0,0,0,0;
#CREDIT:Kikoia;
#NOTES:
0000
0000
0000
0000
,
0000
0000
0000
0000
,
0000
0000
0000
0000
,
0000
0000
0000
0000
,
0001
0001
1000
1000
,
0100
0100
1000
0000
,
1000
1000
0001
0001
,
0100
0100
0001
0000
,
0010
0100
0010
0000
,
0100
1000
0100
0000
,
1000
1000
0001
0001
,
0010
0010
0001
0000
,
2001
0010
0010
3010
,
2000
3001
0002
1003
,
1002
0010
0010
0013
,
0002
1003
2000
3001
,
1002
0100
0100
0103
,
0002
1003
2000
3001
,
2001
0100
0100
3100
,
2000
3001
0002
1003
,
0100
0000
1000
0001
,
1000
0000
0001
1000
,
0001
0000
0001
0100
,
0010
0000
1000
0100
,
0010
0010
0002
0003
,
0001
0001
2000
3000
,
1000
1000
0020
0030
,
0100
0100
0002
0003
,
1002
0010
0010
0013
,
0002
0103
0200
0310
,
2001
0010
0010
3010
,
2000
3100
0200
0310
,
2001
0100
0100
3100
,
2000
3010
0020
0130
,
1002
0100
0100
0103
,
0002
0023
0230
0300
,
1001
0000
1000
0000
,
0100
0100
0001
0000
,
0100
0000
1000
0000
,
0001
0000
0100
0100
,
1000
0000
0100
0000
,
0001
0000
1000
1000
,
0010
0000
0100
0000
,
0001
0001
0001
0000
,
1000
0100
0001
0100
,
1000
0100
0001
0100
,
1000
0010
0001
0010
,
1000
0010
0001
0010
,
2000
3010
0020
0130
,
0200
0301
1000
1000
,
2000
3100
0200
0310
,
0020
0031
0001
1000
,
1001
0000
0000
0000
,
0000
0000
0000
0000
,
0000
0000
0000
0000
,
0000
0000
0000
0000
,
2000
0000
0000
0000
,
3002
0000
0000
0000
,
0023
0000
0000
0000
,
0030
0000
0000
0000
,
0001
0001
0001
0000
,
0100
0100
0100
0000
,
0010
0010
0010
0000
,
1000
1000
0001
0001
,
1000
0001
1000
0000
,
0100
0010
0100
0000
,
1000
0001
1000
0001
,
1000
0000
0000
0000
,
2002
0000
3003
0000
,
0220
0000
0330
0000
,
2002
0000
3003
0000
,
0001
0001
1000
0000
,
0001
0100
1000
0100
,
0001
0100
1000
0100
,
0001
1000
0100
0001
,
0100
1000
0100
0001
,
0100
0100
0000
0000
,
0010
0010
0000
0000
,
1000
1000
0000
0000
,
1000
0010
0100
0002
,
0003
0000
0000
0000
;

//--------------- dance-single - ----------------
#NOTEDATA:;
#STEPSTYPE:dance-single;
#DESCRIPTION:;
#DIFFICULTY:Medium;
#METER:9;
#RADARVALUES:0,0,0,0,0;
#CREDIT:Kikoia;
#NOTES:
0000
0000
0000
0000
,
0000
0000
0000
0000
,
0000
0000
0000
0000
,
0000
0000
0000
0000
,
1000
0000
0001
0100
0002
0000
1003
0000
,
0100
0010
0001
0100
,
0001
0000
1000
0100
2000
0000
3001
0000
,
0100
0010
1000
0100
,
1000
1010
0001
0101
,
0002
0000
0000
0010
0000
0000
0013
0000
0000
0000
0000
0000
1001
0000
0000
0000
,
0100
0110
0010
1001
,
2000
0000
0000
0010
0000
0000
3010
0000
0000
0000
0000
0000
0001
0000
1000
0000
,
0001
0001
1000
0100
0001
0000
1001
0000
,
0002
0100
2003
3100
,
1000
1000
0001
0100
1000
0000
1001
0000
,
2000
0010
3002
0013
,
1000
1000
0010
0100
0001
0000
0101
0000
,
0002
0100
2003
3010
,
1000
1000
0100
0010
0001
0000
0011
0000
,
2000
0100
3001
0000
,
1000
0000
0010
0000
1000
0100
1000
0000
,
0001
0000
0010
0000
0001
0100
0001
0000
,
1000
0000
0010
0000
0100
0010
1000
0000
,
0001
0000
0010
0000
0100
0010
0001
0000
,
2000
0000
0010
0000
0100
0000
3001
0001
,
0002
0000
0100
0000
0010
0000
1003
1000
,
0020
0100
1000
0130
,
2000
0000
0100
0000
0001
0000
0100
3100
,
1000
1000
0001
0010
1000
0000
1001
0000
,
2000
0100
3002
0103
,
0001
0001
1000
0010
0001
0000
1001
0000
,
0002
0100
2003
3100
,
0001
0001
0010
0100
1000
0000
1100
0000
,
2000
0100
3002
0013
,
0001
0001
0100
0010
1000
0000
1010
0000
,
0002
0100
1003
0000
,
1000
0000
0100
0000
0001
0100
1000
0000
,
0001
0000
0100
0000
1000
0100
0001
0000
,
1000
0001
0010
0000
0010
0001
1000
0000
,
0001
1000
0010
0000
0010
1000
0001
0001
,
1000
0000
0010
0000
0001
0010
1000
0000
,
0001
0000
0010
0000
1000
0010
0001
0000
,
0100
0100
0010
0010
,
1000
0000
1000
0000
0001
1000
0001
1000
,
0001
0000
0100
0000
0010
1000
0010
0000
,
1000
0000
0100
0000
0010
0001
0010
0001
,
1000
0000
0010
0000
0100
0001
0100
0000
,
0001
0000
0010
0000
0100
1000
0100
1000
,
0001
0000
1000
0000
0100
0010
0100
0000
,
1000
0000
0010
0000
0100
0010
0100
0010
,
1000
0000
0001
0000
0010
0100
0010
0000
,
0001
0000
1000
0000
0010
0100
0010
0100
,
0002
0000
0000
0000
,
2003
0000
0000
0000
,
3020
0000
0000
0000
,
2030
0000
0000
0000
,
3200
0000
0000
0000
,
0010
0000
0010
0000
,
0020
0000
0000
0000
,
0330
0000
0000
0000
,
1000
0100
0010
0001
,
0100
0010
1000
0001
,
0010
1000
0010
0001
,
1000
0010
0001
0010
,
1000
0001
1000
0000
0001
1000
0001
0000
,
0100
0010
0100
0000
0010
0100
0010
0000
,
1000
0001
1000
0001
1000
0001
1000
0001
,
0000
0000
0000
0000
,
2002
0000
0000
3003
1001
0000
1100
0000
,
2020
3030
0202
0303
,
0022
0000
0000
0033
0110
0000
1100
0000
,
1001
0110
2002
3003
,
1000
0100
0010
0000
0010
0001
1000
0000
,
1000
0010
0100
0000
0100
0001
1000
0000
,
0001
0010
0100
0000
0100
1000
0001
0000
,
0001
1000
0001
1000
0010
0100
0010
0100
,
0002
0003
0002
0003
0100
0001
0020
0000
,
0032
0003
0002
0003
0010
0100
1000
0000
,
0001
1000
0001
0000
0100
0001
0100
0000
,
0020
0000
2030
0000
0200
3300
0220
0000
,
0330
0000
0000
0000
;

//--------------- dance-single - ----------------
#NOTEDATA:;
#STEPSTYPE:dance-single;
#DESCRIPTION:;
#DIFFICULTY:Hard;
#METER:13;
#RADARVALUES:0,0,0,0,0;
#CREDIT:Kikoia;
#NOTES:
0000
0000
0000
0000
,
0000
0000
0000
0000
,
0000
0000
0000
0000
,
0000
0000
0000
0000
,
1000
0000
1000
0001
0200
0000
0010
0000
,
0301
1000
0100
0010
0000
0100
1000
1000
,
0001
0000
0001
1000
0020
0000
0100
0000
,
1030
0001
0010
0100
0000
1000
0001
0001
,
0100
0000
0101
0000
1010
0000
0001
0010
,
0200
0000
0000
0001
0000
0000
1300
0000
0000
0000
0001
0000
1000
0000
1000
0000
,
0100
0000
0110
0000
1001
0000
1000
0010
,
0200
0000
0000
1000
0000
0000
0301
0000
0000
0000
0001
0000
1000
0000
0001
0000
,
1000
0000
1000
0000
0100
0000
0100
0000
0010
0000
0000
0220
0000
0000
0330
0000
,
1000
0100
0001
0100
1000
0010
0001
0010
,
1000
0000
1000
0000
0001
0000
0001
0000
0100
0000
0000
0220
0000
0000
0330
0000
,
0001
0000
0010
0000
1000
0000
0010
0000
0001
0000
1000
0000
0001
0010
0001
0000
,
0100
0000
0100
0000
0010
0000
0010
0000
0110
0000
0000
2002
0000
3003
0000
0000
,
1000
0100
0001
1000
0010
0001
0100
0010
,
0100
0000
0100
0000
0010
0000
0010
0000
0100
0000
0000
2002
0000
0000
3003
0000
,
0001
0000
1000
0000
0001
0010
0001
0000
0100
0000
0001
0000
0010
0000
0100
0000
,
1000
0000
0000
0000
0001
0100
0000
0100
0010
0000
0010
2000
0000
0000
0100
0000
,
3001
0000
0000
0000
1000
0100
0000
0100
0010
0000
0010
0002
0000
0000
0100
0000
,
1003
0000
0000
0000
1000
0010
0000
0010
0001
0000
0001
0020
0000
0000
1030
0000
,
1001
0000
0000
0000
0001
0000
0010
0000
1000
0000
0010
0001
0000
0001
1000
0000
,
0200
0000
0000
0320
0000
0000
0031
0000
1000
0000
0010
0000
1000
0001
1000
0000
,
0002
0000
0000
0203
0000
0000
0310
0000
1000
0000
0100
0000
1000
0010
0100
0000
,
0002
0000
0000
2003
0000
0000
3100
0000
0010
0000
0001
0000
0100
0010
0100
0000
,
0002
0000
0000
0023
0000
0000
0130
0000
2000
0000
0010
0000
0010
0000
3010
0000
,
1000
0000
1000
0000
0100
0000
0100
0000
0010
0000
0000
2002
0000
0000
3003
0000
,
0001
0100
1000
0100
0001
0010
1000
0010
,
0001
0000
0001
0000
0100
0000
0100
0000
0010
0000
0000
2002
0000
0000
3003
0000
,
1000
0000
0010
0000
0001
0000
0010
0000
1000
0000
0001
0000
0010
0100
1000
0000
,
0001
0000
0001
0000
0100
0000
0100
0000
0010
0000
0000
0220
0000
0000
0330
0000
,
0001
0100
1000
0001
0010
1000
0100
0010
,
0100
0000
0100
0000
1000
0000
1000
0000
0001
0000
0000
0220
0000
0000
0330
0000
,
1000
0000
0001
0000
0100
0010
0100
0000
0001
0000
1000
0000
0100
0010
0100
0000
,
1000
0000
1001
0000
0001
0100
0010
0010
,
1000
0000
0000
0001
0000
0000
1000
0000
0100
0000
0100
0000
0010
0000
0001
0000
,
0100
0000
0000
0010
1000
0000
0100
0000
0010
0000
0000
0001
1000
0000
0010
0000
,
1000
0000
0100
0000
0001
0000
0100
0000
1000
0001
1000
0000
0001
0100
0001
0000
,
0010
0000
1001
0000
0001
0100
0010
1000
,
0100
0000
0000
0100
0000
0000
0100
0000
1000
0000
0010
0000
0001
0000
0010
0000
,
1000
1000
0001
0001
0010
0010
0100
0100
,
1000
0010
0100
0001
1000
1000
1000
1000
,
0100
0000
0010
0001
0000
0010
0001
0000
1000
0000
0000
0000
0010
0000
0100
0000
,
0001
0000
1000
0100
0000
1000
0100
0000
1000
0000
0010
0000
1000
0000
0100
0000
,
1000
0000
0010
1000
0000
0010
1000
0000
0001
0000
0000
0000
0010
0000
0100
0000
,
1000
0000
0001
0100
0000
0001
0100
0000
0001
0000
0010
0000
0001
0000
0100
0000
,
0001
0000
1000
0010
0000
0010
0100
0000
0001
0000
0010
0000
0100
0000
0100
0000
,
0010
0000
0001
0100
0000
0100
0010
0000
1000
0000
0100
0000
0001
0000
0100
0000
,
1000
0000
0001
0010
0000
0010
0100
0000
1000
0000
0010
0000
0100
0000
0100
0000
,
0010
0000
1000
0100
0000
0100
0010
0000
0001
0100
0001
0000
1000
0010
1000
0000
,
2002
0000
0000
0000
,
0000
0000
0000
3003
,
0200
0000
0000
0000
,
0010
0010
0010
0300
,
2001
0000
0000
0000
,
3200
0000
0320
0000
,
0032
0000
0000
0000
,
0003
0000
0000
0000
,
1001
1000
0100
1000
0100
0010
0001
0100
,
1001
0001
0100
0001
0100
0010
1000
0100
,
0110
0000
0001
1000
1001
0000
1000
0001
,
0020
0000
0032
0000
2003
0000
3010
0100
,
0001
1000
0001
1000
0001
1000
0001
1000
,
0010
0100
0010
0100
0010
0100
0010
0100
,
0001
0100
1000
0100
0001
0010
1000
0010
,
0001
0000
0000
0000
1000
1000
1000
1000
,
2002
0000
3003
0000
1001
1000
1100
0000
,
0022
0000
0033
1000
2020
0000
3030
0000
,
0202
0000
0303
0000
0011
0010
0100
1000
,
0001
0100
0001
1000
0010
1000
0001
0000
0000
0110
0000
0000
,
1001
0000
0001
0000
0100
0000
0010
0000
0100
0000
0001
0000
0010
0100
0000
0100
,
1000
0000
0010
0000
0100
0000
0010
0000
1000
0000
0001
0000
1000
0100
0000
0100
,
0010
0001
0011
0000
1000
0010
1010
0000
,
1000
0000
0100
0000
0001
0000
0100
0000
1000
0100
1000
0000
0001
0010
0001
0000
,
0200
0000
0300
0000
0200
0000
0300
0000
0100
0000
0010
0000
1000
0001
1000
0000
,
0200
0000
0300
0000
0200
0000
0300
0000
0100
0000
0010
0001
0010
0000
0001
0000
,
2000
3000
2000
3000
0001
0100
0010
1000
,
0100
0010
0000
0000
0001
1000
0000
0000
0010
0100
0000
0000
2002
0000
0000
0000
,
3003
0000
0000
0000
;

//--------------- dance-single - ----------------
#NOTEDATA:;
#STEPSTYPE:dance-single;
#DESCRIPTION:;
#DIFFICULTY:Challenge;
#METER:15;
#RADARVALUES:0,0,0,0,0;
#CREDIT:Kikoia;
#NOTES:
0000
0000
0000
0000
,
0000
0000
0000
0000
,
0000
0000
0000
0000
,
0000
0000
0000
0000
0000
0000
1000
0010
,
0100
0000
0010
1000
0200
0000
0320
0000
,
0031
0100
0010
1000
0000
1000
0001
0010
,
0100
0000
0010
0001
0200
0000
0310
1000
,
0001
0010
0100
2000
0000
3001
1000
1000
,
0010
0000
0100
0001
0000
0100
0001
0000
1000
0000
0100
0000
0001
0000
0100
0000
,
2000
0000
0000
3020
0000
0000
0032
0000
0000
0000
0013
0000
1000
0000
0100
0000
,
0010
0000
0001
0000
0100
0000
0001
0000
1000
0000
0010
0000
1000
0100
1000
0000
,
0010
0000
1000
0001
0000
1000
0001
0000
0020
0000
0100
0000
0100
0000
0130
0000
,
1001
0000
0101
0000
1100
0000
1010
0000
0011
0000
0000
1001
0000
0000
0001
0000
,
1000
0000
0100
0000
0001
0000
0100
0000
1000
0000
0001
0000
0100
0001
0010
0000
,
1001
0000
1100
0000
0101
0000
0011
0000
1010
0000
0000
1001
0000
0000
1000
0000
,
0100
0000
0010
0000
0001
0000
0100
0000
2010
0000
3100
0000
1000
0010
0100
0001
,
0010
0000
0011
0000
1100
0000
1010
0000
0101
0000
0000
1001
0000
0000
1000
0000
,
0001
0000
0100
0000
1000
0000
0100
0000
0001
0000
0010
0000
0100
1000
0010
0000
,
1010
0000
0101
0000
0011
0000
1100
0000
0110
0000
0000
1001
0000
0000
0001
0000
,
0010
0000
0100
0000
1000
0000
0010
0000
1000
0100
1000
0000
0001
0010
0100
1000
,
0001
0000
0000
0000
1000
0100
0000
1000
0100
0000
0010
0001
0000
0000
1000
0000
,
1001
0000
0000
0000
0001
0100
0000
0001
0100
0000
0010
1000
0000
0000
0001
0000
,
1001
0000
0000
0000
1000
0100
0000
1000
0010
0000
1000
0001
0000
0000
0010
0000
,
0011
0000
0000
0000
0001
0000
0100
0010
1000
0000
0001
0010
0000
0001
0100
0000
,
1001
0000
0000
1000
0100
0000
0010
0000
0011
0000
0000
0000
0001
1000
0001
1000
,
0020
0000
0000
0130
0001
0000
0010
0000
2010
0000
3001
0000
1000
0010
0100
0001
,
2000
0000
0000
3100
0010
0000
0001
0000
2001
0000
3100
0000
1000
0001
1000
0001
,
0010
0100
1000
0010
0001
0010
1000
0001
0020
0000
0230
0000
2300
0000
3010
0000
,
0110
0000
1001
0000
1100
0000
0101
0000
0011
0000
0000
1001
0000
0000
1000
0000
,
0001
0000
0010
0000
1000
0000
0010
0000
0001
0000
0100
0000
0010
1000
0100
0000
,
1100
0000
0011
0000
1001
0000
1010
0000
0101
0000
0000
1001
0000
0000
0001
0000
,
0100
0000
0010
0000
1000
0000
0100
0000
0012
0000
0103
0000
0001
0010
0100
1000
,
0010
0000
1010
0000
0101
0000
0011
0000
1100
0000
0000
1001
0000
0000
0001
0000
,
1000
0000
0010
0000
0001
0000
0010
0000
1000
0000
0100
0000
0010
0001
0100
0000
,
0110
0000
1001
0000
0101
0000
1100
0000
0011
0000
0000
1010
0000
0000
0001
0000
,
0100
0000
1000
0000
0100
0001
0010
0100
2000
0000
0000
0000
0000
0000
3000
0000
,
0001
0000
1001
0001
0100
0100
1000
0100
,
0001
0000
0000
1010
0000
0000
1000
0001
0010
0000
1000
0000
0010
0000
0001
0000
,
0100
0000
0010
1000
0000
0010
1000
0000
0100
0000
0010
0001
0000
0010
0001
0000
,
0100
0000
0010
0000
1000
0000
0100
0000
1000
0010
0100
0001
1000
0010
0100
0001
,
1000
0000
1001
1000
0100
0100
0001
0100
,
1000
0000
0000
0011
0000
0000
1000
0100
0010
0000
0001
0000
1000
0000
0010
0000
,
2010
0000
3100
0000
0012
0000
0103
0000
1002
0000
0103
0010
0000
1000
0001
0000
,
0010
0000
0001
0000
0100
0000
0001
0000
1000
0100
0010
0001
1000
0100
0010
0001
,
0100
0000
0001
1000
0000
0001
0010
0000
0001
0000
0100
0000
1000
0000
0100
0000
,
0001
0000
1000
0010
0000
1000
0100
0000
1002
0000
0013
0000
1002
0000
0013
0000
,
0001
0000
1000
0010
0000
1000
0001
0000
1000
0000
0100
0000
0001
0000
0100
0000
,
1000
0000
0001
0100
0000
0001
0010
0000
0001
0100
0010
1000
0001
0100
0010
1000
,
0001
0000
0010
0100
0000
1000
0001
0000
0100
0000
1000
0000
0100
0000
0001
0000
,
0010
0000
0100
1000
0000
0001
0100
0000
1002
0000
0013
0000
1002
0000
0013
0000
,
1000
0000
0100
0010
0000
0001
1000
0000
0010
0000
0001
0000
0010
0000
1000
0000
,
0100
0000
0010
0001
0000
1000
0010
0000
1000
0001
0010
0100
1000
0001
0010
0100
,
2000
0000
0000
0000
,
3002
0000
0000
0000
,
0203
0000
0000
0000
,
0320
0000
0000
0000
,
2030
0000
0000
0000
0000
0000
3001
2000
,
0000
0000
3001
0020
0000
0000
0031
0200
,
0000
0000
0000
0000
,
0301
0000
0000
0001
0000
0000
0001
0000
0000
0001
0000
0000
0001
0000
1000
0000
,
1010
0000
1000
0100
0010
0001
0100
0010
,
0110
0000
0000
0000
0010
0000
1000
0000
0100
0000
1000
0000
0001
0010
0100
0000
,
0110
0000
0001
1000
1001
0000
1000
0010
,
0100
0000
0101
0000
0011
0000
1000
0100
,
0010
0000
0001
1000
0010
0000
1000
0100
1000
0000
0001
0100
0001
0000
0010
0000
,
0100
0000
1000
0010
1000
0000
0001
0010
0001
0000
0100
0010
1000
0000
0001
0000
,
1000
0001
1000
0001
1000
0001
1000
0001
1000
0001
1000
0001
1000
0001
1000
0001
,
0000
0000
0000
0000
0010
0010
0010
0010
,
2002
0000
0000
3003
0000
0000
1000
0100
0010
0000
0001
0000
0101
0000
0010
0000
,
2200
0000
0000
0000
3300
0000
0100
1000
0020
0000
0000
0000
0000
0000
0130
0000
,
0220
0000
0000
0330
1001
0001
0010
0001
,
1000
0001
0100
0001
1000
0100
0020
0000
0000
0130
0000
0000
,
1001
0000
1000
0100
0010
0000
0001
0100
0010
0000
1000
0000
0001
0010
0001
0010
,
0100
0000
1000
0000
0101
0000
1000
0000
0010
0000
0100
0000
0011
0000
1000
0100
,
0010
0001
1010
0001
0010
0100
1001
0001
,
1000
0010
0100
0001
1000
0010
0100
0001
1000
0100
0001
0100
1000
0010
0001
0010
,
2000
0000
3000
0000
2000
0000
3002
0000
1003
0000
0100
0000
0010
0001
0010
0001
,
2000
0000
3000
0000
2000
0000
3002
0000
0203
0000
0310
1000
0200
0000
0300
0000
,
2001
0000
3010
0000
2001
0000
3010
0000
0001
0000
0100
0000
0010
1000
0001
0010
,
0100
1000
0000
0000
0010
0100
0000
0000
0001
1000
0000
0000
0220
0000
0000
0000
,
0330
0000
0000
0000
;

//--------------- dance-double - ----------------
#NOTEDATA:;
#STEPSTYPE:dance-double;
#DESCRIPTION:;
#DIFFICULTY:Easy;
#METER:5;
#RADARVALUES:0,0,0,0,0;
#CREDIT:Kikoia;
#NOTES:
00000000
00000000
00000000
00000000
,
00000000
00000000
00000000
00000000
,
00000000
00000000
00000000
00000000
,
00000000
00000000
00000000
00000000
,
00010000
00010000
00001000
00001000
,
01000000
01000000
00001000
00000000
,
00001000
00001000
00010000
00010000
,
00000100
00000100
00010000
00000000
,
00010000
00001000
00020000
00000000
,
00030100
00001000
00000100
00000000
,
00000010
00000010
00000001
00000001
,
00000100
00000100
00000010
00000000
,
00001002
00000010
00000010
00000013
,
00000002
00001003
00002000
00003001
,
00002001
00000010
00000010
00003010
,
00000010
00010000
00001000
00100000
,
10020000
00100000
00100000
00130000
,
00020000
10030000
20000000
30010000
,
20010000
00100000
00100000
30100000
,
00100000
01000000
00001000
00010000
,
00011000
00000000
00010000
00001000
,
00010000
00000000
00001000
00010000
,
00001000
00000000
00001000
01000000
,
00001000
00000000
00010000
00000100
,
00010000
00000100
00000020
00000030
,
00000001
00000001
00002000
00003000
,
00000010
00000010
00020000
00030000
,
00001000
00001000
00100000
01000000
,
20010000
00100000
00100000
30100000
,
20000000
30010000
00020000
10030000
,
10020000
00100000
00100000
00130000
,
00100000
00001000
00010000
00000010
,
00002001
00000010
00000010
00003010
,
00002000
00003001
00000002
00001003
,
00001002
00000010
00000010
00000013
,
00000010
00000100
00020000
00030000
,
00011000
00000000
00001000
00000000
,
01000000
01000000
00100000
00000000
,
01000000
00000000
00001000
00000000
,
00010000
00000000
00001000
00001000
,
00010000
00000000
00000100
00000000
,
00000010
00000000
00000100
00000100
,
00010000
00000000
00001000
00000000
,
00010000
00010000
00010000
00000000
,
00001000
00010000
00100000
00010000
,
00001000
00010000
00100000
00010000
,
00001000
00010000
01000000
00010000
,
00001000
00010000
01000000
00010000
,
00002000
00013000
00020000
00030100
,
00000200
00000310
00000020
00000031
,
00000002
00000103
00000200
00000310
,
00000020
00010030
00010000
00001000
,
00011000
00000000
00000000
00000000
,
00000000
00000000
00000000
00000000
,
00000000
00000000
00000000
00000000
,
00000000
00000000
00000000
00000000
,
00010000
00000000
00000000
00000000
,
00002000
00000000
00000000
00000000
,
00013000
00000000
00000000
00000000
,
00000000
00000000
00000000
00000000
,
00001000
00001000
00001000
00000000
,
01000000
01000000
01000000
00000000
,
00100000
00100000
00100000
00000000
,
10000000
10000000
01000000
01000000
,
00100000
00010000
00100000
00000000
,
00001000
00010000
00001000
00000000
,
00010000
00001000
00010000
00001000
,
00010000
00000000
00000000
00000000
,
20020000
00000000
30030000
00000000
,
00022000
00000000
00033000
00000000
,
00002002
00000000
00003003
00000000
,
00001000
00001000
00000001
00000000
,
00001000
00000100
00000001
00000100
,
00001000
00000100
00010000
00001000
,
01000000
10000000
01000000
00010000
,
01000000
01000000
00001000
00001000
,
00010000
00010000
00000000
00000000
,
00000010
00000010
00000000
00000000
,
00100000
00100000
00000000
00000000
,
00001000
00100000
01000000
20000000
,
30000000
00000000
00000000
00000000
;

//--------------- dance-double - ----------------
#NOTEDATA:;
#STEPSTYPE:dance-double;
#DESCRIPTION:;
#DIFFICULTY:Medium;
#METER:10;
#RADARVALUES:0,0,0,0,0;
#CREDIT:Kikoia;
#NOTES:
00000000
00000000
00000000
00000000
,
00000000
00000000
00000000
00000000
,
00000000
00000000
00000000
00000000
,
00000000
00000000
00000000
00000000
,
00010000
00000000
00001000
01000000
00002000
00000000
01003000
00000000
,
00100000
10000000
00010000
00100000
,
00010000
00000000
10000000
01000000
20000000
00000000
30010000
00000000
,
01000000
00001000
00010000
00000100
,
00000010
00000110
00001000
00001001
,
00002000
00000000
00000000
00000010
00000000
00000000
00003010
00000000
00000000
00000000
00000000
00000000
00001010
00000000
00000000
00000000
,
00000010
00000110
00010000
00010010
,
00000200
00000000
00000000
00010000
00000000
00000000
00010300
00000000
00000000
00000000
00000000
00000000
00001000
00000000
00010000
00000000
,
00001000
00001000
00010000
00100000
00010000
00000000
00011000
00000000
,
00002000
01000000
00023000
00000100
,
00031000
00001000
00010000
00100000
00010000
00000000
00011000
00000000
,
00020000
00000100
00032000
01000000
,
00013000
00010000
00001000
00000010
00001000
00000000
00011000
00000000
,
00020000
00000010
00032000
00100000
,
00013000
00010000
00001000
00000010
00001000
00000000
00011000
00000000
,
00002000
00100000
00023000
00030020
,
00000130
00000000
00000001
00000000
00001000
00000100
00001000
00000000
,
00000001
00000000
00000010
00000000
00000001
00000100
00000001
00000000
,
00001000
00000000
00000010
00000000
00000100
00000010
00001000
00000000
,
00000100
00000000
00010000
00000000
00001000
01000000
00010000
00000000
,
20000000
00000000
00100000
00000000
01000000
00000000
30010000
00010000
,
00020000
00000000
01000000
00000000
00100000
00000000
10030000
10000000
,
00200000
01000000
10000000
01300000
,
01000000
00000000
00001000
00000000
00010000
00000000
00001000
00001000
,
00010000
00010000
00001000
00000100
00001000
00000000
00011000
00000000
,
00020000
00000100
00032000
01000000
,
00013000
00010000
00001000
00000100
00001000
00000000
00011000
00000000
,
00002000
01000000
00023000
00000100
,
00031000
00001000
00010000
01000000
00010000
00000000
00011000
00000000
,
00002000
00100000
00023000
00000010
,
00031000
00001000
00010000
01000000
00010000
00000000
00011000
00000000
,
00020000
00000010
00032000
00000000
,
01003000
00000000
00100000
00000000
10000000
01000000
00010000
00000000
,
01000000
00000000
10000000
00000000
00010000
01000000
10000000
00000000
,
01000000
00100000
01000000
00000000
00010000
10000000
00010000
00000000
,
10000000
01000000
10000000
00000000
00010000
00100000
00010000
00010000
,
10000000
00000000
00100000
00000000
00010000
00100000
10000000
00000000
,
00010000
00000000
00100000
00000000
10000000
00100000
00010000
00000000
,
01000000
01000000
00001000
00001000
,
00010000
00000000
00010000
00000000
00001000
00010000
00001000
00010000
,
00001000
00000000
01000000
00000000
00100000
01000000
00100000
00000000
,
01000000
00000000
00001000
00000000
00010000
00001000
00010000
00001000
,
00010000
00000000
00000100
00000000
00000010
00000100
00000010
00000000
,
00000100
00000000
00010000
00000000
00001000
00010000
00001000
00010000
,
00001000
00000000
01000000
00000000
00100000
10000000
00100000
00000000
,
10000000
00000000
01000000
00000000
00100000
00001000
00100000
00001000
,
00010000
00000000
00000100
00000000
00000010
00000001
00000010
00000000
,
00000001
00000000
00000100
00000000
00000010
00010000
00000010
00010000
,
00002000
00000000
00000000
00000000
,
00023000
00000000
00000000
00000000
,
00230000
00000000
00000000
00000000
,
20300000
00000000
00000000
00000000
,
32000000
00000000
00000000
00000000
,
00100000
00000000
00100000
00000000
,
00200000
00000000
00000000
00000000
,
03300000
00000000
00000000
00000000
,
10000000
01000000
00100000
00010000
,
00001000
00000100
00000010
00000001
,
00000100
00001000
00010000
01000000
,
10000000
00100000
00010000
00001000
,
00010000
00001000
00010000
00000000
00001000
00010000
00001000
00000000
,
00001000
01000000
00001000
00000000
00010000
00000010
00010000
00000000
,
00001000
00010000
00001000
00010000
00001000
00010000
00001000
00010000
,
00000000
00000000
00000000
00000000
,
02000200
00000000
00000000
03000300
00011000
00000000
00101000
00000000
,
00200020
00300030
00022000
00033000
,
00002002
00003003
00000011
00001100
,
00110000
11000000
20020000
30030000
,
10000000
01000000
00100000
00000000
00100000
00010000
01000000
00000000
,
01000000
00001000
00100000
00000000
00100000
00001000
00010000
00000000
,
00010000
00000100
00000010
00000000
00000010
00000001
00000100
00000000
,
00000001
00001000
00000001
00001000
00000010
00000100
00001000
00010000
,
00002000
00003000
00002000
00003000
00001000
00020000
00100000
00000000
,
00032000
00003000
00002000
00003000
00001000
00020000
01000000
00000000
,
00031000
00010000
00001000
00000000
00010000
00001000
00010000
00000000
,
00000020
00200030
00300200
02000300
,
03000000
00000000
00000000
00000000
;

//--------------- dance-double - ----------------
#NOTEDATA:;
#STEPSTYPE:dance-double;
#DESCRIPTION:;
#DIFFICULTY:Hard;
#METER:13;
#RADARVALUES:0,0,0,0,0;
#CREDIT:Kikoia;
#NOTES:
00000000
00000000
00000000
00000000
,
00000000
00000000
00000000
00000000
,
00000000
00000000
00000000
00000000
,
00000000
00000000
00000000
00000000
,
00010000
00000000
00010000
00001000
02000000
00000000
00100000
00000000
,
03001000
01000000
00100000
10000000
00000000
01000000
10000000
10000000
,
00010000
00000000
00010000
00100000
02000000
00000000
10000000
00000000
,
03000000
00100000
00001000
00010000
00000000
00010000
00001000
00001000
,
01000000
00000000
01001000
00000000
00010100
00000000
00010000
00001000
,
00000020
00000000
00000000
00000100
00000000
00000000
00000031
00000000
00000000
00000000
00001000
00000000
00000001
00000000
00000001
00000000
,
00000100
00000000
00000101
00000000
00001010
00000000
00000010
00010000
,
00000200
00000000
00000000
00000010
00000000
00000000
00010300
00000000
00000000
00000000
00001000
00000000
00010000
00000000
00001000
00000000
,
00010000
00000000
00010000
00000000
01000000
00000000
01000000
00000000
10000000
00000000
00000000
20020000
00000000
00000000
30030000
00000000
,
10000000
00100000
00010000
00100000
10000000
01000000
00010000
00001000
,
00000100
00000000
00000100
00000000
00000001
00000000
00000001
00000000
00000010
00000000
00000000
00002002
00000000
00000000
00003003
00000000
,
00001000
00000010
00000001
00000010
00001000
00000100
00000001
00000100
,
00010000
00000000
00010000
00000000
00001000
00000000
00001000
00000000
00011000
00000000
00000000
00022000
00000000
00000000
00033000
00000000
,
00010000
00001000
00000010
00001000
00010000
00100000
00010000
00001000
,
00010000
00000000
00010000
00000000
00001000
00000000
00001000
00000000
00010000
00000000
00000000
00022000
00000000
00000000
00033000
00000000
,
00001000
00000000
00010000
00000000
00100000
00010000
00100000
00000000
00010000
00000000
00001000
00000000
00100000
00000000
01000000
00000000
,
10000000
00000000
00000000
00000000
00010000
01000000
00000000
01000000
00100000
00000000
00100000
20000000
00000000
00000000
01000000
00000000
,
30010000
00000000
00000000
00000000
10000000
01000000
00000000
01000000
00100000
00000000
00100000
00020000
00000000
00000000
01000000
00000000
,
10030000
00000000
00000000
00000000
10000000
00100000
00000000
00100000
01000000
00000000
01000000
00002000
00000000
00000000
00013000
00000000
,
00011000
00000000
00000000
00000000
00010000
00000000
00000100
00000000
00000010
00000000
00000001
00000100
00000000
00000100
00000010
00000000
,
00002000
00000000
00000000
00003002
00000000
00000000
00000013
00000000
00000100
00000000
00000010
00000000
00000001
00001000
00000001
00000000
,
00000200
00000000
00000000
00000320
00000000
00000000
00010030
00000000
00001000
00000000
01000000
00000000
00010000
10000000
00010000
00000000
,
00200000
00000000
00000000
02300000
00000000
00000000
13000000
00000000
00100000
00000000
01000000
00000000
00100000
10000000
00010000
00000000
,
00200000
00000000
00000000
00302000
00000000
00000000
01003000
00000000
00020000
00000000
00001000
00000000
00001000
00000000
00031000
00000000
,
00010000
00000000
00001000
00000000
00000100
00000000
00000100
00000000
00000001
00000000
00000000
00002002
00000000
00000000
00003003
00000000
,
00000001
00000010
00001000
00000010
00000001
00000100
00001000
00010000
,
01000000
00000000
01000000
00000000
10000000
00000000
10000000
00000000
00100000
00000000
00000000
20020000
00000000
00000000
30030000
00000000
,
00010000
00100000
10000000
00100000
00010000
01000000
10000000
01000000
,
00001000
00000000
00001000
00000000
00010000
00000000
00010000
00000000
00011000
00000000
00000000
00022000
00000000
00000000
00033000
00000000
,
00001000
00010000
00100000
00010000
00001000
00000010
00001000
00010000
,
00001000
00000000
00001000
00000000
00010000
00000000
00010000
00000000
00001000
00000000
00000000
00022000
00000000
00000000
00033000
00000000
,
00010000
00000000
00001000
00000000
00000010
00001000
00010000
00000000
00002000
00000000
00000000
00000000
00000000
00000000
00000000
00000000
,
01003000
00000000
10010000
00000000
00010000
01000000
00100000
00100000
,
10000000
00000000
00000000
10000000
00000000
00000000
10000000
00000000
01000000
00000000
01000000
00000000
00100000
00000000
00010000
00000000
,
01000000
00000000
00000000
00010000
00100000
00000000
00001000
00000000
00010000
00000000
00000000
00000010
00000100
00000000
00000001
00000000
,
00001000
00000000
00000100
00000000
00000001
00000000
00000100
00000000
00001000
00000001
00001000
00000000
00000010
00000100
00000010
00000000
,
00001000
00000000
00001001
00000000
00001000
00000100
00000010
00000001
,
00000100
00000000
00000000
00000100
00000000
00000000
00000100
00000000
00000001
00000000
00000010
00000000
00001000
00000000
00000010
00000000
,
00000100
00000100
00010000
00010000
00001000
00001000
01000000
01000000
,
10000000
01000000
00010000
00100000
00001000
00001000
00001000
00001000
,
00010000
00000000
00001000
00100000
00000000
00001000
00100000
00000000
00001000
00000000
01000000
00000000
00100000
00000000
01000000
00000000
,
00001000
00000000
00010000
00000010
00000000
00010000
00000010
00000000
00010000
00000000
00000100
00000000
00000010
00000000
00000100
00000000
,
00010000
00000000
00001000
01000000
00000000
00001000
01000000
00000000
00001000
00000000
00100000
00000000
01000000
00000000
00100000
00000000
,
00001000
00000000
00010000
00000100
00000000
00010000
00000100
00000000
00010000
00000000
00000010
00000000
00000100
00000000
00000010
00000000
,
00010000
00000000
00001000
01000000
00000000
01000000
00100000
00000000
10000000
00000000
00010000
00000000
00100000
00000000
00100000
00000000
,
00010000
00000000
10000000
01000000
00000000
01000000
00100000
00000000
00010000
00000000
01000000
00000000
10000000
00000000
01000000
00000000
,
00010000
00000000
00100000
00001000
00000000
00001000
00010000
00000000
00000100
00000000
00000010
00000000
00000001
00000000
00000001
00000000
,
00000100
00000000
00000010
00010000
00000000
00010000
00001000
00000000
00010000
00000100
00010000
00000000
00001000
01000000
00001000
00000000
,
00022000
00000000
00000000
00000000
,
00000000
00000000
00000000
00030000
,
02003000
00000000
00000000
00000000
,
00100000
00100000
00100000
00000000
,
03002000
00000000
00000000
00000000
,
00023000
00000000
00030200
00000000
,
00000320
00000000
00000000
00000000
,
00000030
00000000
00000000
00000000
,
00001001
00000001
00000100
00000001
00000100
00000010
00001000
00000100
,
00001001
00001000
00000100
00001000
00000100
00000010
00000100
00010000
,
00011000
00000000
00010000
01000000
01010000
00000000
00010000
01000000
,
00200000
00000000
20300000
00000000
32000000
00000000
03100000
00010000
,
10000000
00010000
10000000
00010000
10000000
00010000
10000000
00010000
,
01000000
00001000
01000000
00001000
01000000
00001000
01000000
00001000
,
00010000
00001000
00000100
00001000
00010000
00001000
00000010
00001000
,
00010000
00000000
00000000
00000000
00001000
00001000
00001000
00001000
,
00022000
00000000
00033000
00000000
00011000
00001000
01001000
00000000
,
00022000
00000000
00033000
00010000
00020020
00000000
00030030
00000000
,
00002002
00000000
00003003
00000000
00000011
00000010
00000100
00010000
,
00001000
01000000
00001000
00010000
00000010
00010000
00001000
00000000
00000000
01000100
00000000
00000000
,
00011000
00000000
00001000
00000000
00100000
00000000
01000000
00000000
10000000
00000000
00100000
00000000
01000000
00010000
00000000
00010000
,
00100000
00000000
01000000
00000000
00010000
00000000
00001000
00000000
00000100
00000000
00000001
00000000
00001000
00000010
00000000
00000010
,
00000100
00000001
00000011
00000000
00001000
00000100
00001100
00000000
,
00001000
00000000
00000100
00000000
00000001
00000000
00000100
00000000
00010000
00000100
00010000
00000000
00001000
00010000
00001000
00000000
,
02000000
00000000
03000000
00000000
00000200
00000000
00000300
00000000
00010000
00000000
00001000
00000000
00100000
00001000
00010000
00000000
,
00000020
00000000
00000030
00000000
00200000
00000000
00300000
00000000
00001000
00000000
00010000
00001000
01000000
00000000
00100000
00000000
,
20000000
30000000
20000000
30000000
00010000
01000000
00100000
10000000
,
01000000
00100000
00000000
00000000
00100000
00001000
00000000
00000000
00001000
01000000
00000000
00000000
02000200
00000000
00000000
00000000
,
03000300
00000000
00000000
00000000
;

//--------------- dance-double - ----------------
#NOTEDATA:;
#STEPSTYPE:dance-double;
#DESCRIPTION:;
#DIFFICULTY:Challenge;
#METER:15;
#RADARVALUES:0,0,0,0,0;
#CREDIT:Kikoia;
#NOTES:
00000000
00000000
00000000
00000000
,
00000000
00000000
00000000
00000000
,
00000000
00000000
00000000
00000000
,
00000000
00000000
00000000
00000000
00000000
00000000
00010000
00001000
,
01000000
00000000
01000000
00001000
00020000
00000000
00030200
00000000
,
00010300
00001000
01000000
00100000
00000000
01000000
00001000
00010000
,
00000010
00000000
00000010
00010000
00002000
00000000
00013000
00010000
,
00000100
00000010
00000001
00000200
00000000
00000301
00000010
00000010
,
00000001
00000000
00001000
00000010
00000000
00001000
00000010
00000000
00001000
00000000
00000100
00000000
00000001
00000000
00000100
00000000
,
00002000
00000000
00000000
00003020
00000000
00000000
00000230
00000000
00000000
00000000
00000301
00000000
00001000
00000000
00000100
00000000
,
00010000
00000000
00000010
00000000
00010000
00000000
00001000
00000000
00010000
00000000
00100000
00000000
10000000
00010000
01000000
00000000
,
00010000
00000000
00100000
01000000
00000000
00100000
01000000
00000000
20000000
00000000
00010000
00000000
00010000
00000000
30010000
00000000
,
10010000
00000000
01010000
00000000
01001000
00000000
00011000
00000000
00010100
00000000
00000000
00001001
00000000
00000000
00001000
00000000
,
00000001
00000000
00000010
00000000
00001000
00000000
00000010
00000000
00000001
00000000
00001000
00000000
00000010
00000100
00000001
00000000
,
00001001
00000000
00001100
00000000
00010100
00000000
00011000
00000000
01001000
00000000
00000000
10010000
00000000
00000000
10000000
00000000
,
00100000
00000000
01000000
00000000
00010000
00000000
00100000
00000000
00101000
00000000
00001000
00000000
00010000
00000010
00001000
00000010
,
00010000
00000000
00001000
00000000
00011000
00000000
01001000
00000000
00010100
00000000
00000000
00011000
00000000
00000000
00010000
00000000
,
00001000
00000000
00000100
00000000
00001000
00000000
00010000
00000000
00001000
00000000
00010000
00000000
01000000
00010000
00001000
00000000
,
00010000
00000000
00001000
00000000
00011000
00000000
00101000
00000000
00010010
00000000
00000000
00011000
00000000
00000000
00010000
00000000
,
01000000
00000000
10000000
00000000
00100000
00000000
01000000
00000000
10000000
00010000
10000000
00000000
00010000
00100000
01000000
10000000
,
00010000
00000000
00000000
00000000
10000000
01000000
00000000
10000000
01000000
00000000
00100000
00010000
00000000
00000000
01000000
00000000
,
01010000
00000000
00000000
00000000
00001000
00010000
00000000
00001000
00010000
00000000
00000100
00000010
00000000
00000000
00000001
00000000
,
00001001
00000000
00000000
00000000
00001000
00000010
00000000
00000100
00000001
00000000
00000010
00000100
00000000
00000000
00001000
00000000
,
00001100
00000000
00000000
00000000
00000001
00000000
00000100
00000010
00001000
00000000
00000100
00010000
00000000
00001000
01000000
00000000
,
00011000
00000000
00000000
00001000
00100000
00000000
01000000
00000000
01100000
00000000
00000000
00000000
00100000
00001000
00100000
00001000
,
00020000
00000000
00000000
00030010
00000100
00000000
00001000
00000000
00021000
00000000
00030100
00000000
00000010
00000001
00001000
00000010
,
00000200
00000000
00000000
00000301
00001000
00000000
00000100
00000000
00012000
00000000
01003000
00000000
00100000
10000000
00100000
10000000
,
00010000
00100000
10000000
00100000
00010000
10000000
00100000
01000000
00002000
00000000
00203000
00000000
02300000
00000000
03020000
00000000
,
00031000
00000000
00011000
00000000
00010100
00000000
00011000
00000000
01001000
00000000
00000000
10010000
00000000
00000000
00010000
00000000
,
10000000
00000000
00100000
00000000
00010000
00000000
00100000
00000000
10000000
00000000
00010000
00000000
00100000
01000000
10000000
00000000
,
10010000
00000000
01010000
00000000
01001000
00000000
00011000
00000000
00010100
00000000
00000000
00001001
00000000
00000000
00000001
00000000
,
00000010
00000000
00000100
00000000
00001000
00000000
00000010
00000000
00010010
00000000
00010000
00000000
00001000
01000000
00010000
01000000
,
00001000
00000000
00010000
00000000
00011000
00000000
00010100
00000000
01001000
00000000
00000000
00011000
00000000
00000000
00001000
00000000
,
00010000
00000000
00100000
00000000
00010000
00000000
00001000
00000000
00010000
00000000
00001000
00000000
00000010
00001000
00010000
00000000
,
00001000
00000000
00010000
00000000
00011000
00000000
00010010
00000000
00101000
00000000
00000000
00011000
00000000
00000000
00001000
00000000
,
00000100
00000000
00000001
00000010
00000100
00000000
00001000
00000000
00000002
00000000
00000000
00000000
00000000
00000000
00000000
00000000
,
00000103
00000000
00001001
00001000
00000100
00000100
00000001
00000100
,
00001000
00000000
00000000
00000011
00000000
00000000
00000001
00001000
00000010
00000000
00000001
00000000
00000010
00000000
00001000
00000000
,
00000100
00000000
00001000
00000010
00000000
00001000
00000010
00000000
00010000
00000000
00001000
00100000
00000000
00001000
00100000
00000000
,
00010000
00000000
01000000
00000000
10000000
00000000
01000000
00000000
00010000
00100000
01000000
10000000
00010000
00100000
01000000
10000000
,
00010000
00000000
10010000
10000000
01000000
01000000
00010000
01000000
,
10000000
00000000
00000000
00110000
00000000
00000000
10000000
01000000
00100000
00000000
00010000
00000000
10000000
00000000
00100000
00000000
,
10100000
00000000
00000000
00000000
01010000
00000000
00000000
00000000
00001010
00000000
00000000
00000101
00000000
00000000
00001001
00000000
,
00000001
00000000
00000010
00000000
00001000
00000000
00000010
00000000
00000001
00000100
00000010
00001000
00000001
00000100
00000010
00001000
,
00000100
00000000
00001000
00000001
00000000
00001000
00000010
00000000
00001000
00000000
00000100
00000000
00000001
00000000
00000100
00000000
,
00001000
00000000
00010000
00001000
00000000
01000000
00100000
00000000
10020000
00000000
00130000
00000000
10020000
00000000
00130000
00000000
,
00010000
00000000
10000000
00100000
00000000
10000000
00010000
00000000
10000000
00000000
01000000
00000000
00010000
00000000
01000000
00000000
,
10000000
00000000
00010000
01000000
00000000
00001000
00100000
00000000
00001000
00010000
00000100
00010000
00001000
00010000
00000100
00010000
,
00001000
00000000
00010000
00000010
00000000
00000100
00000001
00000000
00000010
00000000
00001000
00000000
00000010
00000000
00000001
00000000
,
00000100
00000000
00000010
00001000
00000000
00000100
00010000
00000000
00012000
00000000
00103000
00000000
00012000
00000000
00103000
00000000
,
00001000
00000000
01000000
00100000
00000000
10000000
00010000
00000000
00100000
00000000
10000000
00000000
00100000
00000000
00010000
00000000
,
01000000
00000000
00010000
00100000
00000000
00001000
00010000
00000000
00001000
01000000
00010000
01000000
00001000
01000000
00010000
01000000
,
00002000
00000000
00000000
00000000
,
00023000
00000000
00000000
00000000
,
00030200
00000000
00000000
00000000
,
00000320
00000000
00000000
00000000
,
00000032
00000000
00000000
00000000
00000000
00000000
00001003
00000002
,
00000000
00000000
00001003
00000020
00000000
00000000
00001030
00000200
,
00000000
00000000
00000000
00000000
,
00010300
00000000
00000000
00010000
00000000
00000000
00010000
00000000
00000000
00001000
00000000
00000000
01000000
00000000
00001000
00000000
,
00011000
00000000
00001000
01000000
00100000
01000000
00001000
00010000
,
00011000
00000000
00000000
00000000
00010000
00000000
00000100
00000000
00000010
00000000
00000100
00000000
00010000
00001000
00010000
00000000
,
00011000
00000000
00100000
00010000
00110000
00000000
10000000
00100000
,
10100000
01010000
00001010
00000101
,
00000010
00000000
00001000
00000100
00000010
00000000
00000001
00000100
00000001
00000000
00001000
00000010
00001000
00000000
00000001
00000000
,
00000010
00000000
00000100
00001000
00000010
00000000
00010000
00001000
01000000
00000000
00010000
00100000
00010000
00000000
10000000
00000000
,
00010000
10000000
00010000
10000000
00010000
10000000
00010000
10000000
00100000
10000000
00100000
01000000
00010000
01000000
00010000
01000000
,
00001000
00000000
00000000
00000000
00010000
00010000
00010000
00010000
,
02000200
00000000
00000000
00000000
03000300
00000000
01000000
00001000
00010000
00000000
00001000
00000000
01010000
00000000
00011000
00000000
,
00020200
00000000
00000000
00000000
00030300
00000000
00000100
00001000
00000020
00000000
00000000
00000000
00000000
00000000
00100030
00000000
,
00200020
00000000
00000000
00300030
00011000
00010000
00100000
00010000
,
00001000
00010000
01000000
10000000
00100000
01000000
00020000
00000000
00000000
10030000
00000000
00000000
,
10010000
00000000
10000000
01000000
00100000
00000000
00010000
01000000
00100000
00000000
00010000
00000000
00001000
01000000
00001000
01000000
,
00010000
00000000
00001000
00000000
00011000
00000000
00010000
00000000
00000100
00000000
00000010
00000000
00000011
00000000
00000100
00000010
,
00001000
00000100
00010010
00010000
00001000
00100000
01010000
10000000
,
00010000
00100000
01000000
00100000
00010000
00100000
01000000
00100000
00010000
01000000
00010000
01000000
00001000
00010000
00001000
00010000
,
00000200
00000000
00000000
00000000
02000300
00000000
00000000
00000000
03001000
00000000
00010000
00000000
00000100
00001000
00000100
00001000
,
00000020
00000000
00000000
00000000
00200030
00000000
00000000
00000000
00301000
00000000
01000000
00001000
00020000
00000000
00000000
00000000
,
00030020
00000000
00000000
00000000
00200030
00000000
00000000
00000000
00301000
00000000
01000000
00000000
00001000
00100000
01000000
10000000
,
00100000
01000000
00000000
00000000
00001000
00100000
00000000
00000000
00001000
00010000
00000000
00000000
02000200
00000000
00000000
00000000
,
03000300
00000000
00000000
00000000
;
