#VERSION:0.83;
#TITLE:雷鳴 feat. 缶缶;
#SUBTITLE:;
#ARTIST:lapix;
#TITLETRANSLIT:RAIMEI feat. KANKAN;
#SUBTITLETRANSLIT:;
#ARTISTTRANSLIT:;
#GENRE:;
#CREDIT:chronon;
#MUSIC:RAIMEI feat. KANKAN.ogg;
#BANNER:RAIMEI feat. KANKAN.png;
#BACKGROUND:RAIMEI feat. KANKAN-bg.png;
#CDTITLE:;
#SAMPLESTART:91.746;
#SAMPLELENGTH:25.114;
#SELECTABLE:YES;
#OFFSET:0.002;
#LASTSECONDHINT:133.115;
#BPMS:0.000=153.000
,108.000=138.000
,200.000=153.000
;
#STOPS:;
#BGCHANGES:;
#FGCHANGES:;

//--------------- dance-single - chronon ----------------
#NOTEDATA:;
#STEPSTYPE:dance-single;
#DESCRIPTION:chronon;
#DIFFICULTY:Beginner;
#METER:3;
#RADARVALUES:0,0,0,0,0;
#NOTES:
0000
0000
0000
0000
,
0000
0000
0000
0000
,
0000
0000
0000
0000
,
0000
0000
0000
0000
,
0000
0000
0000
0000
,
0000
0000
0000
0000
,
0001
0000
0001
0000
,
1000
0000
1000
0000
,
0001
0001
1000
1000
,
0001
0000
0000
0000
,
1000
0000
0100
0000
,
0010
0010
0010
0000
,
0001
0000
0100
0000
,
0010
0010
0010
0000
,
1000
0000
0010
0000
,
0100
0100
0100
0000
,
0001
0000
0010
0000
,
0100
0100
0100
0000
,
1000
0000
0100
0000
,
0001
0000
0100
0000
,
1000
0000
0010
0000
,
0001
0000
0010
0000
,
1000
0000
0010
0000
,
0001
0000
0010
0000
,
1000
0000
0100
0000
,
0010
0000
0001
0000
,
1001
0000
0000
0000
,
0000
0000
0000
0000
,
0000
0000
0000
0000
,
0001
0000
0100
0000
,
0001
0000
0000
0000
,
1000
0000
0100
0000
,
1000
0000
0000
0000
,
0001
0000
0010
0000
,
0001
0000
0000
0000
,
1000
0000
0010
0000
,
1000
0000
0000
0000
,
0001
0001
0001
0000
,
1000
1000
1000
0000
,
0100
0100
0100
0000
,
0010
0010
0010
0000
,
0001
0000
0010
0000
,
0100
0000
0010
0000
,
0001
0000
1000
0000
,
0001
0000
0100
0000
,
0020
0000
0000
0030
,
1000
0000
0010
0010
,
0010
0000
1000
0000
,
0001
0001
0001
0000
,
1000
0000
0001
0000
,
0000
0000
0000
0000
,
0000
0000
0000
0000
,
0000
0000
0000
0000
,
0000
0000
0000
0000
,
1001
0000
0000
0000
,
0000
0000
0000
0000
,
0002
0000
0003
0000
,
2000
0000
3000
0000
,
0001
0000
0010
0000
,
0001
0010
0001
0000
,
1000
0000
0010
0000
,
0100
0000
0001
0000
,
1000
0001
1000
0000
,
0100
0000
0100
0100
,
1000
0000
0100
0000
,
1000
0100
1000
0000
,
0001
0000
0100
0000
,
0001
0100
0001
0000
,
1000
0000
0100
0000
,
0010
0000
0001
0000
,
1000
0001
1000
0000
,
0010
0000
0010
0000
,
1000
1000
1000
0000
,
0001
0001
0001
0000
,
1000
0000
0100
0000
,
0010
0000
0001
0000
,
0001
0000
0001
0000
,
1000
0000
1000
0000
,
0001
0001
1000
1000
,
0001
0000
0000
0000
,
1001
0000
0000
0000
;

//--------------- dance-single - chronon ----------------
#NOTEDATA:;
#STEPSTYPE:dance-single;
#DESCRIPTION:chronon;
#DIFFICULTY:Easy;
#METER:7;
#RADARVALUES:0,0,0,0,0;
#NOTES:
0000
0000
0000
0000
,
0000
0000
0000
0000
,
0000
0000
0000
0000
,
0000
0000
0000
0000
,
0000
0000
0000
0000
,
0000
0000
0000
0000
,
1000
0010
0010
1000
,
0001
0010
0010
0001
,
1000
0100
0010
0001
,
2000
0000
0000
3001
,
1001
0000
1000
0000
0100
0010
0100
0000
,
1000
0001
0100
0010
,
0001
0010
1000
0100
,
1000
0000
0100
0010
0001
0000
1000
0000
,
1001
0000
0001
0000
0100
0010
0100
0000
,
0001
1000
0100
0010
,
1000
0010
0001
0100
,
0001
0000
0100
0010
1000
0000
0001
0000
,
1000
0200
0001
1300
,
0001
0010
0001
0000
1000
0010
1000
0000
,
0001
0200
1000
0301
,
1000
0010
1000
0000
0001
0010
0001
0000
,
1000
0200
0001
1300
,
0001
0010
0001
0000
1000
0010
1000
0000
,
0001
0010
0001
0100
,
0001
1000
0010
0100
,
0110
0000
0000
0000
,
2002
0000
0000
0000
,
3003
0000
0000
0000
,
0001
1000
0100
1000
,
1000
0001
0100
0001
,
0101
0000
1100
0000
,
1010
0000
0011
0000
,
0001
1000
0010
1000
,
1000
0001
0010
0001
,
0011
0000
1010
0000
,
1100
0000
0101
0000
,
1000
0010
0100
0100
,
0001
0010
0100
0100
,
0001
0100
1000
0010
,
0001
0010
1000
0100
,
1000
0100
1100
0001
,
0101
1000
1010
0001
,
0011
0010
0100
1000
,
0001
0001
1000
1000
,
0010
0000
0100
0000
0001
1000
0001
0000
,
1000
0100
0001
0100
,
1000
0010
0100
0010
,
0001
0010
1000
0100
,
1000
0000
0100
0000
0010
0000
0002
2000
,
0000
0000
0000
0000
,
0000
0000
0000
3003
,
2002
0000
0000
0000
,
0000
0000
0000
0000
,
3003
0000
0000
0000
,
0000
0000
0000
0000
,
2000
0000
3000
0000
,
0002
0000
0003
0000
,
1000
0000
0100
0000
0010
0100
1000
0000
,
0001
0100
1000
0100
,
0001
0100
0001
0000
1000
0100
1000
0000
,
0001
0010
0001
0000
1000
0010
1000
0000
,
0100
0100
0100
1000
,
0100
0000
0010
0000
0001
1000
0001
0000
,
1000
0000
0010
0000
0100
0010
1000
0000
,
0001
0010
1000
0010
,
0001
0000
0010
0000
0100
0010
0001
0000
,
1000
0010
0001
0010
,
1000
0010
1000
0000
0001
0010
0001
0000
,
1000
0100
1000
0000
0001
0100
0001
0000
,
0010
0100
1000
0010
,
0100
0000
0001
1000
0001
0000
0000
0000
,
1000
0000
0100
0010
0100
0000
1000
0000
,
0001
0000
0100
0010
0100
0000
0001
0000
,
1000
0000
0100
0010
0001
0000
1000
0000
,
0001
0000
0100
0010
1000
0000
0001
0000
,
1000
0010
0010
1000
,
0001
0010
0010
0001
,
1000
0010
0100
0001
,
2000
0000
0000
3001
,
1001
0000
0000
0000
;

//--------------- dance-single - chronon ----------------
#NOTEDATA:;
#STEPSTYPE:dance-single;
#DESCRIPTION:chronon;
#DIFFICULTY:Medium;
#METER:11;
#RADARVALUES:0,0,0,0,0;
#NOTES:
0000
0000
0000
0000
,
0000
0000
0000
0000
,
0000
0000
0000
0000
,
0000
0000
0000
0000
,
0000
0000
0000
0000
,
0000
0000
0000
0000
,
0001
0000
0100
0000
0000
0010
0000
0000
0100
0000
0000
0001
0000
2000
0000
0000
,
0010
3002
0000
0010
1003
0100
0010
0100
,
0001
0000
0100
0000
0010
0000
0000
0001
0000
0000
1000
0000
0010
0000
0100
0000
,
1000
0000
0100
0000
0010
0000
0000
2000
0000
0000
0000
0000
3001
0000
0000
0000
,
1001
0000
1000
0001
0010
0100
1000
0000
,
0001
0000
1000
0000
0010
0000
0100
0000
0001
0000
1000
0000
0000
1000
0000
0000
,
0001
0001
1000
0001
0001
0010
0100
0000
,
1000
0000
0000
0010
0000
0200
0000
1000
0000
0000
1300
0000
0100
0000
0001
0000
,
1001
0000
0001
1000
0100
0010
0001
0000
,
1000
0000
0001
0000
0100
0000
0010
0000
1000
0000
0001
0000
0000
0001
0000
0000
,
1000
1000
0001
1000
1000
0100
0010
0000
,
0110
0000
0000
0110
0000
0000
0010
0000
0001
0000
0000
0000
0200
0000
0000
0000
,
0301
0000
0100
0000
0020
0000
0000
0000
0001
0000
0000
1030
0000
0001
0000
0010
,
0000
0001
0010
1000
0001
0100
1000
0000
,
1000
0000
0100
0000
0020
0000
0000
0000
1000
0000
0000
0031
0000
1000
0000
0010
,
0000
1000
0010
0001
1000
0100
0001
0000
,
0001
0000
0100
0000
0020
0000
0000
0000
0001
0000
0000
1030
0000
0001
0000
0010
,
0000
0001
0010
1000
0001
0100
1000
0020
,
0000
0130
0001
0020
0130
1000
0020
0130
,
0001
0020
0130
1000
0001
1000
0100
1000
,
1100
0000
0000
0000
,
2200
0000
0000
3300
,
2002
0000
0000
3003
,
0001
0000
0000
0100
0000
0001
0000
0000
1000
0000
0000
0100
0000
1000
0000
0000
,
1000
0000
0100
0000
0010
0000
0001
0000
0100
0000
0000
0001
0000
1000
0000
0000
,
1010
0000
0000
1000
0000
0001
0000
0000
0011
0000
0000
0001
0000
1000
0000
0000
,
0010
0000
0100
0000
1000
0000
0100
0000
0010
0100
0000
0000
0100
0001
0000
0000
,
1000
0000
0000
0100
0000
1000
0000
0000
0001
0000
0000
0100
0000
0001
0000
0000
,
0100
0001
0100
0001
1000
0001
1000
0100
1000
0100
0000
0000
,
1100
0000
0000
1000
0000
0001
0000
0000
0101
0000
0000
0001
0000
1000
0000
0000
,
0010
1000
0010
1000
0001
1000
0001
0010
0001
0010
0000
0000
,
0011
0000
0000
0001
0000
0100
0000
0000
1010
0000
0000
1000
0000
0100
0000
0000
,
1000
0100
0010
0100
0001
0100
0020
0000
,
0031
0010
1000
0010
0001
0100
1000
0100
,
0001
0001
1000
1000
0010
0100
0001
0000
,
0102
0000
0000
0000
0100
0000
0000
1003
0000
0000
2000
0000
0100
0000
0000
3001
,
0000
0000
0001
0000
0100
0000
0000
0010
0000
0100
0000
0000
1000
0000
0100
0000
,
0001
0000
0000
0000
1000
0000
0000
0001
0000
0000
0010
0000
0100
0000
0000
0000
,
1000
0000
0100
1000
0000
0000
1000
0000
0001
0000
0100
0001
0000
0000
0001
0000
,
1000
0000
0010
0100
0001
1000
0001
0010
,
0001
0000
0001
0000
1000
0000
1000
0000
0100
0000
0000
0010
0000
0000
0001
0000
,
1000
0000
0001
0100
0010
1000
0001
0000
,
1000
0000
0100
0010
0000
0000
0001
0000
0002
0003
0200
0320
0030
0000
2000
3000
,
0001
0000
1000
0000
0001
0000
0000
0010
0000
0000
0100
0000
0010
0000
0220
0000
,
0000
0000
0000
0000
,
0000
0000
0000
0000
,
0330
0000
0000
0000
,
0000
0000
0000
0000
,
2002
0000
0000
0000
,
3003
0000
0000
0000
,
0002
0000
0203
0000
,
0320
0000
2030
3001
,
1000
0000
0000
0001
0000
0010
0001
0000
1000
0000
0000
0001
0000
0000
0100
0000
,
0001
0100
0010
1000
0200
0000
1300
0000
,
1000
0100
0001
1000
0010
0001
0100
0000
,
0001
0100
0010
0000
1000
0100
0010
0000
,
0001
0000
0000
0001
0000
0000
0001
0000
1000
0000
0010
0000
0100
0000
0001
0000
,
1000
0000
0020
0000
0100
0100
0130
0000
,
0001
0000
0000
1000
0000
0100
1000
0000
0001
0000
0000
1000
0000
0000
0010
0000
,
1000
0000
0000
0010
0000
0000
0200
0000
1000
0000
0000
0000
0301
0000
0000
0000
,
1000
0000
0000
0001
0000
0100
0001
0000
1000
0000
0000
0001
0000
0000
0010
0000
,
0001
0010
0100
1000
0020
0000
1030
0000
,
1000
0010
0001
1000
0100
0001
0010
0000
,
0001
0010
0100
0000
1000
0010
0100
0000
,
0001
0000
1000
0000
0010
0000
1000
0000
0100
0000
0000
0000
1000
0000
0000
0001
,
0000
1000
0002
0000
1000
0000
1000
0000
2003
0000
0000
0000
3001
0000
0000
0000
,
1000
0010
0100
0010
1000
0001
0010
0002
,
0010
2003
0000
0010
3001
0010
0100
0010
,
1000
0000
0010
0000
0100
0000
0000
1000
0000
0000
0001
0000
0100
0000
0010
0000
,
0001
0000
0010
0000
0200
0000
0000
0001
0000
0000
0001
0000
0301
0000
0000
0000
,
0001
0000
0100
0000
0000
0000
0010
0000
0100
0000
0000
0001
0000
2000
0000
0000
,
0010
3002
0000
0010
1003
0100
0010
0100
,
0001
0000
0100
0000
0010
0000
0000
0001
0000
0000
1000
0000
0010
0000
0100
0000
,
1000
0000
0100
0000
0010
0000
0000
2000
0000
0000
0000
0000
3001
0000
0000
0000
,
1001
0000
0000
0000
;

//--------------- dance-single - chronon ----------------
#NOTEDATA:;
#STEPSTYPE:dance-single;
#DESCRIPTION:chronon;
#DIFFICULTY:Hard;
#METER:14;
#RADARVALUES:0,0,0,0,0;
#NOTES:
0000
0000
0000
0000
,
0000
0000
0000
0000
,
0000
0000
0000
0000
,
0000
0000
0000
0000
,
0000
0000
0000
0000
,
0000
0000
0000
0000
,
1000
0000
0100
0000
0000
0001
0000
0000
0100
0000
0000
0010
0000
0200
0000
0000
,
0010
0000
1300
0000
0000
0200
1000
0000
0310
0000
0001
0000
0010
0000
0010
0000
,
1000
0000
0010
0000
0100
0000
1000
0001
0000
0100
0001
0000
0100
0000
0100
0000
,
1000
0000
0100
0000
0010
0000
1000
0001
0000
0000
1000
0000
0010
0000
1000
0000
,
1010
0000
0000
0000
0010
0000
1000
0010
0000
0100
0001
0000
1000
0000
0001
0000
,
0010
0000
0100
0000
1000
0000
0010
0000
1000
0000
0001
0000
0000
0100
0000
0000
,
0001
0100
0001
0000
1000
0000
0001
0010
0001
0000
1000
0000
0001
0000
0100
0000
,
0010
0000
1000
0010
0000
0200
0000
1000
0000
0000
1300
0000
0100
0000
0001
0000
,
0101
0000
0000
0000
0100
0000
0001
0100
0000
0010
1000
0000
0001
0000
1000
0000
,
0100
0000
0010
0000
0001
0000
0100
0000
0001
0000
1000
0000
0000
0010
0000
0000
,
1000
0010
1000
0000
0001
0000
1000
0100
1000
0000
0001
0000
1000
0000
0010
0000
,
0100
0000
0001
0100
0000
0010
1000
0000
0001
0000
0000
0000
1001
0000
0000
0000
,
1100
0000
1000
0100
0010
0000
0200
0000
1000
0000
0310
0001
0000
0100
0000
0010
,
0000
0000
1000
0000
0010
0000
0001
0000
1000
0000
0100
0000
0001
0100
0000
0000
,
0101
0000
0001
0100
0010
0000
0200
0000
0001
0000
0310
1000
0000
0100
0000
0010
,
0000
0000
0001
0000
0010
0000
1000
0000
0001
0000
0100
1000
0000
0000
0100
0000
,
1100
0000
1000
0100
0010
0000
0200
0000
1000
0000
0310
0001
0000
0100
0000
0010
,
0000
1000
0010
0001
1000
0100
0001
0020
,
0000
0130
1000
0020
0130
0001
0020
0130
,
1000
0020
0130
0002
0100
2003
0100
3001
,
1000
0000
0100
0000
0010
0000
0001
2000
0000
0000
3001
0000
0100
0000
0000
0000
,
0202
0000
0000
0303
,
2002
0000
0000
0000
0000
0000
0000
0000
3003
0000
1000
0000
0001
0000
1000
0100
,
0010
0000
0010
0001
0000
0100
0000
0100
0010
0000
0010
1000
0000
0100
0000
0100
,
1000
0000
0100
0000
0010
0000
0001
0000
0100
0000
0100
0010
0000
1000
0000
0000
,
2010
0000
3001
0010
0000
0001
0000
0000
0012
0000
1003
0010
0000
1000
0000
0000
,
0001
0100
0010
0100
1000
0000
0100
0000
0020
1000
0000
0000
0230
0001
0000
0000
,
0310
0000
0010
1000
0000
0100
0000
0100
0010
0000
0010
0001
0000
0100
0000
0000
,
0001
0100
0010
1000
0100
0010
0001
0010
0100
1000
0000
0000
,
2100
0000
3001
0100
0000
0001
0000
0000
0102
0000
1003
0100
0000
1000
0000
0000
,
1000
0000
0100
0000
0010
0000
0001
0000
0100
0000
0010
0000
1000
0000
0010
0000
0100
0000
2000
0000
0000
3000
0000
0000
,
1100
0000
1000
0100
0000
0001
0000
0000
0011
0000
0001
0010
0000
1000
0000
0010
,
0100
0000
1000
0000
0001
0000
1000
0000
0010
0000
0100
0010
0100
0001
0000
0000
,
0102
1003
2010
3001
0012
1003
2100
3001
,
0110
0000
1000
0000
0110
0000
0001
0000
2001
0000
3100
0000
1000
0100
0010
0100
,
1000
0000
0100
0000
0010
0000
0001
0200
0000
0310
0100
0000
0010
0000
1000
0200
,
0000
0310
0100
0000
1000
0000
0001
1000
0000
0010
0100
0000
1000
0000
0100
0000
,
0001
0000
0100
0000
0010
0000
1000
0001
0000
0010
0100
0000
1000
0001
0000
0100
,
0001
0000
0100
0010
0000
1000
0100
0000
1000
0000
0100
0010
0000
0001
0100
0000
,
0201
0000
0310
1000
0001
1000
0100
0010
,
0100
0000
0100
0000
1000
0000
1000
0000
0001
0000
1000
0001
0000
1000
0010
0000
,
1010
0000
0010
1000
0001
0100
0001
0010
,
0001
0000
1000
0001
0000
0010
0001
0000
2000
3000
0002
2003
3000
0020
2030
3000
,
0010
0000
1000
0000
0100
0000
0010
0001
0000
0010
0100
0000
0110
0000
2002
0000
,
0000
0000
0000
0000
,
0000
0000
0000
0000
,
3003
1000
0001
1000
,
0010
0100
0001
1000
,
2002
0000
0000
3003
,
0001
1000
0010
1000
0001
1000
0100
0000
,
2000
0000
3200
0000
,
0320
0000
0031
1001
,
0201
0000
0000
0310
0000
1000
0100
0000
1200
0000
0000
0310
0000
0001
0100
0000
,
0001
0000
0100
0010
0000
1000
0001
0000
1001
0000
0000
0000
1000
0000
0001
0000
,
1000
0000
0100
0000
0001
0000
1000
0000
0010
0000
0001
0010
0000
0100
1000
0000
,
0001
0000
1000
0010
0000
0100
0001
0000
0100
0000
0010
1000
0000
0001
1000
0000
,
0100
0000
0000
0100
0000
0000
0100
0010
0100
0000
1000
0001
1000
0000
0010
0000
,
0100
0010
1000
0001
1000
0100
1000
0000
,
1200
0000
0000
0310
0000
0001
0100
0000
0201
0000
0000
0310
0000
1000
0100
0000
,
1000
0000
0100
0010
0000
0001
0020
0000
0001
0000
0230
0000
1000
0000
0310
0000
,
0021
0000
0000
0130
0000
1000
0010
0000
1020
0000
0000
0130
0000
0001
0010
0000
,
0001
0000
0010
0100
0000
1000
0001
0000
1001
0000
0000
0000
1000
0000
0001
0000
,
1000
0000
0010
0000
0001
0000
1000
0000
0100
0000
0001
0100
0000
0010
1000
0000
,
0001
0000
1000
0100
0000
0010
0001
0000
0100
0000
0001
0100
0000
0010
0100
0000
,
0001
0000
0100
0000
0010
0000
1000
0000
0100
0000
0010
0000
0001
0000
0010
0100
,
0000
0010
0100
1000
0001
0000
1000
0000
2002
0000
0000
0000
3003
0000
0000
0000
,
0001
0000
0100
0010
0000
0100
1000
0000
0100
0000
0010
0100
0000
0001
0200
0000
,
0001
0310
0200
0010
0301
1000
0100
0100
,
0001
0000
0100
0000
1000
0000
0001
1000
0000
0010
1000
0000
0010
0000
0010
0000
,
0001
0000
0010
0000
1000
0000
0001
1000
0000
0100
1000
0000
0100
0000
0000
0000
,
1000
0000
0100
0000
0000
0000
0001
0000
0100
0000
0000
0010
0000
0200
0000
0000
,
0010
0000
1300
0000
0000
0200
1000
0000
0310
0000
0001
1000
0001
0000
0100
0000
,
1000
0000
0100
0000
0010
0000
0100
0001
0000
0000
1000
0001
1000
0000
0100
0000
,
0001
0000
0100
0000
0010
0000
0100
1000
0000
0000
0001
0000
1000
0000
0000
0000
,
1001
0000
0000
0000
;
