#VERSION:0.83;
#TITLE:QUICK RESULT;
#SUBTITLE:;
#ARTIST:AKIRA YAMAOKA;
#TITLETRANSLIT:;
#SUBTITLETRANSLIT:;
#ARTISTTRANSLIT:;
#GENRE:GROUND TECHNO;
#CREDIT:graphics by forcednature;
#MUSIC:QUICK RESULT.ogg;
#BANNER:QUICK RESULT.png;
#BACKGROUND:QUICK RESULT-bg.png;
#CDTITLE:;
#SAMPLESTART:30.222;
#SAMPLELENGTH:15.000;
#SELECTABLE:YES;
#OFFSET:0.000;
#BPMS:0.000=135.000;
#STOPS:;
#TIMESIGNATURES:0.000=4=4;
#BGCHANGES:;
#FGCHANGES:;

//--------------- dance-single - Extraordiberry ----------------
#NOTEDATA:;
#STEPSTYPE:dance-single;
#DESCRIPTION:Extraordiberry;
#DIFFICULTY:Beginner;
#METER:2;
#RADARVALUES:0,0,0,0,0;
#CREDIT:Extraordiberry;
#NOTES:
0000
0000
0000
0000
,
0000
0000
0000
0000
,
0000
0000
0000
0000
,
0000
0000
0000
0000
,
0000
0000
0000
0000
,
1000
0000
0000
0000
,
0100
0000
0000
0000
,
0010
0000
0000
0000
,
0001
0000
0000
0000
,
1000
0000
1000
0000
,
1000
0000
0000
0000
,
0001
0000
0001
0000
,
0001
0000
0000
0000
,
1000
0000
0010
0000
,
1000
0000
0000
0000
,
0001
0000
0010
0000
,
0001
0000
0000
0000
,
1000
0000
1000
0000
,
0001
0000
0001
0000
,
1000
0000
0010
0000
,
1000
0000
0000
0000
,
0001
0000
0000
0000
,
0010
0000
0000
0000
,
0100
0000
0000
0000
,
1000
0000
1000
0000
,
0001
0000
0000
0000
,
0000
0000
0000
0000
,
0100
0000
0000
0000
,
0000
0000
0000
0000
,
0010
0000
0000
0000
,
0000
0000
0000
0000
,
1000
0000
0000
0000
,
0000
0000
0000
0000
,
0001
0000
0000
0000
,
0001
0000
0001
0000
,
1000
0000
0000
0000
,
1000
0000
0000
0000
,
0001
0000
0000
0000
,
0100
0000
0000
0000
,
0010
0000
0000
0000
,
0010
0000
0010
0000
,
1000
0000
0100
0000
,
1000
0000
0000
0000
,
0001
0000
0100
0000
,
0001
0000
0000
0000
,
1000
0000
0100
0000
,
1000
0000
0000
0000
,
0001
0000
0100
0000
,
0001
0000
0000
0000
,
1000
0000
0100
0000
,
0010
0000
0000
0000
,
0001
0000
0100
0000
,
0010
0000
0000
0000
,
1000
0000
0100
0000
,
0010
0000
0001
0000
,
0100
0000
0100
0000
,
0001
0001
0001
0000
;

//--------------- dance-single - Extraordiberry ----------------
#NOTEDATA:;
#STEPSTYPE:dance-single;
#DESCRIPTION:Extraordiberry;
#DIFFICULTY:Easy;
#METER:6;
#RADARVALUES:0,0,0,0,0;
#CREDIT:Extraordiberry;
#NOTES:
0000
0000
0000
0000
,
0000
0000
0000
0000
,
0000
0000
0000
0000
,
0000
0000
0000
0000
,
0000
0000
0000
0000
,
1000
0001
0100
0000
,
0001
1000
0100
0000
,
1000
0010
0100
0000
,
0001
0010
0100
0000
,
1000
0010
0100
0010
,
1000
0001
1000
0000
,
0001
0010
0100
0010
,
0001
1000
1000
0000
,
0001
0100
1000
0100
,
0001
1000
0001
0000
,
1000
0100
0001
0100
,
1000
0001
1000
0000
,
0001
0001
0100
0000
,
0010
0010
1000
0000
,
0001
0010
1000
0010
,
0001
1000
0001
0000
,
1000
0010
0001
0010
,
1000
0001
1000
0000
,
0001
0010
1000
0010
,
0001
1000
0001
0000
,
1000
0010
0100
0000
,
0001
0000
1000
0000
,
0001
0010
0100
0000
,
1000
0000
0001
0000
,
0100
0010
1000
0000
,
0001
0000
1000
0000
,
0100
0010
0001
0000
,
1000
0000
0010
0000
,
1000
1000
0100
0100
,
0010
0010
0001
0000
,
1000
1000
0010
0000
,
0100
0100
0001
0000
,
1000
1000
0100
0000
,
0010
0010
0001
0001
,
0100
0100
0010
0000
,
1000
1000
0001
0000
,
1000
0100
0010
0000
,
0001
0100
0010
0000
,
1000
0100
0001
0100
,
1000
0001
1000
0000
,
0001
0100
0010
0000
,
1000
0100
0010
0000
,
0001
0100
1000
0100
,
0001
1000
0001
0001
,
1000
0100
0001
0000
,
0100
1000
0001
0000
,
1000
0010
0001
0010
,
1000
0001
1000
0000
,
0001
0001
0010
0000
,
0100
0100
1000
0000
,
0001
0001
0100
0100
,
1000
1000
0100
0100
;

//--------------- dance-single - Extraordiberry ----------------
#NOTEDATA:;
#STEPSTYPE:dance-single;
#DESCRIPTION:Extraordiberry;
#DIFFICULTY:Medium;
#METER:10;
#RADARVALUES:0,0,0,0,0;
#CREDIT:Extraordiberry;
#NOTES:
0000
0000
0000
0000
,
0000
0000
0000
0000
,
0000
0000
0000
0000
,
0000
0000
0000
0000
,
0000
0000
0000
0000
,
1000
0100
0010
0000
0010
0100
1000
0000
,
0001
0100
0010
0000
0010
0100
0001
0000
,
1000
0100
0010
0000
0010
0001
1000
0000
,
0001
0100
0010
0000
0010
1000
0001
0000
,
1000
0100
0010
0100
1000
0010
0100
0000
,
0001
0010
0100
0010
0001
1000
1000
0000
,
0001
0100
0010
0100
0001
0010
0100
0000
,
1000
0010
0100
0010
1000
0000
0001
0000
,
1000
0000
1000
0100
0001
0100
1000
0000
,
0001
0000
0001
0100
1000
0100
0001
0000
,
1000
0000
1000
0100
0001
0100
1000
0000
,
0001
0000
0001
0100
1000
0100
0001
0000
,
1000
1000
0100
0100
0010
0010
0001
0000
,
1000
1000
0010
0010
0100
0100
0001
0000
,
1000
0000
1000
0100
0001
0100
1000
0000
,
0001
0000
0001
0010
1000
0010
0001
0000
,
1000
1000
0010
0000
1000
1000
0100
0000
,
0100
0100
1000
0000
0010
0010
1000
0000
,
0001
0000
0001
0010
1000
0010
0001
0000
,
1000
0000
1000
0010
0001
0010
0000
0000
,
1000
0100
0010
0100
1000
1000
0000
0000
,
0001
0100
0010
1000
,
0001
0010
0100
0010
0001
0001
0000
0000
,
1000
0010
0100
0001
,
1000
0100
0010
0100
1000
1000
0000
0000
,
0001
0100
0010
0000
0010
0100
0001
0000
,
0001
0010
0100
0010
0001
0001
0000
0000
,
1000
0000
1000
0010
0001
0010
1000
0000
,
0001
0001
0010
0000
0001
0001
0100
0000
,
0001
0001
0010
0100
1000
1000
0010
0000
,
1000
1000
0100
0010
0001
0001
0100
0000
,
0001
0001
0010
0100
1000
1000
0000
0000
,
0001
0001
0100
0010
1000
1000
0100
0000
,
1000
1000
0010
0000
1000
1000
0100
0000
,
1000
1000
0010
0100
0001
0001
0010
0000
,
0001
0001
0100
0010
1000
1000
1001
0000
,
0001
0100
0010
0100
0001
0010
0100
0000
,
1000
0010
0100
0010
1000
0100
0010
0000
,
0001
0100
1000
0100
0001
0010
0100
0000
,
1000
0001
1001
0000
,
1000
0100
0010
0100
1000
0010
0100
0000
,
0001
0010
0100
0010
0001
0100
0010
0000
,
1000
0100
0001
0100
1000
0010
0100
0000
,
0001
1000
1001
0110
,
1000
0100
0010
0100
1000
0010
0100
0000
,
0001
0100
0010
0100
0001
0010
0100
0000
,
1000
0010
0001
0010
1000
0100
0010
0000
,
0001
1000
1001
0000
,
0001
0001
0100
0100
1000
0100
0001
0000
,
1000
1000
0100
0100
0001
0100
1000
0000
,
0001
0001
0100
0000
1000
1000
0100
0000
,
0001
0001
0010
0010
1000
1000
0010
0010
;

//--------------- dance-single - Extraordiberry ----------------
#NOTEDATA:;
#STEPSTYPE:dance-single;
#DESCRIPTION:Extraordiberry;
#DIFFICULTY:Hard;
#METER:14;
#RADARVALUES:0,0,0,0,0;
#CREDIT:Extraordiberry;
#NOTES:
0000
0000
0000
0000
,
0000
0000
0000
0000
,
0000
0000
0000
0000
,
0000
0000
0000
0000
,
0000
0000
0000
0000
,
1000
0000
0100
0000
0010
0000
0000
0001
0100
0000
0010
0000
1000
0000
0000
0000
,
0001
0000
0010
0000
0100
0000
0000
1000
0010
0000
0100
0000
0001
0000
0000
0000
,
1000
0000
0100
0000
0010
0000
0000
0001
0100
0000
0010
0000
1000
0000
0000
0000
,
0001
0000
0010
0000
0100
0000
0000
1000
0010
0000
0100
0000
0001
0000
0000
0000
,
1000
0100
0010
0000
0001
0000
0100
0000
0010
0000
0100
0000
0101
0000
0000
0000
,
0001
0010
0100
0000
1000
0000
0010
0000
0100
0000
0010
0000
1000
0000
0000
0000
,
0001
0010
0100
0000
1000
0000
0010
0000
0100
0000
0010
0000
1010
0000
0000
0000
,
1000
0100
0010
0000
0001
0000
1000
0000
1001
0000
0000
0000
0001
0000
0000
0000
,
1000
0100
0001
0100
0010
0001
1000
0000
,
0001
0000
0100
0000
1000
0000
0100
0000
0010
0000
1000
0000
0001
0000
0000
1000
,
0001
0010
1000
0010
0100
1000
0001
0000
,
1000
0000
0010
0000
0001
0000
0010
0000
0100
0000
0001
0000
1000
0000
0000
0001
,
0010
0010
0001
0001
0100
0100
0110
0000
,
0010
0010
1000
1000
0100
0100
0110
0010
,
0001
0100
1000
0100
0010
1000
0001
0000
,
1000
0100
0001
1000
0001
0100
1000
0000
,
0001
0100
0001
0100
0010
0000
0000
0000
1000
0100
1000
0100
0010
0000
0000
0000
,
0001
0100
0001
0100
0010
0000
0000
0000
1000
0100
1000
0100
0010
0000
0001
0000
,
1000
0010
0001
1000
0001
0010
1000
0000
,
0001
0010
1000
0001
1000
0010
0000
0000
,
0001
0100
0001
0000
0100
0010
0100
0000
0010
1000
0010
1000
0000
0000
0000
0000
,
0001
0000
0010
0000
0100
0000
0000
1000
0010
0000
0100
0000
0001
0000
0000
0000
,
1000
0100
1000
0000
0100
0010
0100
0000
0010
0001
0010
0001
0000
0000
0000
0000
,
1000
1000
0010
0010
1000
1000
0100
0000
,
1000
0010
1000
0000
0010
0100
0010
0000
0100
0001
0100
0001
0000
0000
1000
0000
,
0001
0010
0100
0000
1000
0010
0100
0000
,
0001
0010
0001
0000
0010
0100
0010
0000
0100
1000
0100
1000
0000
0000
0001
0000
,
1000
0010
0001
1000
0001
0010
1000
0000
,
0001
0010
0001
0010
0100
0000
0000
0000
1000
0010
1000
0010
0100
0000
0000
0000
,
0001
0010
0001
0000
0010
0100
0010
0100
1000
0000
0010
0000
0110
0000
0000
0000
,
1000
0000
1000
0000
0100
0010
0100
0010
0001
0000
0100
0000
0110
0000
0000
0000
,
0001
0010
0001
0010
0100
0000
0100
0000
1000
0000
0010
0000
0000
0000
0000
0000
,
1000
0000
1000
0000
0010
0100
0010
0100
0001
0000
0010
0000
0110
0000
0000
0000
,
0001
0100
0001
0100
0010
0000
0000
0000
1000
0100
1000
0100
0010
0000
0000
0000
,
0001
0100
0001
0000
0100
0010
0100
0010
1000
0000
0100
0000
0110
0000
0000
0000
,
1000
0000
1000
0000
0010
0100
0010
0100
0001
0000
1000
0000
1001
0000
0000
0000
,
1000
0000
0100
0000
1000
0100
0000
0010
0100
0000
0001
0100
0000
0000
0001
0000
,
0100
0000
1000
0000
0001
0100
0000
0010
0100
0000
1000
0100
0000
0000
1000
0000
,
0100
0000
0001
0000
1000
0100
0000
0001
0100
0000
0001
1000
0000
0000
0001
0000
,
0100
1000
0001
0100
0110
0000
1000
0000
,
0001
0000
0010
0000
0001
0010
0000
0100
0010
0000
1000
0010
0000
0000
1000
0000
,
0010
0000
0001
0000
1000
0010
0000
0100
0010
0000
0001
0010
0000
0000
0001
0000
,
0010
0000
1000
0000
0001
0010
0000
1000
0010
0000
1000
0001
0000
0000
1000
0000
,
0010
0001
1000
0010
0110
0000
1001
0000
,
1000
0000
0100
0000
0001
0100
0000
0001
1000
0000
0001
0100
0000
0000
0010
0000
,
0001
0000
0100
0000
1000
0100
0000
1000
0001
0000
1000
0100
0000
0000
0010
0000
,
1000
0000
0001
0000
0010
1000
0000
0001
1000
0000
0010
1000
0000
0000
0010
0000
,
0100
1000
0001
0100
0110
0000
0001
0000
,
1000
1000
0010
0010
0001
0001
1000
0000
,
0001
0001
0010
0010
1000
1000
0001
1000
,
0001
0010
0001
0010
0100
0000
0000
0000
1000
0010
1000
0010
0100
0000
0000
0000
,
0001
1000
0001
1000
0100
0010
0100
0010
1000
0001
1000
0001
0100
0010
0100
0010
;

//--------------- dance-double - Extraordiberry ----------------
#NOTEDATA:;
#STEPSTYPE:dance-double;
#DESCRIPTION:Extraordiberry;
#DIFFICULTY:Easy;
#METER:6;
#RADARVALUES:0,0,0,0,0;
#CREDIT:Extraordiberry;
#NOTES:
00000000
00000000
00000000
00000000
,
00000000
00000000
00000000
00000000
,
00000000
00000000
00000000
00000000
,
00000000
00000000
00000000
00000000
,
00000000
00000000
00000000
00000000
,
10000000
00000000
01000000
00000000
,
00010000
00000000
00001000
00000000
,
00000010
00000000
00000001
00000000
,
00000100
00000000
00001000
00000000
,
00010000
00001000
01000000
00000000
,
00100000
10000000
00010000
00000000
,
10000000
01000000
00100000
00000000
,
00010000
00100000
00001000
00000000
,
00010000
00001000
00000010
00000000
,
00000001
00000010
00001000
00000000
,
00010000
00001000
00000100
00000000
,
00000001
00000100
00001000
00000000
,
00010000
00010000
00001000
00000000
,
00001000
00001000
00010000
00000000
,
00001000
00010000
01000000
00000000
,
10000000
00100000
00010000
00000000
,
00001000
00001000
01000000
00000000
,
01000000
01000000
00001000
00000000
,
00010000
00001000
00000100
00000000
,
00000001
00000010
00001000
00000000
,
00010000
00001000
00100000
00000000
,
01000000
00000000
10000000
00000000
,
00010000
01000000
00100000
00000000
,
10000000
00000000
01000000
00000000
,
00100000
00001000
00010000
00000000
,
00000010
00000000
00000010
00000000
,
00001000
00000100
00000010
00000000
,
00000001
00000100
00001000
00000000
,
00010000
00010000
00001000
00001000
,
00100000
00100000
00010000
00000000
,
10000000
10000000
01000000
00000000
,
00100000
00100000
00001000
00000000
,
00001000
00001000
00010000
00000000
,
00000010
00000010
00001000
00001000
,
00000001
00000001
00000100
00000000
,
00000100
00000100
00001000
00000000
,
00010000
00001000
00100000
00000000
,
00010000
01000000
00100000
00000000
,
10000000
01000000
00010000
00000000
,
00001000
00010000
00011000
00000000
,
00001000
00010000
00000010
00000000
,
00001000
00000100
00000010
00000000
,
00000001
00000100
00001000
00000000
,
00010000
00001000
00011000
00000000
,
00001000
00010000
00100000
00000000
,
10000000
00100000
00010000
00000000
,
00001000
00010000
01000000
00000000
,
10000000
00100000
00010000
00000000
,
00001000
00001000
00010000
00000000
,
00001000
00001000
00000100
00000000
,
00000001
00000001
00000010
00000010
,
00001000
00010000
01000000
10000000
;

//--------------- dance-double - Extraordiberry ----------------
#NOTEDATA:;
#STEPSTYPE:dance-double;
#DESCRIPTION:Extraordiberry;
#DIFFICULTY:Medium;
#METER:11;
#RADARVALUES:0,0,0,0,0;
#CREDIT:Extraordiberry;
#NOTES:
00000000
00000000
00000000
00000000
,
00000000
00000000
00000000
00000000
,
00000000
00000000
00000000
00000000
,
00000000
00000000
00000000
00000000
,
00000000
00000000
00000000
00000000
,
10000000
01000000
00010000
00001000
,
00000010
00000001
00000100
00001000
,
00010000
00100000
10000000
01000000
,
00010000
00001000
00000010
00000001
,
00001000
00000010
00000100
00000010
00010000
00001000
00010000
00000000
,
00001000
00010000
00001000
01000000
00010000
10000000
10000000
00000000
,
00010000
00100000
01000000
00100000
00001000
00010000
00001000
00000000
,
00010000
00001000
00010000
00000100
00001000
00000000
00000000
00000000
,
00000001
00000000
00000001
00000100
00001000
00010000
00001000
00000000
,
00010000
00000000
00010000
00100000
10000000
00010000
10000000
00000000
,
00010000
00000000
10000000
01000000
00010000
00001000
00010000
00000000
,
00001000
00000000
00001000
00000010
00000001
00001000
00000001
00000000
,
00001000
00001000
00000010
00000010
00010000
00010000
00001000
00000000
,
00100000
00100000
00010000
00010000
10000000
10000000
00010000
00000000
,
10000000
00000000
10000000
01000000
00010000
00001000
00010000
00000000
,
00001000
00000000
00001000
00000100
00000001
00001000
00000001
00000000
,
00000100
00000100
00000010
00000000
00010000
00010000
00001000
00000000
,
00001000
00001000
00100000
00000000
01000000
01000000
10000000
00000000
,
00010000
00000000
10000000
00100000
00010000
00001000
00010000
00000000
,
00001000
00000000
00001000
00000100
00000001
00001000
00000000
00000000
,
00000001
00001000
00000001
00001000
00000010
00000100
00000000
00000000
,
00001000
00010000
00100000
00100000
,
10000000
00010000
10000000
00010000
00100000
01000000
00000000
00000000
,
00010000
00001000
00000010
00000010
,
00000001
00001000
00000001
00001000
00000010
00000100
00000000
00000000
,
00001000
00010000
00001000
01000000
00010000
10000000
10000000
00000000
,
10000000
00010000
10000000
00010000
00100000
01000000
00000000
00000000
,
00010000
00001000
00010000
00001000
00000010
00000001
00001000
00000000
,
00000001
00000001
00000100
00000000
00000010
00000010
00010000
00000000
,
00001000
00001000
01000000
00100000
10000000
10000000
01000000
00000000
,
10000000
10000000
00100000
01000000
00010000
00010000
00100000
00000000
,
00001000
00001000
00010000
00000010
00001000
00001000
00000000
00000000
,
00000001
00000001
00000010
00000100
00001000
00001000
00000010
00000000
,
00010000
00010000
00001000
00000000
01000000
01000000
00010000
00000000
,
10000000
10000000
01000000
00100000
00010000
00010000
01000000
00000000
,
00001000
00001000
00010000
00000100
00001000
00000001
00001001
00000000
,
00000001
00001000
00000001
00000100
00000010
00000100
00001000
00000000
,
00010000
00001000
00010000
00000100
00000010
00000001
00001000
00000000
,
00000001
00000100
00000010
00000100
00001000
00010000
00100000
00000000
,
10000000
00010000
10000000
00000000
10010000
00000000
00000000
00000000
,
10000000
00010000
10000000
00100000
01000000
00100000
00010000
00000000
,
00001000
00010000
00001000
00100000
01000000
10000000
00010000
00000000
,
10000000
00100000
01000000
00100000
00010000
00001000
00000100
00000000
,
00001000
00000001
00001000
00000000
00001001
00000000
00000110
00000000
,
00000001
00001000
00000001
00000100
00001000
00010000
00001000
00000000
,
00010000
00001000
00010000
00001000
00000100
00000001
00001000
00000000
,
00000001
00001000
00000001
00000010
00001000
00010000
01000000
00000000
,
10000000
00010000
10000000
00000000
10010000
00000000
00000000
00000000
,
10000000
10000000
01000000
01000000
00010000
00010000
00001000
00000000
,
00001000
00001000
00000100
00000100
00000001
00000001
00001000
00000000
,
00000001
00000001
00000100
00000000
00001000
00001000
00010000
00000000
,
01000000
01000000
10000000
10000000
00100000
00100000
00010000
00010000
;

//--------------- dance-double - Extraordiberry ----------------
#NOTEDATA:;
#STEPSTYPE:dance-double;
#DESCRIPTION:Extraordiberry;
#DIFFICULTY:Hard;
#METER:14;
#RADARVALUES:0,0,0,0,0;
#CREDIT:Extraordiberry;
#NOTES:
00000000
00000000
00000000
00000000
,
00000000
00000000
00000000
00000000
,
00000000
00000000
00000000
00000000
,
00000000
00000000
00000000
00000000
,
00000000
00000000
00000000
00000000
,
10000000
00000000
01000000
00000000
00100000
00000000
00000000
00001000
00010000
00000000
00000100
00000000
00001000
00000000
00000000
00000000
,
00000001
00000000
00000100
00000000
00000010
00000000
00000000
00010000
00001000
00000000
01000000
00000000
00010000
00000000
00000000
00000000
,
10000000
00000000
01000000
00000000
00100000
00000000
00000000
00001000
00010000
00000000
00000100
00000000
00001000
00000000
00000000
00000000
,
00000001
00000000
00000100
00000000
00000010
00000000
00000000
00010000
00001000
00000000
01000000
00000000
00010000
00000000
00000000
00000000
,
10000000
01000000
10000000
00000000
01000000
00000000
00010000
00000000
00001000
00000000
00000010
00000000
00000001
00000000
00000000
00000000
,
00000001
00000100
00000001
00000000
00000100
00000000
00001000
00000000
00010000
00000000
00000010
00000000
00001000
00000000
00000000
00000000
,
00000001
00000100
00000001
00000000
00000100
00000000
00001000
00000000
00010000
00000000
00100000
00000000
10000000
00000000
00000000
00000000
,
00010000
00100000
00010000
00000000
00100000
00000000
00001000
00000000
00011000
00000000
00000000
00000000
00000000
00000000
00000000
00000000
,
00010000
00100000
00010000
00001000
00010000
00100000
00010000
00000000
,
00001000
00000000
00000010
00000000
00001000
00000000
00010000
00000000
00001000
00000000
00000010
00000000
00001000
00000000
00000000
00010000
,
00001000
00000100
00001000
00010000
00001000
00000100
00001000
00000000
,
00010000
00000000
01000000
00000000
00010000
00000000
00001000
00000000
00010000
00000000
01000000
00000000
00010000
00000000
00000000
00001000
,
01000000
01000000
00010000
00010000
10000000
10000000
01000000
00000000
,
01000000
01000000
10000000
10000000
00010000
00010000
01000000
00001000
,
00010000
01000000
00010000
00001000
00010000
01000000
00010000
00000000
,
00001000
00000100
00001000
00010000
00001000
00000010
00001000
00000000
,
00010000
00001000
00010000
00001000
01000000
00000000
00000000
00000000
00100000
01000000
00100000
01000000
00010000
00000000
00000000
00000000
,
10000000
01000000
10000000
01000000
00100000
00000000
00000000
00000000
00001000
00010000
00001000
00010000
00000100
00000000
00000000
00000000
,
00010000
00100000
00010000
00001000
00010000
01000000
00010000
00000000
,
00001000
00000100
00001000
00010000
00001000
00000010
00000000
00000000
,
00000001
00000100
00000001
00000000
00000100
00000010
00000100
00000000
00000010
00001000
00000010
00001000
00000000
00000000
00000000
00000000
,
00000001
00000000
00000100
00000000
00000010
00000000
00000000
00010000
00001000
00000000
01000000
00000000
00010000
00000000
00000000
00000000
,
10000000
01000000
10000000
00000000
01000000
00100000
01000000
00000000
00100000
00010000
00100000
00010000
00000000
00000000
00000000
00000000
,
10000000
01000000
00010000
00000000
00001000
00000010
00000001
00000000
,
00000001
00000100
00000001
00000000
00000100
00000010
00000100
00000000
00000010
00001000
00000010
00001000
00000000
00000000
00000010
00000000
,
00010000
00001000
01000000
00000000
00100000
01000000
00010000
00000000
,
10000000
01000000
10000000
00000000
01000000
00100000
01000000
00000000
00100000
00010000
00100000
00010000
00000000
00000000
00100000
00000000
,
00001000
00000010
00001000
00010000
00001000
00000100
00001000
00000000
,
00010000
00001000
00010000
00001000
01000000
00000000
00000000
00000000
00001000
00010000
00001000
00010000
00000100
00000000
00000000
00000000
,
00000010
00000100
00001000
00000000
00000100
00000010
00000100
00000010
00000001
00000000
00000100
00000000
00001000
00000000
00000000
00000000
,
00010000
00000000
00100000
00000000
01000000
00100000
01000000
00100000
10000000
00000000
01000000
00000000
00010000
00000000
00000000
00000000
,
00001000
00010000
00001000
00010000
00000100
00000000
00001000
00000000
00000001
00000000
00000100
00000000
00000000
00000000
00000000
00000000
,
00001000
00000000
00010000
00000000
00000010
00001000
00000010
00001000
00000001
00000000
00000010
00000000
00001000
00000000
00000000
00000000
,
00010000
00001000
00010000
00001000
00100000
00000000
00000000
00000000
00001000
00010000
00001000
00010000
00000010
00000000
00000000
00000000
,
00000100
00000010
00001000
00000000
00000010
00000100
00000010
00000100
00000001
00000000
00000010
00000000
00001000
00000000
00000000
00000000
,
00010000
00000000
01000000
00000000
00100000
01000000
00100000
01000000
10000000
00000000
00010000
00000000
10010000
00000000
00000000
00000000
,
10000000
00000000
00100000
00000000
00010000
00100000
00000000
00010000
00001000
00000000
00010000
00100000
00000000
00000000
10000000
00000000
,
01000000
00000000
00010000
00000000
00001000
00000010
00000000
00001000
00010000
00000000
00001000
00000010
00000000
00000000
00000001
00000000
,
00000100
00000000
00001000
00000000
00010000
00100000
00000000
00010000
00001000
00000000
00010000
00100000
00000000
00000000
10000000
00000000
,
01000000
00010000
00001000
00000010
00000001
00000000
00001001
00000000
,
00000001
00000000
00000100
00000000
00001000
00000100
00000000
00001000
00010000
00000000
00001000
00000100
00000000
00000000
00000001
00000000
,
00000010
00000000
00001000
00000000
00010000
01000000
00000000
00010000
00001000
00000000
00010000
01000000
00000000
00000000
10000000
00000000
,
00100000
00000000
00010000
00000000
00001000
00000100
00000000
00001000
00010000
00000000
00001000
00000100
00000000
00000000
00000001
00000000
,
00000010
00001000
00010000
01000000
10000000
00010000
01100000
00000000
,
10000000
00000000
01000000
00000000
00010000
01000000
00000000
00010000
00001000
00000000
00010000
00100000
00000000
00000000
10000000
00000000
,
01000000
00000000
00010000
00000000
00001000
00000010
00000000
00001000
00010000
00000000
00001000
00000100
00000000
00000000
00000001
00000000
,
00000010
00000000
00001000
00000000
00010000
01000000
00000000
00010000
00001000
00000000
00010000
00100000
00000000
00000000
10000000
00000000
,
01000000
00010000
00001000
00000010
00000001
00000000
00001001
00000000
,
00000001
00000001
00000100
00000100
00001000
00001000
00010000
00000000
,
00010000
00010000
00100000
00100000
10000000
10000000
01000000
00010000
,
00001000
00010000
00001000
00010000
00100000
00000000
00000000
00000000
00010000
00001000
00010000
00001000
00000010
00000000
00000000
00000000
,
00001000
00010000
00001000
00010000
00100000
00010000
00100000
00010000
00001000
00010000
00001000
00010000
00001000
00000010
00001000
00000010
;
