#TITLE:QQQ;
#SUBTITLE:;
#ARTIST:TaQ;
#TITLETRANSLIT:;
#SUBTITLETRANSLIT:;
#ARTISTTRANSLIT:;
#GENRE:;
#CREDIT:NOWHERE Dance Club;
#MUSIC:QQQ.ogg;
#BANNER:QQQ.png;
#BACKGROUND:QQQ-bg.png;
#CDTITLE:cdtitle.png;
#SAMPLESTART:75.318;
#SAMPLELENGTH:24.774;
#SELECTABLE:YES;
#OFFSET:-0.221;
#BPMS:0.000=155.000;
#STOPS:;
#BGCHANGES:;
#FGCHANGES:;

//--------------- dance-single - NOWHERE Dance Club ----------------
#NOTES:
     dance-single:
     NOWHERE Dance Club:
     Beginner:
     4:
     0,0,0,0,0:
0000
0000
0000
0000
,
0000
0000
0000
0000
,
0000
0000
0000
0000
,
0000
0000
0000
0000
,
0000
0000
0001
0000
,
0000
0000
0100
0000
,
0000
0000
0001
0000
,
1000
0000
0001
0100
,
0001
1000
0010
0000
,
1000
0000
0001
0000
,
0010
0000
0001
0000
,
1000
0000
0001
0000
,
1000
0000
0010
0000
,
0100
0000
0010
0000
,
1000
0000
0001
0000
,
0010
0000
0100
0000
,
0010
0000
0001
0000
,
0100
0000
0001
0000
,
0010
0000
0100
0000
,
1000
0000
0001
0000
,
0100
0000
0001
0000
,
0010
0000
0100
0000
,
0010
0000
0001
0000
,
0010
0000
0001
0000
,
1000
0000
0010
0100
,
0010
0000
1000
0000
,
0001
0000
0010
0100
,
0010
0000
0001
0000
,
1000
0000
0100
1000
,
0100
0000
0010
0000
,
0100
0000
0010
0001
,
0010
0000
0001
0000
,
1000
0000
0010
0000
,
0000
0000
0100
0000
,
0000
0000
0010
0000
,
0000
0000
0100
0000
,
0000
0000
0010
0000
,
0000
0000
0010
0000
,
0000
0000
0010
0000
,
0000
0000
0000
0010
0000
0000
0000
0000
,
0000
0000
1000
0000
,
0100
0000
0010
0000
,
0001
0000
0100
0000
,
0001
0000
0010
0000
,
0100
0000
0010
0001
,
1000
0000
0010
0000
,
1000
0000
0001
0010
,
0100
0000
0010
0000
,
0001
0000
1000
1000
,
0010
0000
0100
0100
,
0001
0000
1000
1000
,
0100
0000
0010
0010
,
0001
0000
1000
1000
,
0010
0000
0100
0100
,
0010
0000
1000
1000
,
0001
0000
0001
0001
,
1000
0000
1001
0000
,
1001
0000
0110
0000
,
0110
0000
1001
0000
,
1001
0000
0110
0000
,
0110
0000
1001
0000
,
0001
0000
0100
0000
,
0010
0000
1010
0000
,
0011
0000
0101
0000
,
1100
0000
1001
0000
;

//--------------- dance-single - NOWHERE Dance Club ----------------
#NOTES:
     dance-single:
     NOWHERE Dance Club:
     Easy:
     8:
     0,0,0,0,0:
0000
0000
0000
0000
,
0000
0000
0000
0000
,
0000
0000
0000
0000
,
0000
0000
0000
0000
,
0000
0001
1001
1000
,
1000
0001
0100
0010
,
0010
0100
0001
1000
,
1000
0100
0010
0001
,
0001
1000
1001
0001
,
0010
0001
0100
0010
,
0100
0001
1000
0100
,
0010
0100
1000
0010
,
0100
0000
0001
1000
1000
0000
0010
0000
,
1000
0100
0010
0100
,
1000
0001
0100
0010
,
0100
0001
0010
0100
,
1000
0000
0001
0001
1001
0000
1000
0010
,
0000
0000
0100
0000
0010
0000
1000
0010
,
0000
1000
0001
0001
1001
0000
0001
0010
,
0000
0000
0001
0000
0010
0000
0001
1000
,
0000
0001
0010
0010
0110
0000
0010
0001
,
0000
0000
1000
0000
0010
0000
0100
0010
,
0000
0100
0100
0010
0110
0000
0010
1000
,
0000
0000
0001
0000
0010
0000
0001
1000
,
0000
0001
1000
0001
1000
0000
0010
0000
,
0100
0000
0010
1000
0010
0000
1000
0000
,
0001
0000
0010
0001
0010
0000
0001
0000
,
0100
0000
0001
0100
0001
0000
0100
0000
,
0010
0000
1000
0010
1000
0000
0010
0000
,
0001
0000
0010
1000
0010
0000
1000
0000
,
0001
0000
0010
0001
0010
0000
1000
0000
,
0010
0000
0001
1000
0001
0000
0100
0000
,
0010
0000
0000
0000
1000
0000
0001
0000
1001
0000
0000
0000
0000
0000
0001
0001
,
0000
0000
0000
0000
0000
0000
1000
0000
0000
0000
0000
0000
0000
0000
0010
0010
,
0000
0000
0000
0000
0000
0000
0100
0000
0000
0000
0000
0000
0000
0000
0010
0010
,
0000
0000
0000
0000
0000
0000
0100
0000
0000
0000
0001
0000
0000
0000
1000
1000
,
0000
0000
0000
0000
0000
0000
0001
0000
1001
0000
0000
0000
0000
0000
1000
1000
,
0000
0000
0000
0000
0000
0000
0001
0000
0000
0000
0000
0000
0000
0000
0010
0010
,
0000
0000
0000
0000
0000
0000
0001
0000
0000
0000
0000
0000
0000
0000
1000
1000
,
0000
0000
0000
0001
0000
0000
0000
0000
,
0000
0000
0000
1000
1001
0000
0001
0010
,
0010
0000
0001
0000
0100
0000
0010
0100
,
0100
0000
0001
0000
1000
0000
0100
0010
,
0010
0000
0100
0000
1000
0000
0010
0100
,
0100
0000
0001
1000
1001
0000
1000
0100
,
0100
0000
1000
0000
0010
0000
0100
0010
,
0010
0000
1000
0000
0001
0000
0010
0100
,
0100
0000
0010
0000
0001
0001
0100
0100
,
0010
0010
1000
1000
0001
0010
0001
0000
,
1000
0010
1000
0000
0001
1000
0001
0000
,
0100
0001
0100
0000
0010
0100
0010
0000
,
0100
0001
0100
0000
0001
1000
0001
0000
,
1000
0100
0010
0001
1000
0010
1000
0000
,
0001
0010
0001
0000
1000
0001
1000
0000
,
0100
1000
0100
0000
0010
0100
0010
0000
,
0100
1000
0100
0000
1000
0010
0100
0001
,
0010
0100
1000
1000
0001
0000
0100
0000
,
0010
0010
1000
0000
0001
0000
0010
0000
,
0100
0100
0010
0000
0001
0000
1000
0000
,
0010
0010
0100
0000
0010
0000
1000
0000
,
0001
0001
0010
0000
0100
0000
0010
0000
,
0001
0001
1000
0000
0010
0000
0100
0000
,
0001
0001
1000
0000
0100
0010
0001
0000
,
0100
0010
1000
0000
0001
0001
0010
0010
,
0001
0001
1000
1000
0010
0000
0000
0000
;

//--------------- dance-single - NOWHERE Dance Club ----------------
#NOTES:
     dance-single:
     NOWHERE Dance Club:
     Medium:
     11:
     0,0,0,0,0:
0000
0000
0000
0000
,
0000
0000
0000
0000
,
0000
0000
0000
0000
,
0000
0000
0000
0000
,
0000
0000
1001
0001
,
0100
0010
0100
0001
,
1000
0100
0010
0001
,
1000
0010
0100
0010
,
1000
0001
1000
1000
1001
0000
0001
0000
,
0100
0010
0100
0010
,
1000
0010
1000
0100
,
1000
0100
0010
0100
,
0010
0000
0001
1000
0001
0000
1000
0000
,
0010
0100
0010
1000
,
0001
0010
0100
0010
,
0001
0000
1000
0010
0000
0100
0000
0010
,
0000
1000
0000
0001
1001
0000
1000
0100
,
0000
0100
0010
0000
0011
0000
0010
0001
,
0000
0001
0100
0000
0110
0000
0100
0010
,
0000
0010
1000
0000
1001
0000
1000
0100
,
0000
0100
0010
0100
0010
0000
0010
0001
,
0000
0001
1001
0000
1000
0000
0010
0100
,
0000
0100
0001
0001
1000
0000
0100
0010
,
0000
0001
1000
0000
1001
0000
1000
1010
,
0000
0001
0011
0000
0001
0100
0010
1000
,
0000
0100
0010
0000
0001
0000
0010
0100
,
0000
0010
0001
0001
1000
0000
0010
0100
,
0000
0010
0001
0000
0010
0000
1000
0001
,
0000
1000
0100
0100
0010
0001
1000
0001
,
0000
0100
0010
0000
1000
0000
0010
0100
,
0000
0010
1000
0000
0001
0000
0010
0100
,
0000
0010
1000
0000
0010
0000
0001
0100
,
0000
0000
0001
0000
1000
0000
1000
0000
1001
0000
0000
0000
0000
0000
0001
0100
,
0000
0000
0010
0000
0100
0000
0010
0000
0000
0000
0000
0000
0000
0000
0010
1000
,
0000
0000
0010
0000
1000
0000
1000
0000
0000
0000
0100
0000
0010
0000
0000
0001
,
0000
0000
0010
0000
0000
0000
0001
0000
0000
0000
0010
0000
0001
0000
0000
0100
,
0010
0000
1000
0000
0000
0000
0001
0000
1001
0000
0000
0000
0000
0000
0001
1000
,
0000
0000
0000
0000
0000
0000
0100
0000
0000
0000
0010
0000
0001
0000
1000
0001
,
0000
0000
0000
0000
0000
0000
1000
0000
0000
0000
0010
0000
0000
0100
0010
0000
,
0000
0000
0000
1000
0000
0000
0000
0000
,
0000
0000
0000
0001
1001
0000
0001
0000
,
0100
0000
0001
0000
0100
0000
0000
0000
0010
0000
0000
0010
1000
0000
0000
1000
,
0001
0010
0001
1000
1001
0000
1000
0000
,
0100
0000
1000
0000
0100
0000
0000
0000
0010
0000
0000
0010
0001
0000
0000
0001
,
1000
0010
0100
0001
1001
0000
0001
0000
,
0010
0000
0100
0000
0010
0000
0000
0000
0001
0000
0000
0001
0010
0000
0000
0010
,
1000
0000
0010
0000
0001
0000
1000
0000
1001
0000
0000
1000
0010
0000
0000
0010
,
0001
0000
0000
0001
0010
0000
1000
0000
0001
0000
0010
0000
0100
0000
1000
0000
,
0001
0000
0100
0000
0010
0000
1000
0000
0001
0000
0010
0000
0100
1000
0000
0000
,
0001
0100
0000
0000
0010
1000
0000
0000
0001
0000
0010
0000
0100
1000
0000
0000
,
0001
0100
0000
0000
0010
1000
0000
0000
0001
0000
0010
0000
0100
0010
0000
0000
,
0001
0010
0000
0000
0100
1000
0000
0000
0001
0000
0100
0000
0010
1000
0000
0000
,
0010
0100
0000
0000
0010
1000
0001
0000
1000
0000
0010
0000
0100
0001
0000
0000
,
1000
0100
0000
0000
0010
0001
0000
0000
1000
0000
0010
0000
0100
0001
0000
0000
,
1000
0100
0000
0000
0010
0001
0000
0000
1000
0000
0010
0000
0100
0010
0000
0000
,
1000
0010
0000
0000
0100
0001
0000
0000
1000
0000
0100
0000
1000
0001
1000
0000
,
0001
0100
0001
0000
1000
0100
1000
0000
0001
0000
0100
0000
0010
0100
0000
0000
,
0010
0000
0000
0000
0100
0000
0000
0000
0001
0000
0010
0000
0100
0010
0000
0000
,
0100
0000
0000
0000
1000
0000
0000
0000
0010
0000
0100
0000
0001
1000
0000
0000
,
0001
0000
0000
0000
1000
0000
0000
0000
0100
0000
0010
0000
0001
0010
0000
0000
,
0001
0000
0000
0000
0010
0000
0000
0000
0100
0000
0010
0000
0100
0010
0000
0000
,
0010
0000
0000
0000
0001
0000
0000
0000
1000
0000
0010
0000
1000
0001
0000
0000
,
0001
0000
0000
0000
1000
0000
0000
0000
0010
0000
1000
0000
0001
1000
0000
0000
,
1000
0000
0001
0000
1000
0001
0000
0000
1000
0100
1000
0000
0001
0100
0001
0000
,
1000
0100
1000
0000
0001
0100
0001
0000
1001
0000
0000
0000
0000
0000
0000
0000
;

//--------------- dance-single - NOWHERE Dance Club ----------------
#NOTES:
     dance-single:
     NOWHERE Dance Club:
     Hard:
     14:
     0,0,0,0,0:
0000
0000
0000
0000
,
0000
0000
0000
0000
,
0000
0000
0000
0000
,
0000
0000
0000
0000
,
0000
1000
0001
0001
1001
0000
1000
0000
,
0100
0010
0100
1000
,
0001
0100
0100
0010
1000
0000
0010
0000
,
0100
0010
1000
0100
,
0010
0100
0010
0010
0001
0000
1000
0001
,
0100
0001
0010
0000
0100
0000
1000
0001
,
0000
1000
0010
0010
1000
0010
0100
0001
,
0000
1000
0001
0010
0001
0010
0100
1000
,
0000
0001
1000
1000
0001
0010
0001
1000
,
0000
0001
0001
0010
0100
0010
0001
1000
,
0000
0010
0100
0100
0010
1000
0010
0100
,
0000
0001
1000
0100
0010
0001
1000
0001
,
0000
1000
0001
0001
1001
0000
0001
0010
,
0000
0010
0001
0000
0100
0010
0010
1000
,
0000
1000
0001
0000
0011
0000
0010
0100
,
0000
0100
0010
0001
0001
0000
1000
0010
,
0000
0010
1000
0000
1010
0000
1000
0100
,
0000
0100
1000
1000
0100
0010
0100
0001
,
0000
0001
0100
0000
1100
0000
1000
0001
,
0000
1000
0010
0010
0001
0000
0010
0110
,
0000
0010
1000
0001
1001
0000
0001
0100
,
0000
0010
1000
1000
0001
0001
0010
0100
,
0000
0010
0100
0100
0010
0000
0001
1000
,
0000
0001
0010
0010
0100
0100
1000
0001
,
0000
1000
0010
0010
0100
0000
0010
1000
,
0000
0010
0001
0001
0010
0010
1000
0001
,
0000
1000
0100
0010
0001
0010
1000
0010
,
0000
0001
1000
1000
0001
0001
0100
0010
,
0000
0000
1000
0000
0001
0000
0001
0000
1001
0000
0000
0000
0000
0000
1000
0100
,
0000
0000
0010
0000
0100
0000
0100
0000
0000
0000
0000
0000
0000
0000
0010
0001
,
0000
0000
0010
0000
0010
0000
0001
0000
0000
0000
0100
0000
0010
0000
0000
1000
,
0000
0000
0010
0000
0000
0000
1000
0000
0000
0000
0010
0000
1000
0000
0000
0100
,
0010
0000
0010
0000
0000
0000
0001
0000
1001
0000
0000
0000
0000
0000
1000
0001
,
0000
0000
0000
0000
0000
0000
0100
0000
0000
0000
0010
0000
1000
0000
0010
0100
,
0000
0000
0000
0000
0000
0000
0001
0000
0000
0000
1000
0000
0000
0001
1000
0001
,
0000
0000
0000
1000
0000
0000
0000
0000
,
0000
0000
0000
0001
1001
0000
1000
0001
,
0010
0000
0100
0000
0010
0000
0001
0000
1000
0000
0100
0000
0010
0000
0001
0010
,
0001
1000
0001
0000
1001
0000
1000
0001
,
0100
0000
0010
0000
0100
0000
0001
0000
0100
0000
0010
0000
1000
0000
0001
1000
,
0001
1000
0010
0000
0110
0000
0010
1000
,
0001
0000
1000
0000
0010
0000
1000
0000
0001
0000
0010
0000
0100
0000
1000
0001
,
1000
0001
0000
1000
1010
1000
0000
0001
,
0011
0001
0000
1000
1001
0000
1100
0000
,
0011
0000
0000
0000
1001
0000
0000
0000
0001
1000
0001
0000
0001
0000
0100
0000
,
0010
0100
0010
0100
0010
0000
1000
0000
0001
1000
0001
0000
0001
0000
0010
0000
,
0001
0010
0001
0010
0001
0000
1000
0000
0010
0100
0010
0000
0010
0000
1000
0000
,
0001
1000
0001
1000
0001
0000
1000
0000
0100
0010
0000
0010
0001
0000
1000
0000
,
0010
0000
0100
0000
0110
0000
0000
0000
1000
0001
1000
0000
1000
0000
0100
0000
,
0010
0100
0010
0100
0010
0000
0001
0000
1000
0001
1000
0000
1000
0000
0010
0000
,
0100
0010
0100
0010
0100
0000
0010
0000
1000
0010
1000
0000
1000
0000
0001
0000
,
1000
0001
1000
0001
1000
0000
0001
0000
0010
0100
0000
0100
1000
0000
0001
0000
,
0100
0010
0000
0010
1000
0001
1000
0000
0001
0000
1000
0000
0010
0000
0001
0000
,
0010
1000
0100
0010
0001
0010
0001
0100
,
0010
1000
0010
0100
0010
1000
0010
0001
,
0010
1000
0001
1000
0100
0010
0001
1000
,
0010
0100
0001
1000
0100
0001
0100
1000
,
0010
1000
0010
1000
0100
0010
0001
0100
,
0010
1000
0001
1000
0010
0001
0010
1000
,
0001
0000
0010
0000
0100
0000
1000
0000
0001
0010
0001
0000
1000
0010
1000
0000
,
0001
0010
0001
0000
1000
0010
1000
0000
1001
0000
0000
0000
0000
0000
0000
0000
;
