#TITLE:Pure Powerstomper;
#SUBTITLE:;
#ARTIST:M-Project feat. Jonjo;
#TITLETRANSLIT:;
#SUBTITLETRANSLIT:;
#ARTISTTRANSLIT:;
#GENRE:POWERSTOMP;
#CREDIT:;
#MUSIC:PURE POWERSTOMPER.ogg;
#BANNER:bn.png;
#BACKGROUND:bg.png;
#CDTITLE:cd-title.png;
#SAMPLESTART:32.539;
#SAMPLELENGTH:21.702;
#SELECTABLE:YES;
#OFFSET:-0.004;
#BPMS:0.000=177.000
,160.000=120.000
,164.000=126.000
,168.000=128.500
,172.000=132.300
,176.000=135.600
,180.000=139.800
,184.000=143.100
,188.000=146.500
,192.000=149.000
,196.000=155.000
,200.000=156.700
,204.000=161.600
,208.000=166.800
,216.000=171.900
,220.000=173.400
,224.000=177.000
;
#STOPS:;
#ORIGIN:;
#PREVIEWVID:;
#JACKET:jacket.png;
#CDIMAGE:;
#DISCIMAGE:;
#BGCHANGES:;
#FGCHANGES:;

//--------------- dance-single - ----------------
#NOTES:
     dance-single:
     :
     Beginner:
     5:
     0.165521,0.281595,0.007333,0.073332,0,158,157,1,10,0,0,0,0,0,0.165521,0.281595,0.007333,0.073332,0,158,157,1,10,0,0,0,0,0:
0000
0000
0000
0000
,
0000
0000
0000
0000
,
0000
0000
0000
0000
,
0000
0000
0000
0000
,
1000
0000
0000
0000
,
0001
0000
0000
0000
,
0100
0010
0100
0010
,
0000
0000
0000
0000
,
1000
0000
0000
0000
,
0000
0000
0000
0000
,
0001
0000
0000
0000
,
0000
0000
0000
0000
,
0010
0000
0000
0000
,
0000
0000
0000
0000
,
0100
0000
0000
0000
,
0000
0000
0000
0000
,
1000
0000
0000
0000
,
0000
0000
0000
0000
,
0001
0000
0000
0000
,
0000
0000
0000
0000
,
0100
0000
0000
0000
,
0000
0000
0000
0000
,
0010
0000
0000
0000
,
1000
0000
0000
0000
,
0001
0000
0000
0000
,
0001
0100
0001
0000
,
1000
0000
0000
0000
,
1000
0010
1000
0000
,
0100
0000
0000
0000
,
0100
0010
0001
0000
,
0100
0000
0000
0000
,
0020
0000
0000
0000
,
0030
1000
1000
0000
,
0001
0000
0010
0000
,
0000
0001
0001
0000
,
1000
0000
0010
0000
,
0000
1000
1000
0000
,
0001
0000
0100
0000
,
0001
0001
1000
1000
,
0100
0010
0001
0000
,
2000
0000
0000
0000
,
3000
0000
0000
0000
,
0020
0000
0000
0000
,
0030
0000
0000
0000
,
0200
0000
0000
0000
,
0300
0000
0000
0000
,
0002
0000
0000
0000
,
0000
0003
0000
0000
,
0010
0000
0000
0000
,
0100
0000
0000
0000
,
1000
0000
0000
0000
,
0001
0000
0000
0000
,
0100
0000
0000
0000
,
0010
0000
0000
0000
,
1000
0000
0000
0000
,
0001
0000
0000
0000
,
1000
0000
0000
0000
,
1000
0000
0000
0000
,
0001
0000
0000
0000
,
0001
0000
0000
0000
,
0010
0000
0100
0000
,
0010
0000
0100
0000
,
2000
0000
0000
0000
,
3002
0000
0000
0000
,
1003
0000
1000
0000
,
0001
0100
0001
0000
,
1000
0000
1000
0000
,
0100
0010
0001
0000
,
1000
0000
1000
0000
,
0001
0010
0001
0000
,
1000
0000
1000
0000
,
0010
0100
0001
1000
,
0001
0000
0001
0000
,
1000
0100
1000
0000
,
0001
0000
0001
0000
,
0100
0010
1000
0000
,
0001
0000
0001
0000
,
1000
0010
1000
0000
,
0001
0000
0001
0000
,
0010
0100
0010
0001
,
1000
1000
1000
0000
,
0010
0010
1000
0000
,
0001
0001
0001
0000
,
0100
0100
0001
0000
,
1000
1000
1000
0000
,
0100
0100
1000
0000
,
0001
0001
0001
0000
,
0010
0010
0001
0100
,
0010
0010
0010
0000
,
0001
0010
1000
0001
,
0010
0010
0010
0000
,
1000
0010
0001
1000
,
0020
0000
0000
0000
,
0230
0000
0000
0000
,
0302
0000
0000
0000
,
1003
0000
1000
0000
,
1001
0000
0000
0000
;

//--------------- dance-single - ----------------
#NOTES:
     dance-single:
     :
     Easy:
     9:
     0.350946,0.492791,0.131998,0.417993,0,335,317,18,57,0,0,0,0,0,0.350946,0.492791,0.131998,0.417993,0,335,317,18,57,0,0,0,0,0:
0000
0000
0000
0000
,
0000
0000
0000
0000
,
0000
0000
0000
0000
,
0000
0000
0000
0000
,
2000
3200
0320
0032
,
2003
3020
0230
0302
,
0003
1010
0110
0101
,
0000
0000
0000
0000
,
0002
0000
0000
0000
,
0023
0000
0000
0000
,
0230
0000
0000
0000
,
2300
0000
3000
0000
2000
0000
3000
1000
,
2000
0000
0000
0000
,
3200
0000
0000
0000
,
0320
0000
0000
0000
,
0032
0000
0003
0000
0002
0000
0003
1000
,
2000
0000
0000
0000
,
3020
0000
0000
0000
,
0230
0000
0000
0000
,
0302
0000
0003
0000
0002
0000
0003
0001
,
0002
0000
0000
0000
,
0203
0000
0000
0000
,
0320
0000
0000
0000
,
1030
0000
0000
0000
0000
0000
0000
0001
,
0010
0100
0010
0000
0011
0000
0000
0001
,
0100
0100
0010
0010
,
1010
0000
1001
0000
1010
0000
0000
0001
,
0010
0010
0100
1000
,
0010
0100
0010
0000
1010
0000
0000
1000
,
0100
0100
0010
0010
,
0011
0000
1001
0000
0011
0000
0000
1000
,
0002
2003
3002
2003
,
3100
0000
0110
0000
0110
0000
0000
0010
,
0001
0100
1000
0100
,
0010
0000
1001
0000
1001
0000
0000
1000
,
0100
0010
0001
2000
,
3010
0000
0110
0000
0110
0000
0000
0100
,
0001
0010
1000
0010
,
0100
1000
0001
0000
0100
0001
1000
0000
,
0100
0010
0100
1000
0001
0100
0001
0000
,
2000
0000
0000
0000
,
3020
0000
0000
0000
,
0230
0000
0000
0000
,
0302
0000
0000
0000
,
2003
0000
0000
0000
,
3200
0000
0000
0000
,
0320
0000
0000
0000
,
0032
0000
0000
0000
,
1003
0010
1000
0001
,
0010
0001
0100
0010
,
1000
0001
0100
0001
,
1000
0000
0100
0000
0010
0000
0001
1000
,
0001
0010
0001
1000
,
0010
1000
0100
0010
,
0001
1000
0100
1000
,
0001
0000
0100
0000
0010
0000
1000
0001
,
1000
1000
0010
0010
,
0100
0100
0001
0001
,
1000
1000
0100
0100
,
0010
0010
0001
0001
,
2000
0000
0000
0000
,
3002
0000
0000
0000
,
0203
0000
0320
0000
,
0030
0000
1000
1000
,
0001
0010
0000
1000
0000
0010
0100
0000
,
1000
1000
0001
0001
,
1000
0100
0000
0001
0000
0100
0000
0010
,
0001
0001
1000
1000
,
0001
0100
0000
1000
0000
0100
0010
0000
,
1000
1000
0001
0001
,
1000
0010
0000
0001
0000
0010
0000
0100
,
0002
2003
3002
0003
,
1000
0010
0000
0100
0000
1000
0100
0001
,
0010
0010
0100
0100
,
1000
0001
0000
0100
0000
1000
0000
0001
,
0010
0100
0001
1000
,
0001
0010
0000
0100
0000
0001
0100
1000
,
0010
0010
0100
0100
,
0001
0010
0000
0100
1000
0010
0000
0100
,
0002
2003
3200
0310
,
0010
0001
1000
0000
0010
0000
0100
0000
,
1000
0100
0001
0001
,
0010
0100
1000
0000
0010
0000
0100
0000
,
1000
0000
0100
0000
0001
1000
0001
1000
,
0010
0100
0001
0000
0010
0000
0100
0000
,
1000
0010
1000
1000
,
0100
0010
0001
0000
0100
0000
0010
0000
,
2000
3002
2003
3002
,
0013
0100
1000
0000
0010
0000
0100
0000
,
1000
0000
0100
0000
0001
0010
0001
1000
,
0010
0100
0001
0000
0010
0000
0100
0000
,
0001
0000
0100
0000
1000
0010
1000
0001
,
0010
0010
0200
0000
0000
0000
0000
0000
,
1300
1000
0020
0000
0000
0000
0000
0000
,
0031
0010
2000
0000
3100
0010
0002
0000
,
0003
0000
0000
0000
0000
0000
0000
1000
,
1001
0000
0000
0000
;

//--------------- dance-single - ----------------
#NOTES:
     dance-single:
     :
     Medium:
     13:
     0.603418,0.633589,0.20533,0.373994,0.128331,576,548,28,51,0,0,0,0,0,0.603418,0.633589,0.20533,0.373994,0.128331,576,548,28,51,0,0,0,0,0:
0000
0000
0000
0000
,
0000
0000
0000
0000
,
0000
0000
0000
0000
,
0000
0000
0000
0000
,
2000
3200
0320
0032
,
2003
3020
0230
0302
,
0013
0010
1000
0010
0100
0010
0001
0100
,
0000
0000
0000
0000
,
0002
0000
0003
0000
0002
0000
0003
1000
,
0010
1000
0001
1000
0010
1000
0001
1000
,
0200
0000
0300
0000
0200
0000
0300
0010
,
0001
1000
0001
0100
0010
0100
0001
0001
,
2000
0000
3000
0000
2000
0000
3000
0001
,
0010
0001
1000
0001
0010
0001
1000
0001
,
0200
0000
0300
0000
0200
0000
0300
0010
,
1000
0001
1000
0100
0010
0100
1000
1000
,
0020
0000
0030
0000
0020
0000
0030
0100
,
0001
1000
0100
0010
0001
1000
0010
0100
,
0002
0000
0003
0000
0002
0000
0003
1000
,
0100
1000
0010
1000
0100
0010
0001
0001
,
0020
0000
0030
0000
0020
0000
0030
0100
,
1000
0001
0100
0010
1000
0001
0010
0100
,
2000
0000
3000
0000
2000
0000
3000
0010
,
0200
0000
0000
0000
0000
0000
0000
0301
,
1000
0001
0101
0000
0110
0000
0000
0010
,
0100
0010
0001
0010
0100
0010
1000
1000
,
0100
0000
0110
0000
0011
0000
0000
0010
,
0001
0000
0100
0000
0010
0000
0010
0000
1000
0000
0100
0000
0010
0000
0001
1000
,
0001
0000
0011
0000
0110
0000
0000
0010
,
0100
0010
1000
0010
0100
0010
0001
0001
,
0100
0000
0110
0000
1010
0000
0000
0010
,
2000
0000
0000
0000
3200
0000
0000
0000
0320
0000
0030
0020
0031
0000
0200
0000
,
0300
0000
1100
0000
0101
0000
0001
1000
,
0100
0001
0100
1000
0100
0001
0100
1000
,
0010
0000
0011
0000
1010
0000
1000
0001
,
0010
1000
0010
0001
1000
0100
0110
0000
,
0000
0000
0101
0000
1100
0000
1000
0001
,
0100
1000
0100
0001
0100
1000
0100
0001
,
0010
0010
0100
1000
0010
0010
0100
0001
,
2000
0000
3002
0000
,
1003
0000
0000
0000
0100
0000
0000
0000
1000
0000
0000
1000
0000
0000
1000
0000
,
0000
0000
0001
0000
0000
0100
0000
0000
0001
0000
0000
0010
0000
0000
0001
0000
,
1000
0000
0000
0000
0010
0000
0000
0000
1000
0000
0000
1000
0000
0000
1000
0000
,
0000
0000
0001
0000
0000
0010
0000
0000
0001
0000
0000
0100
0000
0000
0010
1000
,
0001
0000
0000
0000
0100
0000
0000
0000
0001
0000
0000
0001
0000
0000
0001
0000
,
0000
0000
1000
0000
0000
0100
0000
0000
1000
0000
0000
0010
0000
0000
1000
0000
,
0001
0000
0000
0000
0010
0000
0000
0000
0001
0000
0000
0001
0000
0000
0001
0000
,
0000
0000
1000
0000
0000
0010
0000
0000
1000
0000
0000
0100
0000
0000
0020
0000
,
0031
0000
0000
0000
0100
0000
0010
0000
0100
0000
0000
0100
0000
0000
0001
0000
,
1000
0000
0010
0000
0000
0010
0000
0000
0100
0000
0000
0100
0010
0000
1000
0000
,
0001
0000
0000
0000
0010
0000
0100
0000
0010
0000
0000
0010
0000
0000
0001
0000
,
1000
0000
0010
0000
0000
0010
0000
0000
0100
0000
0000
0100
0001
0000
0100
0010
,
1000
0000
0000
0000
0100
0000
0010
0000
0100
0000
0000
0100
0000
0000
1000
0000
,
0001
0000
0010
0000
0000
0010
0000
0000
0100
0000
0000
0100
0010
0000
0001
0000
,
1000
0000
0000
0000
0010
0000
0100
0000
0010
0000
0000
0010
0000
0000
1000
0000
,
0001
0000
0010
0000
0000
0010
0000
0000
0100
0000
0000
0100
1000
0000
0002
0000
,
1003
1000
0001
0001
,
0010
0010
0100
0100
,
1000
1000
0001
0001
,
0100
0100
0010
0010
,
1000
0001
0100
0001
1000
0001
0100
0001
,
1000
0010
1000
0100
1000
0010
1000
0001
,
0020
0000
0230
0000
,
0300
0000
0000
0000
0000
0000
0000
0000
1000
0000
0000
0001
0000
1000
0001
0000
,
1001
1001
0000
1010
0000
0010
0001
0010
,
1000
0001
0100
0001
1000
0100
0010
0001
,
1000
0010
0000
1010
0000
1100
0000
0100
,
0010
0001
0010
0100
1000
0001
0100
0000
,
0001
0010
0000
0011
0000
0010
1000
0010
,
0001
1000
0100
1000
0001
0100
0010
1000
,
0001
0010
0000
0011
0000
0101
0000
0100
,
1000
0100
0001
0100
1000
0100
0002
0000
,
1003
0100
0000
0110
0000
0010
1000
0010
,
0001
1000
0100
0010
0001
0010
1000
0000
,
0001
0100
0000
1100
0000
1010
0000
0010
,
0100
0001
0010
0100
1000
0010
1000
1000
,
0001
0100
0000
0110
0000
0010
0001
0010
,
1000
0001
0100
0010
1000
0010
0001
0010
,
1000
0100
0000
0010
0001
0100
0000
0010
,
1000
0000
1000
0000
0001
0000
0001
0000
0010
0100
0010
0100
2000
0000
0000
0000
,
3001
0001
1000
0001
0010
0100
0001
0200
,
1000
0320
0001
0130
1000
0010
0100
0010
,
1000
0001
0010
0001
0100
0010
0001
0020
,
1000
0230
0001
0310
1000
0100
0100
1000
,
0001
0010
0001
1000
0100
0010
1000
0020
,
0001
0230
1000
0310
0001
0100
0010
0100
,
0001
1000
0100
1000
0010
0100
1000
0100
,
0001
0000
0000
0000
1000
0000
0000
0000
0001
0000
0000
0100
0000
0000
0001
0000
,
1001
1000
0100
0001
0100
1000
0010
0100
,
1000
0100
0001
0100
1000
1000
0100
0001
,
1000
0001
0010
1000
0010
0001
0100
0010
,
0001
0010
1000
0100
0010
1000
0001
0100
,
1000
1000
0200
0000
0320
0000
0230
0000
,
1300
1000
0020
0000
0230
0000
0310
1000
,
0001
0001
0020
0000
0031
0001
0200
0000
,
0310
0000
0000
0000
1000
0000
0000
0000
0100
0000
0000
0010
0000
0000
0001
1000
,
0001
0000
0000
0000
;

//--------------- dance-single - ----------------
#NOTES:
     dance-single:
     :
     Hard:
     16:
     0.739606,0.915184,0.095332,0.219996,0.406993,706,693,13,30,0,0,0,0,0,0.739606,0.915184,0.095332,0.219996,0.406993,706,693,13,30,0,0,0,0,0:
0000
0000
0000
0000
,
0000
0000
0000
0000
,
0000
0000
0000
0000
,
0000
0000
0000
0000
,
1000
1000
0100
0000
0010
0000
0001
0000
,
1000
0010
0100
0001
,
1000
1000
0001
0100
0010
0100
0001
2000
,
0000
0000
0000
0000
,
3001
0000
0001
0000
0001
0000
0000
1000
,
0100
0010
0100
1000
0100
0010
0100
1000
,
0010
0000
0010
0000
0010
0000
0000
0100
,
0001
1000
0100
0010
0001
1000
0100
0100
,
1000
0000
1000
0000
1000
0000
0000
0001
,
0100
0010
0100
0001
0100
0010
0100
0001
,
0010
0000
0010
0000
0010
0000
0000
0100
,
1000
0001
0100
0010
1000
0001
0100
0100
,
0001
0000
0001
0000
0001
0000
0000
0010
,
0100
1000
0010
0100
0010
1000
0100
0010
,
0001
0000
0001
0000
0001
0000
0000
1000
,
0100
0010
0001
1000
0010
1000
0001
0001
,
1000
0000
1000
0000
1000
0000
0000
0010
,
0100
0001
0010
0100
0010
0001
0100
0010
,
1000
0000
1000
0000
1000
0000
0000
0001
,
0020
0000
0000
0000
0130
0000
0000
0200
,
1300
1000
1010
0000
1010
0000
0010
0001
,
0010
1000
0100
0010
0100
1000
0010
0100
,
0101
0000
0011
0000
0101
0000
0100
0010
,
0100
0000
0001
0000
0010
0000
0001
0000
1000
0000
0100
0000
0010
0000
0001
0100
,
0001
0000
0011
0000
0011
0000
0010
1000
,
0010
0001
0100
0010
0100
0001
0010
0100
,
1100
0000
1010
0000
1100
0000
0100
0010
,
0001
0000
0100
0000
0010
0000
0100
0000
0001
0000
0010
0100
0000
1000
0010
0000
,
0002
0000
1003
0100
0001
0100
0010
1000
,
1000
0001
0001
0010
0010
0100
0010
0001
,
1000
0100
0001
0100
1000
0100
0010
0001
,
0001
0000
1000
0000
1000
0000
0010
0000
0010
0000
0100
0000
0010
1000
0010
0100
,
2000
0000
3001
0010
1000
0001
0010
0100
,
0100
1000
1000
0010
0010
0100
0001
0020
,
0100
0031
1000
0020
0100
1030
0001
0000
,
0010
0100
0010
0000
0001
0000
0100
0000
0010
0000
0100
0000
0001
0000
1000
0000
,
1001
0000
0000
0000
0001
0000
0000
0000
0010
0000
0000
0001
0000
0000
0100
0000
,
0000
0000
0010
0000
0000
1000
0000
0000
0001
0000
0000
1000
0000
0000
0010
0000
,
1000
0000
0000
0000
0001
0000
0000
0000
0100
0000
0000
0001
0000
0000
0010
0000
,
0000
0000
0100
0000
0000
0100
0000
0000
1000
0000
0000
0010
0000
0000
1000
1000
,
0001
0000
0000
0000
1000
0000
0000
0000
0100
0000
0000
1000
0000
0000
0010
0000
,
0000
0000
0100
0000
0000
0001
0000
0000
1000
0000
0000
0001
0000
0000
0100
0000
,
0001
0000
0000
0000
1000
0000
0000
0000
0010
0000
0000
1000
0000
0000
0100
0000
,
0000
0000
0000
0000
0000
0000
0010
0000
0000
0000
0000
0000
0000
0000
0000
0010
0000
0000
0000
0000
0000
0000
0000
0000
0001
0000
0000
0000
0000
0000
0000
0000
0000
0100
0000
0000
0000
0000
0000
0000
0000
0000
0001
0000
1000
0000
0001
0000
,
1000
0000
0000
0000
0100
0000
0010
0000
0100
0000
1000
0001
0000
0100
0001
0000
,
0010
0000
0001
0000
1000
0010
0000
0100
0001
0000
1000
0100
0000
0010
0001
0000
,
0100
0000
0000
0000
0001
0000
0010
0000
0100
0000
1000
0001
0000
0100
0001
0000
,
0010
0000
0001
0000
1000
0100
0000
0010
1000
0000
0010
0000
0100
0000
1000
1000
,
0001
0000
0000
0000
0100
0000
0010
0000
0100
0000
0001
1000
0000
0100
1000
0000
,
0010
0000
1000
0000
0001
0010
0000
0100
1000
0000
0001
0100
0000
0010
1000
0000
,
0100
0000
0000
0000
1000
0000
0010
0000
0100
0000
0001
1000
0000
0100
1000
0000
,
0010
0000
1000
0000
0001
0100
0000
0010
0001
0000
0010
0000
2000
0000
0000
0000
,
3001
0001
1000
1000
,
0100
0100
0010
0010
,
0001
0001
1000
1000
,
0010
0010
0100
0100
,
0010
0100
1000
0100
0010
0010
1000
0001
,
0010
0100
0001
0100
0010
0010
0001
1000
,
0010
0100
0001
1000
0010
0100
0001
1000
0100
0010
0001
1000
0100
0010
0001
1000
,
0000
0000
0000
0000
0000
0000
0000
0000
0001
0000
0000
0001
0000
0010
0100
0010
,
0001
0100
1000
0000
0100
0000
0001
0000
0000
0000
0001
0000
1000
0010
0100
0000
,
0001
0001
1000
1000
0100
0100
0010
0010
,
0001
0010
1000
0000
0010
0000
0100
0000
0000
0000
1100
0000
0000
0000
1000
0100
,
0010
0010
0001
0001
1000
1000
0010
0010
,
1000
0010
0001
0000
0010
0000
1000
0000
0000
0000
1000
0000
0001
0100
0010
0000
,
1000
1000
0001
0001
0010
0010
0100
0100
,
1000
0100
0001
0000
0100
0000
0010
0000
0000
0000
0011
0000
0000
0000
0001
0010
,
0100
1000
0010
1000
0100
0010
0002
0000
,
1003
0100
0001
0000
0100
0000
1000
0000
0100
0000
0010
0000
0001
1000
0020
0000
,
0100
2030
0010
3002
0010
2003
0100
3001
,
1000
0010
0001
0000
0010
0000
1000
0000
0010
0000
0100
0000
0001
0000
0010
0200
,
1000
0320
0001
0230
1000
0310
0001
1000
,
0001
0100
1000
0000
0100
0000
0001
0000
0100
0000
0010
0000
1000
0001
0020
0000
,
0100
0032
0010
2003
0010
3002
0100
1003
,
0001
0010
1000
0000
0010
0000
0001
0000
1000
0010
0001
0000
0010
0000
1000
0000
,
0100
0000
0010
0000
0100
0000
1000
0000
0010
0100
0010
0100
0002
0000
0000
0000
,
1003
0000
1000
0000
0100
0010
0100
0000
1000
0010
1000
0010
0100
0000
0001
0000
,
1000
0100
0010
0000
0010
0100
1000
0001
0100
0000
0010
0000
0010
0000
1000
0000
,
0001
0000
0100
0000
0010
0100
0001
0000
1000
0100
1000
0100
0010
0000
0001
0000
,
1000
0010
0100
0000
0100
0010
1000
0001
0010
0000
0100
0000
0001
0000
0100
0000
,
1000
0000
0001
0000
0100
0010
0100
0000
0001
0010
0001
0010
0100
0000
1000
0000
,
0001
0100
0010
0000
0010
0100
0001
1000
0100
0000
0010
0000
0010
0000
0001
0000
,
1000
0000
0100
0000
0010
0100
1000
0000
0001
0100
0001
0100
0010
0000
1000
0000
,
0100
0000
0000
0000
0100
0000
0000
0000
0010
0000
0000
0010
0001
0000
0100
0000
,
0001
0000
0001
0000
0100
0010
1000
0000
0001
0010
0100
0010
1000
0000
0010
0000
,
0100
1000
0001
1000
0100
1000
0001
1000
0010
0000
0100
0000
0100
0000
0010
1000
,
0001
0000
0010
0000
0100
0010
0001
0000
1000
0010
0100
0010
0001
0000
0010
0000
,
0100
0001
1000
0001
0100
0001
1000
0001
0010
1000
0010
0000
0100
0000
1000
0000
,
0001
0002
1000
0203
0010
0302
1000
0203
,
0301
0002
1000
0023
0100
0032
1000
0013
,
0100
1000
2000
0010
3100
1000
2000
0010
,
3001
0000
0000
0000
1000
0000
0000
0000
0100
0000
0000
0010
0000
0000
1000
0010
,
0001
0000
0000
0000
;
