#TITLE:Pump Jump;
#SUBTITLE:;
#ARTIST:BanYa;
#TITLETRANSLIT:;
#SUBTITLETRANSLIT:;
#ARTISTTRANSLIT:;
#GENRE:;
#CREDIT:;
#BANNER:Pump Jump-banner.png;
#BACKGROUND:Pump Jump-bg.png;
#LYRICSPATH:;
#CDTITLE:;
#MUSIC:Pump Jump.ogg;
#OFFSET:0.000000;
#SAMPLESTART:36.226002;
#SAMPLELENGTH:12.000000;
#SELECTABLE:YES;
#BPMS:0.000000=105.879997
,8.000000=106.000000
;
#STOPS:
;
#BGCHANGES:0.000=Pump Jump.mpg=1.000=0=0=0=StretchNoLoop====,
99999=-nosongbg-=1.000=0=0=0 // don't automatically add -songbackground-
;
#KEYSOUNDS:;
#ATTACKS:;

//---------------dance-single - ----------------
#NOTES:
     dance-single:
     :
     Hard:
     11:
     0.456738,0.541398,0.693237,0.000000,0.113815,309.000000,242.000000,67.000000,0.000000,0.000000,0.000000,0.456738,0.541398,0.693237,0.000000,0.113815,309.000000,242.000000,67.000000,0.000000,0.000000,0.000000:
// measure 0
0000
0000
0000
0000
,  // measure 1
0000
0000
0000
0000
,  // measure 2
1000
0000
0000
0000
,  // measure 3
0001
0000
0000
0000
,  // measure 4
1000
0100
1010
0000
0001
0100
0011
0000
,  // measure 5
1000
0100
0010
0001
1100
1100
1001
0000
,  // measure 6
0001
0010
0101
0000
1000
0010
1100
0000
,  // measure 7
0001
0010
0100
1000
0011
0011
1001
0000
,  // measure 8
1000
0100
0001
0100
0001
0100
1000
0010
,  // measure 9
0100
0000
0100
0000
0001
0000
1000
0000
0100
0000
0010
0100
0000
0000
1000
0000
,  // measure 10
0010
0000
0100
0000
1000
0000
0100
0000
0010
0000
1000
0001
0000
0000
0010
0000
,  // measure 11
0100
0000
0001
0100
0000
0000
1000
0000
0010
0000
0110
0000
1001
0000
0001
0000
,  // measure 12
1000
0100
0001
0000
0001
0100
1000
0001
,  // measure 13
1000
0010
0001
1000
0100
0001
0010
0000
,  // measure 14
0100
0010
0000
0000
1000
0000
0010
0000
0100
0000
0001
0000
1000
0000
0100
0000
,  // measure 15
0010
0010
0100
0100
1000
1100
1001
0000
,  // measure 16
1000
0100
0011
0000
0001
0100
1010
0000
,  // measure 17
1000
0001
0100
0010
1010
1001
0101
0000
,  // measure 18
0001
1000
0011
0000
1000
0001
1010
0000
,  // measure 19
1000
0100
0010
0001
0011
0101
1010
0000
,  // measure 20
1000
0001
0110
0000
0001
1000
0110
0000
,  // measure 21
1000
0010
0100
0001
0011
0101
1001
0000
,  // measure 22
0001
0100
1001
0000
1000
0010
1001
0000
,  // measure 23
0001
0010
0100
1000
1100
1010
1001
0000
,  // measure 24
1000
0000
0010
0000
0001
0000
0010
0000
0100
0010
0000
0100
0000
0000
0000
0000
,  // measure 25
0001
0000
0100
0000
1000
0000
0100
0000
0010
0100
0000
0010
0000
0000
0000
0000
,  // measure 26
1000
0000
0000
0010
0000
0010
0000
0000
0100
0000
0000
0001
0000
0001
0000
0000
,  // measure 27
0011
0000
0000
0000
1100
0000
0000
0000
0001
0000
0000
0100
0000
0100
0000
0000
,  // measure 28
0010
0000
1000
0000
0100
0000
0010
0000
0001
0010
0100
1000
0000
0000
0000
0000
,  // measure 29
1010
0101
1100
0011
,  // measure 30
1000
0000
0000
1000
0000
0000
0001
0000
1000
0100
0000
0010
0000
0000
0000
0000
,  // measure 31
0001
0000
0000
1000
0000
0000
0010
0000
0100
0010
0000
1001
0000
0000
0000
0000
,  // measure 32
0000
0000
0000
0000
1000
0100
1010
0000
,  // measure 33
0001
0100
0011
0000
1000
0010
0001
0010
,  // measure 34
0110
1001
0110
0000
0001
0100
0011
0000
,  // measure 35
1000
0100
1010
0000
0001
0100
1000
0100
,  // measure 36
0110
1001
0110
0000
1100
0100
0011
0000
,  // measure 37
0101
0100
1010
0000
1000
1000
0001
0001
,  // measure 38
1000
0100
1001
0000
0011
0010
1100
0000
,  // measure 39
1010
0010
0101
0000
1100
1100
0101
0101
,  // measure 40
1100
0101
1001
0000
0000
0000
0000
0000
;

//---------------dance-single - ----------------
#NOTES:
     dance-single:
     :
     Medium:
     9:
     0.382833,0.416460,0.475954,0.000000,0.015520,259.000000,213.000000,46.000000,0.000000,0.000000,0.000000,0.382833,0.416460,0.475954,0.000000,0.015520,259.000000,213.000000,46.000000,0.000000,0.000000,0.000000:
// measure 0
0000
0000
0000
0000
,  // measure 1
0000
0000
0000
0000
,  // measure 2
0000
0000
0000
0000
,  // measure 3
0000
0000
0000
0000
,  // measure 4
1000
0011
0001
1010
,  // measure 5
1000
0100
0001
0000
0001
0100
1000
0000
,  // measure 6
0001
1010
1000
0011
,  // measure 7
0001
0010
1000
0000
1000
0010
0001
0000
,  // measure 8
1000
0100
0010
0100
0001
0100
1000
0000
,  // measure 9
0001
0010
0100
1000
0010
0100
0001
0000
,  // measure 10
1000
0000
0001
0000
0100
0001
1000
0000
,  // measure 11
0001
0010
0100
1000
0100
0110
1001
0000
,  // measure 12
1000
0000
0010
0000
0100
0001
0010
0000
,  // measure 13
0001
0010
0100
1000
0001
0001
0100
0000
,  // measure 14
0001
1100
0011
1001
,  // measure 15
1000
0100
0010
0001
0101
0110
1010
0000
,  // measure 16
0100
1001
0010
1001
,  // measure 17
0001
0010
0100
1000
0010
0100
1001
0000
,  // measure 18
0001
0110
1000
0110
,  // measure 19
1000
0010
0100
0001
1000
0100
0011
0000
,  // measure 20
1000
1000
0110
0000
0001
0001
0110
0000
,  // measure 21
1000
0100
0001
0100
1000
0010
0100
0000
,  // measure 22
0010
0010
1001
0000
0100
0100
1001
0000
,  // measure 23
0001
0010
0100
1000
1001
1001
1001
0000
,  // measure 24
1000
0000
0010
0000
0001
0000
0010
0000
1000
0000
0000
1000
0000
0000
0000
0000
,  // measure 25
0001
0000
0100
0000
1000
0000
0100
0000
0001
0000
0000
0001
0000
0000
0000
0000
,  // measure 26
1000
0100
0010
0001
,  // measure 27
0011
0000
1100
0000
0001
0100
1000
0000
,  // measure 28
0100
0010
0100
0010
1000
0100
0010
0000
,  // measure 29
0011
1010
1100
0011
,  // measure 30
1000
0100
0001
0000
0001
0100
1000
0000
,  // measure 31
0001
0000
0010
0000
0100
0000
1000
0000
1100
0000
0000
0001
0000
0000
0000
0000
,  // measure 32
0000
0000
0000
0000
1000
0100
1100
0000
,  // measure 33
0001
0100
0101
0000
1000
0100
0001
0100
,  // measure 34
1000
0100
0110
0000
0001
0010
0011
0000
,  // measure 35
1000
0010
1010
0000
0001
0010
1000
0010
,  // measure 36
0001
0100
0110
0000
1000
0100
0011
0000
,  // measure 37
0001
0100
1010
0000
1000
0001
0100
0001
,  // measure 38
0010
0100
1001
0000
0001
0100
1010
0000
,  // measure 39
1000
0100
0011
0000
0001
0001
1000
1000
,  // measure 40
0110
1001
0110
0000
0000
0000
0000
0000
;

//---------------dance-single - ----------------
#NOTES:
     dance-single:
     :
     Easy:
     8:
     0.328142,0.353991,0.341445,0.000000,0.000000,222.000000,189.000000,33.000000,0.000000,0.000000,0.000000,0.328142,0.353991,0.341445,0.000000,0.000000,222.000000,189.000000,33.000000,0.000000,0.000000,0.000000:
// measure 0
0000
0000
0000
0000
,  // measure 1
0000
0000
0000
0000
,  // measure 2
0000
0000
0000
0000
,  // measure 3
0000
0000
0000
0000
,  // measure 4
1000
1001
0001
1001
,  // measure 5
0001
0000
0010
0000
0100
1000
0010
0000
,  // measure 6
0100
0110
0010
0110
,  // measure 7
0010
0000
1000
0000
0100
0010
0001
0000
,  // measure 8
1000
0000
0001
0000
0100
0001
0010
0000
,  // measure 9
0001
0100
0010
0000
1000
1000
1000
0000
,  // measure 10
0100
0000
1000
0000
0010
0100
0001
0000
,  // measure 11
1000
0100
0010
0000
0001
0001
0001
0000
,  // measure 12
1000
0110
0001
0110
,  // measure 13
1000
0100
0001
0100
1000
0100
0001
0000
,  // measure 14
0100
1000
0010
0000
0100
0001
0010
0000
,  // measure 15
0100
1000
0001
0010
1000
0010
0001
0000
,  // measure 16
1000
0110
0001
0110
,  // measure 17
1000
0100
1000
0000
0001
0000
1001
0000
,  // measure 18
0001
0110
1000
0110
,  // measure 19
0001
0100
0001
0000
1000
0000
1001
0000
,  // measure 20
0100
1010
0100
0011
,  // measure 21
1000
0100
0010
0000
0001
1000
0010
0000
,  // measure 22
0100
0011
0100
1010
,  // measure 23
0001
0100
0010
0000
1000
0100
0001
0000
,  // measure 24
0100
0000
1000
0000
0010
1000
0100
0000
,  // measure 25
1000
0000
0001
0000
0100
0001
0010
0000
,  // measure 26
0100
1001
1010
1001
,  // measure 27
0011
0000
0011
0000
0001
0100
0010
0000
,  // measure 28
1000
0100
0010
0001
,  // measure 29
1100
1001
0101
1001
,  // measure 30
1000
0100
0010
0001
,  // measure 31
1000
0001
0100
0000
0001
1000
0010
0000
,  // measure 32
0000
0000
0000
0000
1000
1000
1010
0000
,  // measure 33
0001
0001
0011
0000
1000
0100
0010
0000
,  // measure 34
0001
1000
0001
0000
0001
0001
0101
0000
,  // measure 35
1000
1000
1100
0000
0001
0100
0010
0000
,  // measure 36
1000
0100
1000
0000
0001
0010
0011
0000
,  // measure 37
1000
0010
1010
0000
1000
0100
0010
0001
,  // measure 38
1000
0001
1000
0000
0001
0100
0101
0000
,  // measure 39
1000
0100
1100
0000
0001
0001
0001
0001
,  // measure 40
0001
0001
0001
0000
0000
0000
0000
0000
;

//---------------dance-single - ----------------
#NOTES:
     dance-single:
     :
     Beginner:
     2:
     0.069472,0.124938,0.082775,0.000000,0.000000,47.000000,39.000000,8.000000,0.000000,0.000000,0.000000,0.069472,0.124938,0.082775,0.000000,0.000000,47.000000,39.000000,8.000000,0.000000,0.000000,0.000000:
// measure 0
0000
0000
0000
0000
,  // measure 1
0000
0000
0000
0000
,  // measure 2
0000
0000
0000
0000
,  // measure 3
0000
0000
0000
0000
,  // measure 4
1001
0000
0000
0000
,  // measure 5
1000
0000
0000
0000
,  // measure 6
1001
0000
0000
0000
,  // measure 7
0001
0000
0000
0000
,  // measure 8
1000
0000
0000
0000
,  // measure 9
0100
0000
0000
0000
,  // measure 10
0001
0000
0000
0000
,  // measure 11
0100
0000
0000
0000
,  // measure 12
1000
0000
0000
0000
,  // measure 13
0001
0000
0000
0000
,  // measure 14
0001
0000
0000
0000
,  // measure 15
0100
0000
0000
0000
,  // measure 16
0110
0000
0000
0000
,  // measure 17
0100
0000
0000
0000
,  // measure 18
0110
0000
0000
0000
,  // measure 19
0010
0000
0000
0000
,  // measure 20
0001
0000
0000
0000
,  // measure 21
0010
0000
0000
0000
,  // measure 22
0100
0000
0000
0000
,  // measure 23
1000
0000
0000
0000
,  // measure 24
0010
0000
0000
0000
,  // measure 25
0100
0000
0000
0000
,  // measure 26
0001
0000
0000
0000
,  // measure 27
1000
0000
0000
0000
,  // measure 28
0100
0000
0000
0000
,  // measure 29
0010
0000
0000
0000
,  // measure 30
0001
0000
0000
0000
,  // measure 31
1000
0000
0000
0000
,  // measure 32
0000
0000
1001
0000
,  // measure 33
0000
0000
0100
0000
,  // measure 34
0000
0000
1001
0000
,  // measure 35
0000
0000
0100
0000
,  // measure 36
0000
0000
0110
0000
,  // measure 37
0000
0000
0001
0000
,  // measure 38
0000
0000
0110
0000
,  // measure 39
0000
0000
1000
1000
,  // measure 40
1000
1000
0000
0000
;

//---------------dance-single - ----------------
#NOTES:
     dance-single:
     :
     Challenge:
     14:
     0.685847,0.707981,0.807052,0.000000,0.693237,464.000000,386.000000,78.000000,0.000000,0.000000,0.000000,0.685847,0.707981,0.807052,0.000000,0.693237,464.000000,386.000000,78.000000,0.000000,0.000000,0.000000:
// measure 0
0000
0000
0000
0000
,  // measure 1
0000
0000
0000
0000
,  // measure 2
0000
0000
0000
0000
,  // measure 3
0001
0000
0100
0010
0100
0000
0001
0000
1000
0100
0010
0000
0001
0000
0000
0000
,  // measure 4
1000
0100
0010
1000
0010
0000
1010
0000
1000
0010
0001
0100
1000
0000
1100
0000
,  // measure 5
1000
0100
0010
1000
0100
0010
0001
0000
0011
0000
0101
0000
1001
0000
1000
0000
,  // measure 6
0001
0010
0100
0001
0100
0000
0101
0000
0001
0100
1000
0010
0001
0000
0011
0000
,  // measure 7
0001
0010
0100
0001
0010
0100
1000
0000
1100
0000
1001
0000
0011
0000
0000
0000
,  // measure 8
1000
0000
0100
0000
0001
0000
0100
1000
0000
0010
0100
0000
1000
0000
0100
0001
,  // measure 9
0010
0001
0100
0000
0110
0000
0010
1000
0100
0000
0001
0100
0000
0000
1000
0010
,  // measure 10
0001
0010
1000
0100
0010
0000
0001
0000
0100
0000
1000
0001
0000
0000
1000
0000
,  // measure 11
0100
0000
0010
1000
0000
0001
0010
1000
1010
0000
0011
0000
0101
0000
0001
0100
,  // measure 12
1000
0000
0100
0010
0000
0000
1000
0000
0100
0001
0000
0100
0000
0000
1000
0010
,  // measure 13
0100
1000
0100
0001
0010
0100
0001
0100
1000
0010
0100
1001
0000
0000
0000
0000
,  // measure 14
1000
0010
0000
0001
0000
0010
1000
0100
0110
0000
0011
0000
0101
0000
0001
0100
,  // measure 15
1000
0100
0001
0010
0100
0000
1000
0100
0110
0000
0011
0000
1001
0000
0000
0000
,  // measure 16
0001
0010
0100
0001
0100
0000
0101
0000
0001
0100
1000
0010
0100
0000
0110
0000
,  // measure 17
0010
0100
1000
0100
0001
0010
0100
0000
1100
0000
0101
0000
1001
0000
0001
0000
,  // measure 18
1000
0100
0010
1000
0010
0000
1010
0000
1000
0010
0001
0100
0010
0000
0110
0000
,  // measure 19
0100
0010
0001
0010
1000
0100
0010
0000
0011
0000
1010
0000
1001
0000
0001
0000
,  // measure 20
1000
0100
0001
0100
1000
0000
1001
0000
0001
0100
1000
0100
0001
0000
1001
0000
,  // measure 21
1000
0010
0001
0010
1000
0100
0001
0000
0101
0000
1100
0000
1001
0000
1000
0000
,  // measure 22
0001
0010
1000
0010
0001
0000
0110
0000
1000
0100
0001
0100
1000
0000
0110
0000
,  // measure 23
0001
0100
1000
0100
0001
0010
1000
0000
1010
0000
0011
0000
1001
0000
0000
0000
,  // measure 24
1000
0000
0001
0100
0010
0100
1000
0100
0010
0100
0000
0101
0000
0000
0000
1000
,  // measure 25
0100
0000
0010
0001
0100
0000
0000
0000
0100
0010
0000
1010
0000
0000
0000
0000
,  // measure 26
1000
0000
0100
0001
0000
1001
0000
0000
0001
0000
0100
1000
0000
1001
0000
0000
,  // measure 27
0001
1000
0100
0000
1000
0001
0100
0000
0001
0000
1000
0100
0000
0110
0000
0000
,  // measure 28
0001
0000
0100
1000
0000
0000
0100
0000
0001
0010
0100
0001
0000
0000
0000
0000
,  // measure 29
0101
0000
0000
0000
1100
0000
0000
0000
1010
0010
0000
0000
0110
0000
0000
0000
,  // measure 30
0010
0000
1000
0100
0000
0000
0010
0000
0001
0100
0000
1001
0000
0000
0000
0000
,  // measure 31
1000
0100
0001
0100
0000
0000
1000
0010
0100
0001
0000
0011
0000
0000
0000
0000
,  // measure 32
0000
0000
0000
0000
0001
0000
0000
0000
1000
0010
0100
1000
0100
0000
1100
0000
,  // measure 33
0001
0010
0100
0001
0100
0000
0101
0000
0001
0100
0010
0001
1000
0100
0001
0000
,  // measure 34
0101
0000
1100
0000
1001
0000
1000
0000
0001
0010
0100
0001
0100
0000
0101
0000
,  // measure 35
1000
0010
0100
1000
0100
0000
1100
0000
1000
0100
0010
1000
0001
0100
1000
0000
,  // measure 36
1100
0000
0101
0000
1001
0000
0000
0000
1000
0100
0010
0001
0011
0000
1100
0000
,  // measure 37
0001
0100
0010
1000
1010
0000
0101
0000
1100
0000
0011
0000
0101
0000
1010
0000
,  // measure 38
1001
0000
0110
0000
1001
1000
0001
0000
0001
0010
0100
1000
1010
0000
0101
0000
,  // measure 39
1000
0010
0100
0001
0011
0000
1100
0000
0001
0100
1000
0100
0001
0100
1000
0100
,  // measure 40
0001
0100
1000
0100
1001
0000
0000
0000
0000
0000
0000
0000
0000
0000
0000
0000
;

//---------------dance-double - ----------------
#NOTES:
     dance-double:
     :
     Challenge:
     14:
     0.645938,0.624690,0.765665,0.000000,0.631156,437.000000,363.000000,74.000000,0.000000,0.000000,0.000000,0.645938,0.624690,0.765665,0.000000,0.631156,437.000000,363.000000,74.000000,0.000000,0.000000,0.000000:
00000000
00000000
00000000
00000000
,
00000000
00000000
00000000
00000000
,
00000000
00000000
00000000
00000000
,
00011000
00000000
00001000
00010000
00100000
00000000
01000000
00000000
00010000
01000000
00100000
10000000
00010000
00000000
00000000
00000000
,
10000000
01000000
00100000
00010000
00100000
00000000
00110000
00000000
00010000
00100000
00001000
00010000
00000100
00000000
00001100
00000000
,
00001000
00000010
00000100
00000001
00000100
00001000
00000100
00000000
00000101
00000000
00001100
00000000
00001001
00000000
00000000
00000000
,
00000001
00000010
00000100
00001000
00000010
00000000
00001010
00000000
00001000
00000100
00010000
00001000
00100000
00000000
00110000
00000000
,
00010000
01000000
00100000
10000000
01000000
00010000
01000000
00000000
11000000
00000000
01010000
00000000
10010000
00000000
00000000
00000000
,
10000000
00000000
01000000
00000000
00010000
00000000
00001000
00000010
00000000
00001000
00010000
00000000
00100000
00000000
01000000
00010000
,
00100000
00010000
00001000
00000100
00000010
00000000
00000100
00001000
00000100
00000000
00010000
01000000
00000000
00000000
10000000
01000000
,
10000000
00100000
00010000
00001000
00000100
00000000
00000010
00000000
00001000
00000000
00000100
00000001
00000000
00000000
00000100
00000000
,
00001000
00000000
00000010
00000100
00000000
00000001
00000010
00000100
00001100
00000000
00011000
00000000
00110000
00000000
00010000
01000000
,
10000000
00000000
01000000
00010000
00000000
00000000
00001000
00000000
00000010
00000001
00000000
00000010
00000000
00000000
00001000
00000010
,
00000100
00001000
00010000
00000100
00001000
00010000
00100000
00001000
00010000
00100000
01000000
10000000
00000000
00000000
00000000
00000000
,
01000000
00010000
00000000
00100000
00000000
01000000
10000000
01000000
00010000
00000000
00001000
00000000
00000100
00000000
00000001
00000010
,
00000100
00001000
00000100
00000010
00001000
00000000
00010000
00001000
00100000
00000000
01010000
00000000
10100000
00000000
00000000
00000000
,
10000000
01000000
00100000
00010000
00001000
00000000
00000001
00000000
00000001
00000010
00000100
00001000
00010000
00000000
10000000
00000000
,
10000000
01000000
00100000
00010000
00001000
00000100
00001000
00000000
00001100
00000000
00000101
00000000
00001001
00000000
00000000
00000000
,
00000001
00000100
00000010
00001000
00010000
00000000
10000000
00000000
10000000
00100000
01000000
00010000
00001000
00000000
00000001
00000000
,
00000001
00000100
00000010
00001000
00010000
01000000
00100000
00000000
10100000
00000000
01010000
00000000
10010000
00000000
00000000
00000000
,
10000000
01000000
00010000
00001000
00000010
00000000
00000110
00000000
00000001
00000100
00001000
00010000
00100000
00000000
01100000
00000000
,
10000000
01000000
10000000
00010000
01000000
00010000
00100000
00000000
01100000
00000000
01010000
00000000
10010000
00000000
00100000
00000000
,
10000000
00100000
00010000
00001000
00000100
00000000
00000110
00000000
00000001
00000010
00001000
00010000
01000000
00000000
01100000
00000000
,
10000000
01000000
00100000
00010000
00001000
00000100
00000010
00000000
00000011
00000000
00001001
00000000
00001100
00000000
00000000
00000000
,
00010000
00000000
00001000
00100000
00001000
01000000
00001000
00010000
00000100
00000010
00000000
00000011
00000000
00000000
00000000
00000001
,
00000100
00000000
00010000
01000000
00100000
00000000
00000000
00000000
10000000
01000000
00000000
00110000
00000000
00000000
00000000
00000000
,
10000000
00000000
00100000
00001000
00000000
00100000
00000000
00000000
10000000
00000000
01000000
00001000
00000000
01000000
00000000
00000000
,
00110000
00000000
00000000
00000000
00001010
00000000
00000000
00000000
00000001
00000000
00000100
00010000
00000000
00000100
00000000
00000000
,
00000001
00000000
00000010
00000100
00000000
00000000
00010000
00000000
00100000
01000000
10000000
01000000
00000000
00000000
00000000
00000000
,
00011000
00101000
00011000
00010010
,
00010000
00000000
00100000
01000000
00000000
00000000
10000000
00000000
00010000
00001000
00000000
00011000
00000000
00000000
00000000
00000000
,
00001000
00000010
00000100
00001000
00000000
00000000
00000001
00000100
00001000
00010000
00000000
00011000
00000000
00000000
00000000
00000000
,
00000000
00000000
00000000
00000000
10000000
00000000
00000000
00000000
10000000
00100000
00010000
00001000
00000010
00000000
00000011
00000000
,
00000001
00000010
00001000
00010000
00100000
00000000
10100000
00000000
10000000
01000000
00010000
00001000
00000100
00001000
00010000
00000000
,
00011000
00000000
00010100
00000000
00001001
00000000
00000000
00000000
00000001
00000100
00001000
00010000
01000000
00000000
11000000
00000000
,
10000000
01000000
00010000
00001000
00000100
00000000
00000101
00000000
00000001
00000010
00001000
00010000
00100000
00010000
00001000
00000000
,
00011000
00101000
10010000
00000000
11000000
01010000
00101000
00000000
,
00000011
00001010
00010100
00000000
10010000
10010000
00011000
00011000
,
00001001
00000000
00011000
00000000
10010000
00000000
00000000
00000000
10000000
00100000
00010000
00001000
00011000
00000000
00000000
00000000
,
00000001
00000010
00001000
00010000
00011000
00000000
00000000
00000000
00101000
00000000
00010100
00000000
00010010
00000000
01001000
00000000
,
01010000
00001010
00011000
00000000
00000000
00000000
00000000
00000000
;

//---------------dance-double - ----------------
#NOTES:
     dance-double:
     :
     Hard:
     11:
     0.419785,0.416460,0.444913,0.000000,0.000000,284.000000,241.000000,43.000000,0.000000,0.000000,0.000000,0.419785,0.416460,0.444913,0.000000,0.000000,284.000000,241.000000,43.000000,0.000000,0.000000,0.000000:
00000000
00000000
00000000
00000000
,
00000000
00000000
00000000
00000000
,
00010000
00000000
00000000
00000000
,
00001000
00000000
00000000
00000000
,
00100000
00010000
01010000
00000000
00100000
10000000
11000000
00000000
,
10000000
01000000
00010000
00001000
00000010
00000001
00001001
00000000
,
00000100
00001000
00001010
00000000
00000100
00000001
00000011
00000000
,
00000001
00000010
00001000
00010000
01000000
10000000
10100000
00000000
,
10000000
01000000
00010000
00000100
00000010
00000001
00000100
00001000
,
00010000
00001000
00100000
10000000
00100000
00010000
01000000
00100000
,
00001000
00000010
00001000
00010000
00001000
00000100
00000010
00000001
,
00000100
00000100
00001000
00001000
00010000
00010000
00100000
00010000
,
01000000
10000000
01000000
00000000
00001000
00010000
01000000
00000000
,
00010000
00001000
00000010
00000001
00000100
00001000
00010000
00000000
,
00100000
00010000
00100000
00010000
01000000
10000000
01000000
00001000
,
00010000
00000100
00010000
00000010
00000001
00000010
00001000
00000000
,
00000001
00000100
00001001
00000000
00010000
00001000
00010100
00000000
,
00001000
00010000
00100000
01000000
10000000
01000000
01010000
00000000
,
10000000
01000000
10010000
00000000
00100000
00010000
00101000
00000000
,
00010000
00001000
00000100
00000010
00000001
00000010
00001010
00000000
,
00000001
00000100
00001100
00000000
00010000
01000000
11000000
00000000
,
10000000
00100000
00010000
00100000
10000000
01000000
01100000
00000000
,
10000000
00100000
00110000
00000000
00001000
00000010
00000011
00000000
,
00000001
00000010
00001000
00000010
00000001
00000100
00000110
00000000
,
00001000
00000100
00010000
00001000
01000000
00010000
00100000
00000000
,
00010000
01000000
00001000
00010000
00000100
00001000
00000010
00000000
,
00000110
00011000
01100000
00011000
,
00001010
00000000
00110000
00000000
00001000
00010000
00001000
00000000
,
00100000
00010000
01000000
10000000
01000000
00010000
00100000
00000000
,
00110000
00011000
00001100
00000110
,
00000010
00000001
00000100
00001000
00000100
00000001
00000010
00000000
,
00000100
00001000
00010000
00100000
01000000
10000000
00100000
00000000
,
00000000
00000000
10010000
00000000
10000000
01000000
00110000
00000000
,
00001000
00010000
00101000
00000000
00000100
00001000
00000010
00000100
,
00000101
00000101
00001001
00000000
00000001
00000100
00001010
00000000
,
00010000
00000100
00011000
00000000
00100000
00010000
01000000
00100000
,
10100000
11000000
10010000
00000000
10000000
01000000
00011000
00000000
,
00000001
00000100
00011000
00000000
00100000
00001000
00000010
00001000
,
00010000
00001000
00000100
00000000
00000001
00000010
00011000
00000000
,
10000000
00100000
00011000
00000000
00000010
00001000
00100000
00001000
,
00000100
00001000
01000000
00000000
00000000
00000000
00000000
00000000
;
