#TITLE:Primitive Vibes;
#SUBTITLE:;
#ARTIST:lapix;
#TITLETRANSLIT:;
#SUBTITLETRANSLIT:;
#ARTISTTRANSLIT:;
#GENRE:;
#CREDIT:;
#MUSIC:Primitive Vibes-audio.ogg;
#BANNER:sc2024-banner.png;
#BACKGROUND:sc2024-background.png;
#CDTITLE:scr-cdtitle.png;
#SAMPLESTART:27.200;
#SAMPLELENGTH:25.600;
#SELECTABLE:YES;
#OFFSET:0.000;
#BPMS:0.000=150.000;
#STOPS:;
#JACKET:sc2024-jacket.png;
#DISCIMAGE:;
#CDIMAGE:;
#BGCHANGES:;
#FGCHANGES:;

//--------------- dance-single - XO ----------------
#NOTES:
     dance-single:
     Scrypts [XO]:
     Medium:
     12:
     0,0,0,0,0:
0000
0000
0000
0000
,
0000
0000
0000
0000
,
0000
0000
0000
0000
,
0000
0000
0000
0000
,
0000
0000
0000
0000
,
1000
0100
0010
0001
,
1000
0010
0100
0001
,
1000
0100
0010
0001
,
1000
0010
1000
0001
1000
0100
2000
0000
,
3001
0100
0000
0001
0000
0010
0100
1000
,
0001
0100
0000
0001
0000
1000
0100
1000
,
0010
0100
0000
0001
0000
1000
0100
1000
,
0010
0100
0000
0001
0000
1000
0100
1000
,
0010
0100
0001
1000
0100
0010
0001
1000
,
0010
0100
0010
1000
0001
0010
0100
1000
,
0001
0000
0100
0001
1000
0000
0100
0010
,
0001
0100
0010
1000
,
1010
0000
0010
0100
0001
0000
0001
0100
,
0010
0000
0010
0100
0001
0000
0001
1000
,
0100
0000
0010
0001
0100
0000
0010
1000
,
0100
0000
0000
0000
0010
0000
0001
0000
1000
0000
0000
0000
0001
0100
0001
0000
,
1000
0100
0010
0100
1000
0010
0100
0010
,
1000
0000
0100
0000
0010
0000
0100
0000
1000
0000
0010
0000
0100
0000
0001
1000
,
0001
0010
0100
0010
0001
0100
0010
0100
,
0002
0000
2003
0000
3100
0010
0001
0000
,
0011
0000
0010
0100
1000
0000
1000
0100
,
0010
0000
0010
0100
1000
0000
1000
0001
,
0100
0000
0010
1000
0100
0000
0010
0001
,
0100
0000
0010
1000
0001
0010
0100
1000
,
0001
0100
0010
0100
0001
0010
0100
0010
,
0001
0000
0100
0000
0010
0000
0100
0000
0001
0000
0010
0000
0100
0000
1000
0001
,
1000
0010
0100
0010
1000
0100
0010
0100
,
2000
0000
3002
0000
0103
0010
1000
0000
,
0001
0000
1000
0100
0001
0100
1000
0001
,
0100
0000
0001
0100
1000
0100
0001
1000
,
0100
0000
1000
0100
0001
0100
1000
0001
,
0100
0000
0001
0100
0010
0000
1000
0000
,
1001
0000
1000
0010
0001
0010
1000
0001
,
0010
0000
0001
0010
1000
0010
0001
1000
,
0010
0000
1000
0010
0001
0010
1000
0001
,
0010
0100
1000
0010
0100
0000
0001
1000
,
0200
0000
0310
0002
0000
0000
1003
0010
,
0100
0000
0000
0010
0000
1000
0000
0001
0000
0000
0000
0000
0010
0000
0100
0000
,
1000
0000
0100
0020
0000
0000
0031
1000
,
0010
0000
0000
0000
0000
0000
0000
0000
0000
0100
0000
0000
0000
0000
0000
0001
0000
0000
0000
0000
0000
0000
0000
0000
1000
0000
0000
0000
0001
0000
0000
0000
1000
0000
0000
0000
0001
0000
0000
0000
0000
0000
0000
0000
0000
0000
0000
0000
,
0010
0000
0100
2000
0000
0000
3001
0100
,
0010
0000
0000
1000
0000
0001
0000
0010
0000
0000
0100
0000
1000
0000
0001
0000
,
0100
0010
1010
1000
,
0001
0010
0100
1000
0010
0100
0002
0000
,
1003
0100
0010
0001
0000
0100
0010
1000
,
0001
0010
0100
1000
0001
0100
1000
0100
,
0001
1000
0100
0010
0000
0001
0100
0010
,
1000
0010
0100
0001
1000
0100
0001
0100
,
1000
0010
0100
0001
0010
0100
2000
0000
,
3001
0100
0010
1000
0100
0010
0001
1000
,
0001
0000
0100
0010
1000
0000
0100
0010
,
0001
0000
0010
0000
0100
1000
0001
0000
,
2000
0000
3001
0100
2000
0000
3100
0001
,
2000
0000
3001
0100
1000
0100
0001
1000
,
0002
0000
1003
0100
0002
0000
0103
1000
,
0001
0000
1000
0000
0010
0000
0100
0000
0001
0000
0000
0001
0000
0000
1000
0000
,
0002
0000
1003
0010
0002
0000
0013
1000
,
0002
0000
1003
0010
0001
0010
1000
0100
,
2000
0000
3001
0010
2000
0000
3010
0001
,
1000
0010
0100
0001
2000
0000
3100
0000
,
0010
0001
0100
0010
1000
0000
0100
0010
,
0001
0100
0010
1000
0001
0000
0010
0100
,
1000
0000
0010
0000
0100
0000
0010
0000
1000
0000
0000
1000
0001
0000
0000
0000
,
1000
0010
0100
0001
0020
0000
0130
0100
,
1000
0000
0001
0000
1002
0000
0103
0010
,
1000
0100
0010
0001
0100
0000
0010
0000
,
1001
0100
1001
0010
,
1001
0000
1000
0000
1100
0100
0010
0000
,
2002
0000
0000
0000
,
3003
0000
0000
0000
;

//--------------- dance-single - DS, XO, MD- ----------------
#NOTES:
     dance-single:
     Scrypts [DS, XO, MD-]:
     Hard:
     14:
     0,0,0,0,0:
0000
0000
0000
0000
,
0000
0000
0000
0000
,
0000
0000
0000
0000
,
0000
0000
0000
0000
,
0000
0000
0000
0000
,
1000
0000
0010
0000
0100
0000
0010
0000
1000
0001
0000
0010
0000
0000
0100
0000
,
1000
0000
0010
0000
0100
0000
0010
0000
1000
0001
0000
0010
0000
0000
0000
0000
,
0001
0000
0010
0000
0100
0000
0010
0000
0001
1000
0000
0010
0000
0000
0100
0000
,
0101
0000
0001
0000
1000
0000
0100
0010
0001
0000
1000
0010
0100
0000
0000
0000
,
0001
0000
0001
0010
0000
0000
0100
0000
2000
0000
3100
0010
0002
0000
1003
0000
,
0100
0000
1000
0010
0000
0000
0100
0000
0001
0000
1000
0000
0100
0000
1000
0001
,
0010
0000
0001
0100
0000
0000
0010
0000
2000
0000
3100
0010
0001
0000
1000
0000
,
0010
0000
1000
0100
1000
0000
0001
0000
0100
0000
0010
0000
1000
0000
0001
0000
,
0010
0000
0001
1000
0001
0000
1000
0100
1000
0000
0001
0100
0001
0000
1000
0010
,
1000
0001
0010
0100
1000
0010
0100
0001
,
1001
1000
0100
0010
1000
0010
0100
1000
,
1001
0110
1001
MMMM
,
1001
0000
0000
1000
0010
0000
1000
0000
0100
0000
0000
1000
0010
0000
1000
0000
,
0100
0000
0000
1000
0010
0000
1000
0000
0100
0000
0000
1000
0010
0000
0100
0000
,
0001
0000
0000
1000
0100
0000
0010
0100
1000
0000
0000
0001
0100
0000
0010
0100
,
0001
0000
0000
1000
0100
0000
0010
0100
1000
0000
0000
0000
1000
0010
1000
0000
,
0001
0000
0000
0001
0010
0000
0010
0100
1000
0000
0000
1000
0010
0000
0010
0100
,
0001
0000
0000
0001
0010
0000
0010
0100
1000
0000
0000
1000
0010
0000
0100
0001
,
1000
0000
0000
1000
0100
0000
0100
0010
0001
0000
0000
0001
0100
0000
0100
0010
,
1000
0010
0100
0001
0010
0100
0110
0000
,
1001
0000
0000
0001
0010
0000
0001
0000
0100
0000
0000
0001
0010
0000
0001
0000
,
0100
0000
0000
0001
0010
0000
0001
0000
0100
0000
0000
0001
0010
0000
0100
0000
,
1000
0000
0000
0001
0100
0000
0010
0100
0001
0000
0000
1000
0100
0000
0010
0100
,
1000
0000
0000
0001
0100
0000
0010
0100
0001
0000
1000
0000
0001
0000
0001
0000
,
1000
0000
0000
1000
0010
0000
0010
0100
0001
0000
0000
0001
0010
0000
0010
0100
,
1000
0000
0000
1000
0010
0000
0010
0100
0001
0000
0000
0001
0010
0000
0100
1000
,
0001
0000
0000
0001
0100
0000
0100
0010
1000
0000
0000
1000
0100
0000
0100
0010
,
0001
0010
0100
1000
0001
0100
0110
0000
,
2000
0001
3000
0000
0002
0000
0010
0000
2003
0000
0010
0000
3002
0000
0010
0000
,
1003
0001
0000
0000
2000
0000
0010
0000
3001
0010
0001
0000
2000
0000
0010
0000
,
3001
1000
0000
0000
0002
0000
0010
0000
2003
0000
0010
0000
3002
0000
0010
0000
,
1003
0001
0000
0000
1000
0000
0001
0000
0010
0000
0100
0000
0010
0000
0001
0000
,
2000
0010
3000
0000
0002
0000
0100
0000
2003
0000
0100
0000
3002
0000
0100
0000
,
1003
0010
0000
0000
2000
0000
0100
0000
3001
0100
0001
0000
2000
0000
0100
0000
,
3001
0010
0000
0000
0002
0000
0100
0000
2003
0000
0100
0000
3002
0000
0100
0000
,
1003
0000
0001
0000
0100
0000
0010
1000
0000
0010
1000
0000
0001
0000
0010
0001
,
2000
0000
3001
0200
0000
0000
0301
1000
,
0100
0000
0100
0010
0000
0001
0000
1000
0000
0000
0000
0000
0001
0000
1000
0010
,
0200
0000
0301
2000
0000
0000
3100
0010
,
0001
0000
0000
0000
0000
0000
1000
0000
0000
0010
0000
0000
0000
0000
0000
0100
0000
0000
0000
0000
0000
0000
0000
0000
0001
0000
0000
0000
1000
0000
0000
0000
0001
0000
0000
0000
1000
0000
0000
0000
0000
0000
0000
0000
0000
0000
0000
0000
,
1100
0000
0100
0020
0000
0000
0031
1000
,
0010
0000
0000
0100
0000
0010
0000
1000
0000
0001
1000
0000
0100
0010
0100
0010
,
0001
0100
0010
1000
0001
0010
0100
1000
,
0010
0000
0100
0000
0010
0000
1000
0000
0100
0000
0010
0001
2000
0000
3000
0000
,
1000
0100
0001
0100
1000
0001
0100
0001
,
1000
0100
0001
0100
1000
0010
0100
0001
,
1000
0010
0001
0010
1000
0001
0010
0001
,
1000
0010
0001
0010
1000
0001
0010
0100
,
1000
0000
0010
0100
0001
0000
1000
0000
0001
0000
0010
0100
2000
0000
0000
0000
,
3002
0203
2300
3200
0302
0023
2030
3020
,
0031
1000
0001
0100
0010
0001
0010
0100
,
0001
0000
1000
0000
0100
0010
1002
0000
,
0013
0000
0100
1000
0000
0001
0100
0000
0010
0000
0100
0001
0000
1000
0100
0000
,
0010
0000
0100
1000
0000
0001
0100
0000
1000
0000
0100
0000
0001
0000
1000
0000
,
0010
0000
0100
0001
0000
1000
0100
0000
0010
0000
0100
1000
0000
0001
0100
0000
,
0010
0000
1000
0000
0100
0000
0010
0000
0011
0000
0000
0001
0000
0000
1000
0000
,
0010
0000
0100
0001
0000
1000
0100
0000
0010
0000
0100
1000
0000
0001
0100
0000
,
0010
0000
0100
0001
0000
1000
0100
0000
0001
0000
0100
0000
1000
0000
0001
0000
,
0010
0000
0100
1000
0000
0001
0100
0000
0010
0000
0100
0001
0000
1000
0100
0000
,
0010
0001
0100
0010
1000
1000
1020
0000
,
0130
0000
1000
0000
0100
0000
0010
0100
0002
0000
0003
0000
0010
0000
0100
0000
,
0001
0000
0100
0000
0010
0000
0100
0000
1000
0000
0100
0010
0001
0000
0100
0000
,
0001
0000
1000
0000
0100
0000
0010
0000
0001
1000
0000
1000
0010
0100
0001
0000
,
1000
0000
0100
0010
0001
0000
0010
0100
2000
0000
0000
0000
3010
0000
0010
0000
,
0110
0000
0110
0000
1001
0000
1000
0010
,
0001
0000
0010
0000
0100
0000
0010
1000
0001
0000
0010
0100
1000
0000
0001
0000
,
0201
0000
0310
1000
1200
0000
0310
0001
,
0201
0000
0000
0000
0310
0000
1000
0000
1100
0000
0100
0010
0001
0000
0000
0000
,
2002
0000
0000
0000
,
3003
0000
0000
0000
;

//--------------- dance-single - DS, FS, KS, XO- ----------------
#NOTES:
     dance-single:
     Scrypts [DS, FS, KS, XO-]:
     Challenge:
     17:
     0,0,0,0,0:
0000
0000
0000
0000
,
0000
0000
0000
0000
,
0000
0000
0000
0000
,
0000
0000
0000
0000
,
0000
0000
0000
0000
,
1000
0000
0010
0000
0100
0000
0010
0000
1000
0100
0000
0020
0000
0000
0031
0000
,
1000
0000
0010
0000
0100
0000
0010
0000
1000
0100
0000
0010
0000
0000
0000
0000
,
0001
0000
0100
0000
0010
0000
0100
0000
0001
0010
0000
0200
0000
0000
1300
0000
,
0001
0000
0100
0000
0010
0000
1000
0001
1000
0100
0010
0001
1000
0000
0000
0000
,
1001
0000
0001
0010
0100
0000
1000
0000
0001
0100
0001
1000
0100
0000
0010
0000
,
1001
0000
1000
0010
0100
0000
0001
0000
1000
0100
1000
0001
0100
0000
0010
1000
,
0001
0000
1000
0010
0100
0000
0001
0000
1000
0100
1000
0001
0100
0000
0010
0000
,
1001
0000
0001
0010
0100
0000
1000
0000
0001
0100
0001
1000
0100
0000
0010
0001
,
1000
0100
1000
0100
0010
0001
0010
0001
1000
0010
1000
0010
0100
0001
0100
0001
,
1000
0100
0010
0001
1000
0001
0100
0010
1000
0001
0010
0100
1000
0010
1000
0001
,
0010
0100
1000
0001
0100
0010
1000
0001
,
0011
0110
1100
1001
,
1020
0000
0030
M010
0001
0000
0100
0000
1020
0000
0030
M010
0001
0000
0100
0000
,
1020
0000
0030
M010
0001
0000
0100
0000
1020
0000
0030
M010
0001
0000
0010
0200
,
1000
0000
0000
0310
0001
0100
0010
1000
0200
0000
0000
0310
0001
0100
0010
1000
,
0200
0000
0000
0310
0001
0100
0010
1000
0200
0000
0000
0000
1300
0010
0100
0000
,
0201
0000
0300
010M
1000
0100
0010
0001
0200
0000
030M
0100
1000
0100
0010
0001
,
0200
0000
0300
010M
1000
0100
0010
0001
0200
0000
0300
010M
1000
0000
0010
0200
,
0001
0000
0300
010M
1000
0100
0010
0001
0200
0000
0300
010M
1000
0100
0010
0001
,
1000
0000
0010
0100
0001
0000
0100
0010
1000
0001
1000
0001
0010
0000
0000
0000
,
1200
0000
0300
M100
0001
0000
0010
0000
1200
0000
0300
M100
0001
0000
0010
0000
,
1200
0000
0300
M100
0001
0000
0010
0000
1200
0000
0300
M100
0001
0000
0100
0000
,
2010
0000
3010
0100
0001
0010
0100
2000
0010
0000
3010
0100
0001
0010
0100
2000
,
0010
0000
3010
0100
0001
0010
0100
2000
0010
0000
3200
0000
0001
0000
0310
0000
,
0021
0000
0030
001M
1000
0010
0100
0001
0020
0000
003M
0010
1000
0010
0100
0001
,
0020
0000
0030
001M
1000
0010
0100
0001
0020
0000
0030
001M
1000
0000
0100
0020
,
0001
0000
0030
001M
1000
0010
0100
0001
0020
0000
0030
001M
1000
0010
0100
0001
,
1000
0000
0001
0010
0100
0010
0001
0000
1000
0010
0100
0010
1000
0000
0001
0000
,
0200
0010
0300
0000
0010
1000
0010
0000
0010
M001
0010
0000
0010
100M
0010
0000
,
1002
0000
0000
0000
0013
0001
0010
0000
0010
100M
0010
0000
0010
M001
0010
0000
,
2001
0000
0000
0000
3010
1000
0010
0000
0010
M001
0010
0000
0010
100M
0010
0000
,
1002
0000
0000
0000
0013
0001
0020
0000
0100
0000
0032
0000
0100
0000
1003
0000
,
0020
0100
0030
0000
0100
0001
0100
0000
0100
100M
0100
0000
0100
M001
0100
0000
,
2001
0000
0000
0000
3100
1000
0100
0000
0100
M001
0100
0000
0100
100M
0100
0000
,
1002
0000
0000
0000
0103
0001
0100
0000
0100
100M
0100
0000
0100
M001
0100
0000
,
01M0
1000
0001
0100
0010
1000
0001
0010
0000
0100
0010
0001
1000
0010
0100
0001
,
0020
0000
0030
0000
0100
1000
0002
0000
0000
0000
0003
0000
0100
0010
1000
0001
,
0010
0000
0100
0010
0000
0001
0000
1000
0000
0000
0000
0000
0001
0010
0100
1000
,
0020
0000
0030
0000
0100
0001
2000
0000
0000
0000
3000
0000
0100
0010
0001
1000
,
0010
0000
0000
0000
0000
0000
0100
0000
0000
0010
0000
0000
0000
0000
0000
1000
0000
0000
0000
0000
0000
0000
0000
0000
0001
0000
0000
0000
0010
0000
0000
0000
0100
0000
0000
0000
1000
0000
0000
0000
0000
0000
0000
0000
0000
0000
0000
0000
,
1002
0000
0003
0000
0100
0010
2000
0000
0000
0000
3000
0000
0001
0010
0100
1000
,
0010
0000
0100
0001
0000
0010
0000
0200
0000
0310
0001
0010
0100
1000
0010
0100
,
0001
0100
0010
1000
1001
0001
0010
0100
,
1100
0000
1000
0000
0010
0000
0100
0001
1000
0001
0010
0001
2000
0000
3000
0000
,
1001
0000
0001
0010
0100
0000
1000
0000
1010
0000
0010
0100
0000
0100
0001
0000
,
1001
0000
1000
0100
0010
0000
0001
0000
0101
0000
0100
0010
0000
0010
1000
0000
,
1001
0000
0001
0010
0100
0000
1000
0000
1001
0000
0001
0100
0000
0100
0010
0000
,
1010
0000
1000
0010
0100
0000
0001
0000
1000
0000
0100
0010
0000
0010
0001
0000
,
1000
0010
0100
0001
1000
0001
0010
0100
1000
0010
0100
0001
2000
0000
3000
0000
,
0100
0010
0001
0100
0001
1000
0010
0100
0001
0010
0100
1000
0010
0100
0001
0010
,
0001
0100
0010
1000
0001
0010
0100
1000
,
0001
0100
0010
0100
0001
1000
0100
0000
0110
0000
1000
0000
1002
0000
0000
0000
,
0013
0000
002M
1000
0000
0130
0001
0100
0010
0000
M020
0001
0000
0130
1000
0100
,
0010
0000
002M
1000
0000
0130
0001
0100
0010
0000
1000
0000
2001
0000
0000
0000
,
3010
0000
M020
0001
0000
0130
1000
0100
0010
0000
002M
1000
0000
0130
0001
0100
,
0020
0000
0130
0001
0010
0100
1000
0001
0100
0000
0000
0100
0001
0000
0001
0000
,
0100
0000
020M
1000
0000
0310
0001
0010
0100
0000
M200
0001
0000
0310
1000
0010
,
0100
0000
020M
1000
0000
0310
0001
0010
0100
0000
1000
0000
2001
0000
0000
0000
,
3100
0000
M200
0001
0000
0310
1000
0010
0100
0000
020M
1000
0000
0310
0001
0010
,
0200
0000
1300
0010
0100
0001
0010
0100
1000
0000
1000
0000
1010
0000
0000
0000
,
1001
0000
0001
0010
0100
1000
0010
0100
0001
0000
0000
0000
1001
0000
1000
0010
,
0100
0001
0010
0100
1000
0100
0010
0001
1000
0000
0010
0100
0001
0000
1000
0000
,
1100
0000
0100
0000
0010
0001
1000
0001
0100
0001
0000
1000
0100
1000
0001
0000
,
1000
0010
1000
0001
0010
0100
1000
0010
0200
0000
0302
0000
1003
0000
1000
0000
,
1100
0000
0000
0000
0101
0000
0000
0000
1001
0000
0001
0000
1000
0100
0010
0001
,
0100
0010
1000
0001
1000
0010
0100
0001
1000
0000
0100
0010
0001
0000
1000
0000
,
1010
0000
0010
0000
0100
0001
1000
0100
0010
0100
0000
1000
0001
0100
0010
0000
,
1000
0001
0010
0100
1000
0010
0100
0001
1000
0000
0001
0010
0100
0000
0000
0000
,
2002
0000
0000
0000
,
3003
0000
0000
0000
;
