#VERSION:0.83;
#TITLE:Piplup Step;
#SUBTITLE:;
#ARTIST:Serph feat. ずん;
#TITLETRANSLIT:;
#SUBTITLETRANSLIT:;
#ARTISTTRANSLIT:Serph feat. Zun;
#GENRE:Bubble Beam;
#CREDIT:NOWHERE Dance Club + Melody Love;
#MUSIC:Piplup Step.ogg;
#BANNER:Piplup Step-bn.avi;
#BACKGROUND:Piplup Step-bg.png;
#CDTITLE:;
#SAMPLESTART:80.062;
#SAMPLELENGTH:20.000;
#SELECTABLE:YES;
#OFFSET:-0.062;
#BPMS:0.000=192.000;
#STOPS:;
#JACKET:Piplup Step-jacket.png;
#LASTSECONDHINT:129.000;
#BGCHANGES:-0.062=Piplup Step.mp4=1.000=1=0=0=StretchNoLoop==CrossFade==,
99999.000=-nosongbg-=1.000=0=0=0=StretchNoLoop====
;
#FGCHANGES:328.931=bubble=1.000=0=0=1,
331.314=bubble=1.000=0=0=1,
333.983=bubble=1.000=0=0=1,
335.255=bubble=1.000=0=0=1,
336.875=bubble=1.000=0=0=1,
338.236=bubble=1.000=0=0=1,
339.636=bubble=1.000=0=0=1,
340.996=bubble=1.000=0=0=1,
342.738=bubble=1.000=0=0=1,
344.156=bubble=1.000=0=0=1,
345.593=bubble=1.000=0=0=1,
347.759=bubble=1.000=0=0=1,
348.939=bubble=1.000=0=0=1,
350.356=bubble=1.000=0=0=1,
352.767=bubble=1.000=0=0=1,
354.127=bubble=1.000=0=0=1,
355.474=bubble=1.000=0=0=1,
357.956=bubble=1.000=0=0=1,
359.248=bubble=1.000=0=0=1,
360.832=bubble=1.000=0=0=1,
362.392=bubble=1.000=0=0=1,
363.942=bubble=1.000=0=0=1,
365.995=bubble=1.000=0=0=1,
367.447=bubble=1.000=0=0=1,
369.247=bubble=1.000=0=0=1,
370.292=bubble=1.000=0=0=1,
371.992=bubble=1.000=0=0=1,
373.737=bubble=1.000=0=0=1,
374.137=bubble=1.000=0=0=1
;

//--------------- dance-single - NOWHERE Dance Club ----------------
#NOTEDATA:;
#STEPSTYPE:dance-single;
#DESCRIPTION:NOWHERE Dance Club;
#DIFFICULTY:Beginner;
#METER:3;
#RADARVALUES:0,0,0,0,0;
#CREDIT:NOWHERE Dance Club;
#NOTES:
0000
0000
0000
0000
,
0000
0000
0000
0000
,
0000
0000
0000
0000
,
0000
0000
0000
0000
,
1000
0000
0000
0000
,
0100
0000
0000
0000
,
0010
0000
0000
0000
,
0001
0000
0000
0000
,
1000
0000
0000
0000
,
1000
0000
0000
0000
,
0001
0000
0000
0000
,
0001
0000
0000
0000
,
0100
0000
0000
0000
,
0001
0000
0000
0000
,
0100
0000
0000
0000
,
0001
0000
0000
0000
,
1000
0000
0000
0000
,
0100
0000
0000
0000
,
1000
0000
0000
0000
,
0100
0000
0000
0000
,
1000
0000
0000
0000
,
0001
0000
0000
0000
,
0010
0000
0100
0000
,
1000
0000
0001
0000
,
1000
0000
0000
0010
,
0000
0000
0010
0000
,
1000
0000
0000
1000
,
0000
0000
0010
0000
,
1000
0000
0000
0001
,
0000
0000
0010
0000
,
0010
0000
0000
0001
,
0000
1000
0000
0000
,
0001
0000
0100
0000
,
0001
0000
0000
0000
,
1000
0000
0100
0000
,
1000
0000
0000
0000
,
0001
0000
0010
0000
,
0001
0000
0000
0000
,
1000
0000
0010
0000
,
1000
0000
0000
0000
,
0001
0000
0001
0000
,
0010
0000
0010
0000
,
0100
0000
0100
0000
,
0010
0000
0000
0000
,
0001
0000
0001
0000
,
0100
0000
0100
0000
,
0010
0000
0010
0000
,
1000
0000
0000
0000
,
1001
0000
0000
0000
,
1001
0000
0000
0000
,
0110
0000
0000
0000
,
0110
0000
0000
0000
,
1001
0000
0000
0000
,
1001
0000
0001
0000
,
0100
0000
0010
0000
,
1000
0000
1001
0000
,
1000
0000
0000
0000
,
1000
0000
0000
0000
,
0100
0000
0000
0000
,
0100
0000
0000
0000
,
1000
0000
0001
0000
,
1000
0000
0000
0000
,
0010
0000
0000
0000
,
0010
0000
0000
0000
,
1000
0000
0100
0000
,
0010
0000
0001
0000
,
1000
0000
0100
0000
,
0010
0000
0001
0000
,
0100
0000
0010
0000
,
1000
0000
0001
0000
,
0100
0000
0010
0000
,
1000
0000
0001
0000
,
1000
0000
1000
0000
,
0001
0000
0001
0000
,
1000
0000
1000
0000
,
0001
0000
0001
0000
,
0010
0000
0100
0000
,
0010
0000
0100
0000
,
0010
0000
0000
0000
,
0010
0000
0000
0000
,
0001
0000
0000
0000
,
0100
0000
0000
0000
,
1000
0000
0000
0000
,
0010
0000
0000
0000
,
0001
0000
0000
0000
,
1000
0000
0000
0000
,
0001
0000
1000
0000
,
0001
0000
1000
0000
,
0100
0000
0000
0000
,
0001
0000
0000
0000
,
0010
0000
0000
0000
,
1000
0000
0000
0000
,
0001
0000
0100
0000
,
0001
0000
0000
0000
,
1000
0000
0100
0000
,
1000
0000
0001
0000
,
0100
0000
0010
0000
,
0100
0000
0010
0000
,
1000
0000
0010
0000
,
1000
0000
0001
0000
;

//--------------- dance-single - NOWHERE Dance Club ----------------
#NOTEDATA:;
#STEPSTYPE:dance-single;
#DESCRIPTION:NOWHERE Dance Club;
#DIFFICULTY:Easy;
#METER:5;
#RADARVALUES:0,0,0,0,0;
#CREDIT:NOWHERE Dance Club;
#NOTES:
0000
0000
0000
0000
,
0000
0000
0000
0000
,
0000
0000
0000
0000
,
0000
0000
0000
0000
,
1000
0000
0001
0000
,
1000
0000
0000
0100
0000
0000
1000
0000
,
0001
0000
0100
0000
,
0010
0000
1000
0000
,
0001
0000
0010
0000
,
0100
0000
0010
0000
,
0001
0000
0001
0000
,
1000
0000
0010
0000
,
1000
0000
0100
0000
,
1000
0000
0010
0000
,
1000
0000
0001
0000
,
1000
0010
1000
0000
,
0001
0000
1000
0000
,
0001
0010
0001
0000
,
1000
0000
0100
0000
,
0010
0000
0001
0000
,
0100
0000
0010
0000
,
0100
0000
0001
0000
,
0100
0000
0010
0000
,
1000
0000
0010
0000
,
1000
0000
0000
0001
0000
0000
1000
0000
,
0000
0001
0000
0000
0100
0000
0000
0000
,
0001
0000
0000
1000
0000
0000
0100
0000
,
0000
0010
0000
0000
0001
0000
0000
0000
,
1000
0000
0000
0001
0000
0000
0010
0000
,
0000
0001
0000
0000
1000
0000
0000
0000
,
0010
0000
0000
1000
0000
0000
0010
0000
,
0000
0100
0000
0000
0001
0000
0000
0000
,
1000
1000
0001
0000
,
0100
0000
0010
0000
,
1000
0000
0010
0000
,
0100
0010
1000
0000
,
0001
0001
0010
0000
,
0100
0000
0010
0000
,
0001
0000
1000
0000
,
0001
0100
0010
0000
,
1000
0000
1000
0000
,
0001
0000
0001
0000
,
0010
0000
0100
0000
,
1000
0000
1001
0000
,
0001
0000
0001
0000
,
0100
0000
0100
0000
,
0010
0000
1000
0000
,
0010
1000
0001
0000
,
1001
0000
1010
0000
,
1001
0000
0011
0000
,
0001
0000
1001
0000
,
1000
0001
1001
0000
,
0001
0000
0101
0000
,
0010
0000
1010
0000
,
1000
0000
1100
0000
,
0010
0001
0011
0000
,
0001
0000
0100
0000
,
0010
0000
1000
0000
,
0001
1000
0001
0000
,
0010
0000
0001
0000
,
1000
0000
0010
0000
,
0100
0000
0001
0000
,
1000
0001
1000
0000
,
0001
0000
0010
0000
,
0002
0000
0203
0000
,
0320
0000
2030
0000
,
3002
0000
0203
0000
,
0320
0000
2030
0000
,
3002
0000
0023
0000
,
0230
0000
2300
0000
,
3002
0000
0023
0000
,
0230
0000
2300
0000
,
3001
1000
0001
0000
,
0010
0000
0100
0000
,
1000
0001
1000
0000
,
0100
0000
0010
0000
,
0001
0010
0001
0000
,
1000
0000
0001
0000
,
1000
0010
0100
0001
,
1000
0000
0001
0000
,
0100
0100
0010
0000
,
0100
0000
0001
0000
,
1000
1000
0100
0010
,
0100
0000
1000
0000
,
0001
0001
0010
0000
,
0001
0001
0100
0010
,
1000
0000
0001
0000
,
1000
0000
0001
0000
,
0010
0000
0100
0000
,
1000
0000
0001
0000
,
0100
0000
0010
0000
,
1000
0000
0001
0000
,
0100
0000
0010
0000
,
0100
0000
0010
0000
,
1000
0000
0010
0000
,
1000
0000
0010
0000
,
2000
0000
3200
0000
,
0320
0000
0032
0000
,
2003
0000
3200
0000
,
0320
0000
0000
0000
0032
0000
0000
0003
;

//--------------- dance-single - NOWHERE Dance Club + Melody Love ----------------
#NOTEDATA:;
#STEPSTYPE:dance-single;
#DESCRIPTION:NOWHERE Dance Club + Melody Love;
#DIFFICULTY:Medium;
#METER:11;
#RADARVALUES:0,0,0,0,0;
#CREDIT:NOWHERE Dance Club + Melody Love;
#NOTES:
0000
0000
0000
0000
,
0000
0000
0000
0000
,
0000
0000
0000
0000
,
0000
0000
0000
0000
,
0001
0000
1000
0000
,
0100
0000
0000
0100
0000
0000
0100
0000
,
0010
0001
0010
0100
,
1000
0002
2003
3000
,
0100
0010
0002
0000
,
0103
0000
0100
0000
,
0100
0010
2000
0000
,
3100
0000
1100
0000
,
1000
0010
0200
0010
,
0301
0000
0001
0000
,
0001
0100
0020
1000
,
0130
0001
0010
0100
,
2000
0100
3002
0100
,
2003
3100
1001
0000
,
0001
0000
0100
0000
0010
0000
1000
0010
,
0100
0001
0010
0001
,
1000
0002
0100
1003
,
0001
0020
0130
0010
,
0001
0001
0000
0000
1000
1000
0000
0000
,
0010
0010
0000
0000
0100
0100
0000
0000
,
0201
0000
0000
0010
0000
0000
0001
0000
,
0000
0310
0000
1000
0100
0010
0000
0000
,
0021
0000
0000
0100
0000
0000
0001
0000
,
0000
0130
0000
1000
0020
0000
0130
0000
,
1020
0000
0000
0100
0000
0000
1000
0000
,
0000
0130
0000
0001
0010
0100
0000
0000
,
1200
0000
0000
0010
0000
0000
1000
0000
,
0000
0310
0000
0001
1000
0000
0010
0000
,
0200
0001
0310
1000
,
1010
0000
0001
0010
,
0011
0000
1000
0100
,
1200
0010
1000
0310
,
0200
1000
0310
0001
,
0011
0000
1000
0010
,
1010
0000
0001
0100
,
0202
0000
0000
0303
,
0001
0100
0010
0000
,
1000
0001
0100
0000
,
0100
0001
1000
0010
,
0100
0010
0110
0000
,
0010
1000
0100
0000
,
0010
0001
1000
0000
,
0001
0100
0010
0000
,
0010
1000
2010
3001
,
1000
0100
1000
0000
0010
0000
0010
0000
,
0100
0001
0100
0000
0010
0000
0010
0000
,
1000
0001
1000
0000
0010
0000
0010
0000
,
1000
0001
0010
0000
0110
0000
0010
0000
,
0001
0100
0001
0000
0010
0000
0010
0000
,
0100
1000
0100
0000
0010
0000
0010
0000
,
0001
1000
0001
0000
0010
0000
0010
0000
,
0001
1000
0010
0000
0110
0000
0010
0000
,
1000
0001
1000
0100
,
1000
0100
1000
0000
0001
0000
0010
0000
,
0001
0100
0001
0000
1000
0000
0010
0000
,
1000
0100
1000
0000
0001
0000
0100
0000
,
0001
0010
0001
0001
,
1000
0000
0100
0000
1000
0100
1000
0000
,
0001
0100
0001
0100
0001
1000
0001
0000
,
1000
0100
1000
0000
0002
0000
1000
0000
,
2003
3200
0320
0032
,
1000
0010
1000
0013
,
0002
0203
0320
2030
,
0001
0010
0001
3010
,
2000
3200
0320
0032
,
0100
0100
1000
0013
,
0002
0203
0320
2030
,
0100
0100
0001
3010
,
0100
0000
0001
0100
0020
0000
0000
0000
,
1000
0100
1030
0010
,
0100
0000
0100
0001
0020
0000
0000
0000
,
0001
0100
0031
0010
,
0100
0000
0100
1000
0020
0000
0000
0000
,
0100
1030
0010
1000
,
0200
0000
0001
0000
,
0010
0000
1300
0001
,
1000
0000
0100
1000
0001
0000
0100
0001
,
1000
0000
0100
1000
0001
0000
0100
0001
,
2000
0100
0001
0010
,
3002
0100
1000
0013
,
0001
0000
0100
0001
1000
0000
0100
1000
,
0001
0000
0100
0001
1000
0000
0100
1000
,
0002
0100
1000
0010
,
2003
0100
0001
3010
,
2000
0000
3100
0100
0010
0000
0001
0000
,
0100
0010
0100
0001
,
2000
0000
3010
0010
0100
0000
0010
0000
,
1000
0100
0010
0001
,
0020
0000
0130
0100
0010
0000
0001
0000
,
1000
0001
0100
0010
,
2000
0000
3100
0100
1000
0000
0100
0000
,
0010
0001
1000
0001
,
0200
0320
2030
3020
,
2030
3002
0023
0230
,
2300
3200
0320
0230
,
0320
0000
0032
0000
0203
0000
0320
0030
;

//--------------- dance-single - NOWHERE Dance Club + Melody Love ----------------
#NOTEDATA:;
#STEPSTYPE:dance-single;
#DESCRIPTION:NOWHERE Dance Club + Melody Love;
#DIFFICULTY:Hard;
#METER:14;
#RADARVALUES:0,0,0,0,0;
#CREDIT:NOWHERE Dance Club + Melody Love;
#NOTES:
0000
0000
0000
0000
,
0000
0000
0000
0000
,
0000
0000
0000
0000
,
0000
0000
0000
0000
,
0002
0000
0000
0100
0003
0000
0001
0000
,
2000
0000
0000
0100
3000
0000
0100
0000
,
0010
0000
0000
0000
0000
0000
0000
0000
0000
0000
0000
0000
0001
0000
0000
0000
0000
0000
0000
0000
0000
0000
0000
0000
0100
0000
0000
0000
0000
0000
0000
0000
0000
0000
0000
0000
0100
0000
0000
0000
0000
0000
0000
0010
0000
0000
0000
0000
,
1000
0000
0000
0000
0000
0000
0000
0000
0000
0000
0000
0000
0001
0000
0000
0000
0000
0000
0000
0000
0000
0000
0000
2002
0000
0000
0000
0000
0000
0000
0000
0000
0000
0000
0000
0000
3003
0000
0000
0000
0000
0000
0000
0000
0000
0000
0000
0000
,
0001
0100
0101
0001
,
1000
0000
0100
1000
0000
0000
0001
0000
,
0100
0000
0000
0000
0000
0000
0000
0000
0000
0000
0000
0000
0001
0000
0000
0000
0000
0000
0000
0000
0000
0000
0000
0000
0101
0000
0000
0000
0000
0000
0000
0000
0000
0000
0000
0000
0100
0000
0000
0000
0000
0000
0000
0001
0000
0000
0000
0000
,
0010
0000
0001
0020
0000
0000
0031
0000
,
1000
0001
0101
0001
,
1000
0000
0010
2000
0000
0000
3001
0000
,
0010
0000
0000
0000
0000
0000
0000
0000
0000
0000
0000
0000
0001
0000
0000
0000
0000
0000
0000
0000
0000
0000
0000
0000
0011
0000
0000
0000
0000
0000
0000
0000
0000
0000
0000
0000
0010
0000
0000
0000
0000
0000
0000
0001
0000
0000
0000
0000
,
1000
0000
0000
0000
0000
0000
0000
1000
0000
0000
0000
0000
0010
0000
0000
0000
0000
0000
0000
0000
0000
0000
0000
0000
1020
0000
0000
0000
0000
0000
0000
0000
0000
0000
0000
0000
0130
0000
0000
0000
0000
0000
0000
0000
0000
0000
0000
0000
,
0020
0000
0000
0000
0000
0000
0000
0000
0000
0000
0000
0000
1030
0000
0000
0000
0000
0000
0000
0100
0000
0000
0000
0000
0020
0000
0000
0000
0000
0000
0000
0000
0000
0000
0000
0000
0031
0000
0000
0000
0000
0000
0000
0100
0000
0000
0000
0000
,
0020
0000
0000
0000
0000
0000
0000
0000
0000
0000
0000
0000
1030
0000
0000
0000
0000
0000
0000
0000
0000
0000
0000
0000
1001
0000
0000
0000
0000
0000
0000
0000
0000
0000
0000
0000
1000
0000
0000
0000
0000
0000
0000
0001
0000
0000
0000
0000
,
1000
0000
0000
0000
0000
0000
0000
0000
0000
0000
0000
0000
0100
0000
0000
0000
0000
0000
0000
0000
0000
0000
0000
0000
0010
0000
0000
0000
0000
0000
0000
0000
0000
0000
0000
0000
0001
0000
0000
0000
0000
0000
0000
0100
0000
0000
0000
0000
,
0010
0000
0000
0000
0000
0000
0000
1000
0000
0000
0000
0000
0010
0000
0000
0000
0000
0000
0000
1000
0000
0000
0000
0000
0001
0000
0000
0000
0000
0000
0000
0000
0000
0000
0000
0000
0100
0000
0000
0000
0000
0000
0000
0010
0000
0000
0000
0000
,
2000
0000
0000
0000
0000
0000
0000
0000
0000
0000
0000
0000
3002
0000
0000
0000
0000
0000
0000
0000
0000
0000
0000
0000
0013
0000
0000
0000
0000
0000
0000
0100
0000
0000
0000
0000
1000
0000
0000
0000
0000
0000
0000
0001
0000
0000
0000
0000
,
1000
0000
0000
0000
0000
0000
0000
0001
0000
0000
0000
0000
0100
0000
0000
0000
0000
0000
0000
0000
0000
0000
0000
0000
0010
0000
0000
0000
0000
0000
0000
1000
0000
0000
0000
0000
0001
0000
0000
0000
0000
0000
1000
0000
0000
0000
0000
0000
,
0001
0001
0100
0010
1000
1000
0100
0010
,
0001
0001
0010
0100
1000
1000
0001
0000
,
0021
0000
0000
0100
0000
0000
0031
1000
,
0100
0000
0010
0000
0001
1000
0000
0001
,
0201
0000
0000
0010
0000
0000
0301
1000
,
0100
0000
0010
0000
0001
1000
0010
0000
,
1020
0000
0000
0100
0000
0000
1030
0001
,
0010
0000
0100
0000
1000
0001
0000
1000
,
1200
0000
0000
0010
0000
0000
1300
0001
,
0100
0000
0010
0000
1000
0010
0000
1000
,
0001
0011
1000
1010
,
2000
0100
0001
3010
,
1000
1100
1000
0101
,
0002
0100
0010
1003
,
0001
0101
1000
1100
,
2000
0010
0001
3100
,
1000
1001
1000
0100
,
0110
0010
0001
1000
,
0001
0100
0002
0000
1003
0000
0100
0000
,
0010
0100
0020
0000
0031
0000
0100
0000
,
0001
1000
0002
0000
1003
0000
0010
0000
,
1000
0100
0011
0000
,
0001
0010
0002
0000
0013
0000
0001
0000
,
0100
0010
0200
0000
0310
0000
1000
0000
,
0010
1000
0020
0000
1030
0000
0100
0000
,
0010
0110
2002
3003
,
0001
0100
0001
0000
1000
0000
0001
0000
0010
0000
0000
0000
0010
0000
0001
0000
,
1000
0100
0001
0100
0010
0000
0010
0000
,
0100
1000
0001
0100
0010
0000
0010
1000
,
0001
0100
1000
0100
0010
0000
0010
0000
,
1000
0100
0010
0001
0010
0000
0010
0000
,
0001
0100
1000
0100
0010
0000
0010
0000
,
1000
0100
1000
0100
0010
0000
0010
0000
,
0001
0100
0010
0000
0110
0000
1001
0000
,
0001
0000
0000
0100
0000
0000
0010
0000
1000
0000
0000
0100
0000
0000
1000
0000
,
0010
0000
0000
0100
0000
0000
0001
0000
1000
0000
0000
0000
0001
0000
0100
0000
,
0020
0000
1030
1000
,
0002
0010
0013
0001
,
0010
0000
0000
0001
0000
0000
1000
0000
0001
0000
0000
1000
0000
0000
0001
0000
,
0010
0000
0100
0010
0001
0010
0001
1000
,
0010
0000
0110
0000
,
0010
1010
2001
0000
,
3002
0203
0320
2030
,
3002
0203
0320
2030
,
3002
0023
0230
2300
,
3002
0023
0230
2300
,
3002
0203
2300
3200
,
0302
0203
2300
3200
,
0302
0023
2030
3020
,
0032
0023
2030
3020
,
0032
0000
1000
0000
0100
0000
1003
0001
,
2000
0000
0001
0000
0100
0000
3001
1000
,
0002
0000
0100
0000
1000
0000
0103
0001
,
2000
0000
0100
0000
0001
0000
3100
1000
,
0002
0000
0023
0000
0230
0000
1300
0100
,
2000
0000
3020
0000
0230
0000
0301
0100
,
0002
0000
0023
0000
0230
0000
1300
0001
,
2000
3020
0230
0000
,
0301
0000
0000
0100
0000
0000
1000
0000
0001
0000
0000
0010
0000
0000
1000
0000
,
0001
0000
0000
0010
0000
0000
0100
0000
1000
0100
1000
0000
0010
0000
0100
0000
,
0001
0010
0100
0001
0100
1000
0010
0100
,
0001
0010
1000
0010
0001
0100
0020
0000
,
1030
0000
0000
0100
0000
0000
0001
0000
1000
0000
0000
0010
0000
0000
0001
0000
,
1000
0000
0000
0010
0000
0000
0100
0000
0001
1000
0001
0000
1000
0000
0100
0000
,
1000
0001
0100
0001
0100
0000
0100
0010
,
0000
0010
1000
0100
0001
0100
1000
0010
,
1000
0000
0000
0010
0000
0000
0100
0000
0001
0000
0000
0100
0000
0000
0001
0000
,
1000
0000
0001
0000
0010
0000
0100
0000
1000
0100
1000
0000
0001
0000
0000
0000
,
0200
0000
0320
0000
,
2030
0000
3200
0320
0032
0000
0000
0000
,
1003
0000
0000
0001
0000
0000
1000
0000
0100
0000
0000
0010
0000
0000
0001
0000
,
1000
0000
0010
0000
1000
0000
0001
0000
1000
0001
1000
0000
0100
0000
0010
0000
,
0002
0000
0103
0000
,
0020
0000
1000
0000
1030
0001
0100
0010
,
1000
0010
0100
1000
0100
0001
0010
0100
,
1000
0010
0001
0010
1000
0100
0010
0001
,
0100
0001
1000
0001
0010
1000
0010
0001
,
0100
0010
1000
0001
0100
0010
1000
0010
;
