#TITLE:Pink Rose;
#SUBTITLE:;
#ARTIST:Kiyommy+Seiya;
#TITLETRANSLIT:;
#SUBTITLETRANSLIT:;
#ARTISTTRANSLIT:;
#GENRE:;
#CREDIT:;
#MUSIC:Pink Rose.ogg;
#BANNER:Pink Rose.png;
#BACKGROUND:Pink Rose-bg.png;
#CDTITLE:./CDTITLES/KEYBOARDMANIA.PNG;
#SAMPLESTART:58.356;
#SAMPLELENGTH:15.000;
#SELECTABLE:YES;
#OFFSET:0.000;
#BPMS:0.000=146.341
,4.000=145.997
;
#STOPS:;
#DISPLAYBPM:146.000;
#BGCHANGES:;
#FGCHANGES:;

//--------------- dance-single - eataninja ----------------
#NOTES:
     dance-single:
     eataninja:
     Beginner:
     3:
     0,0,0,0,0:
0000
0000
0000
0000
,
0000
0000
0000
0000
,
0000
0000
0000
0000
,
0000
0000
0000
0000
,
0000
0000
0000
0000
,
0000
0000
0000
0000
,
1000
0000
0001
0000
,
0100
0000
0010
0000
,
0100
0000
0000
0000
,
1000
0000
0100
0000
,
0001
0000
0000
0000
,
1000
0000
0000
0000
,
0100
0000
0000
0000
,
0010
0000
0000
0000
,
0001
0000
1000
0000
,
0010
0000
0000
0000
,
1000
0000
0001
0000
,
0010
0000
0100
0000
,
0010
0000
0000
0000
,
0100
0000
0000
0000
,
1000
0000
0000
0000
,
0001
0000
0000
0000
,
0100
0000
0100
0000
,
0010
0000
0010
0000
,
1000
0000
0001
0000
,
0010
0000
0000
0000
,
0100
0000
0000
0000
,
0010
0000
0001
0000
,
0100
0000
1000
0000
,
0100
0000
0001
0000
,
0010
0000
0000
0000
,
0001
0001
0000
0000
,
1000
1000
0000
0000
,
0010
0000
0010
0000
0000
0000
0000
2002
,
0000
0000
0000
0000
,
3003
0000
0000
0000
,
1000
0000
0100
0000
,
0001
0000
0100
0000
,
1000
0000
0100
0000
,
0010
0000
0000
0000
,
0100
0000
0010
0000
,
0001
0000
1000
0000
,
0010
0000
0010
0000
,
0100
0000
0100
0000
,
0001
0000
0100
0000
,
1000
0000
0100
0000
,
0001
0000
0100
0000
,
0010
0000
0000
0000
,
0100
0000
0010
0000
,
1000
0000
0001
0000
,
0010
0000
0100
0000
,
1000
0000
0001
0000
,
0200
0000
0300
0000
,
0010
0010
0010
0000
,
1001
0000
0000
0000
;

//--------------- dance-single - eataninja ----------------
#NOTES:
     dance-single:
     eataninja:
     Easy:
     6:
     0,0,0,0,0:
0000
0000
0000
0000
,
0000
0000
0000
0000
,
0000
0000
0000
0000
,
0000
0000
0000
0000
,
0000
0000
0000
0000
,
0000
0000
0000
0000
,
2000
0000
3100
0000
,
0020
0000
0130
0000
,
1000
0001
0001
0000
,
0100
0010
1000
0001
,
0010
0000
0100
0010
,
0001
0000
0100
0010
,
1000
1000
0001
0010
,
0100
0100
0010
0000
,
0001
1000
0001
0000
,
1000
0010
1000
0000
,
0001
0010
0100
0010
,
1000
0010
0001
1000
,
0010
1000
0001
0000
,
0100
0010
1000
0000
,
0001
1000
0100
0100
,
1000
0001
0001
0000
,
0100
1000
0100
0000
,
0100
0001
0100
0000
,
0001
0000
1000
0100
,
0010
0001
1000
1000
,
0010
0001
0010
1000
,
0002
0000
0103
0000
,
0020
0000
0130
0000
,
0200
0000
0302
0000
,
0023
0100
0130
0000
,
1000
0001
0100
0000
,
0001
1000
0100
0000
,
0010
0000
0001
0000
0100
0000
0000
2002
,
0000
0000
0000
3003
,
1000
0100
0010
0010
,
0001
1000
0001
0001
,
0100
0010
0100
0100
,
0001
0010
0100
1000
,
0010
0100
0010
1000
,
0001
0010
1000
0010
,
0001
0010
0100
0100
,
1000
0000
0001
0100
,
0001
0010
0100
0100
,
1000
0001
1000
1000
,
0010
0100
0010
0010
,
1000
0100
0010
0001
,
0100
0010
0100
0001
,
1000
0100
0001
0100
,
1000
0100
0010
0010
,
0001
0000
1000
0001
,
2000
0100
3002
0100
,
2003
0000
3020
0000
,
0130
1000
0100
0001
,
1001
0000
0000
0000
;

//--------------- dance-single - eataninja ----------------
#NOTES:
     dance-single:
     eataninja:
     Medium:
     10:
     0,0,0,0,0:
0000
0000
0000
0000
,
0000
0000
0000
0000
,
0000
0000
0000
0000
,
0000
0000
0000
0000
,
0000
0000
0000
0000
,
0000
0000
0000
0000
,
1000
0001
0100
0020
0000
0000
0130
0002
,
0000
0000
1003
0200
0000
0310
0001
2000
,
0000
0010
0020
0000
0000
0000
3030
0010
,
0001
0010
1000
0001
0010
0100
0010
0001
,
1000
0000
0000
0010
0000
0000
1000
0000
0000
0010
0000
0000
0100
0000
0000
0000
,
0001
0000
0000
1000
0000
0000
0100
0000
0000
1000
0000
0000
0001
0000
0000
0000
,
0010
0000
0000
0001
0000
0000
0010
0000
0000
0001
0000
0000
0100
0000
0000
0000
,
0010
0000
0000
1000
0000
0000
0010
0000
0000
1000
0000
0000
0100
0000
0000
0000
,
0010
0000
0000
0001
0000
0000
1000
0000
0000
0010
0000
0000
0100
0000
0000
0000
,
0010
0000
0000
1000
0000
0000
0001
0000
0000
0010
0000
0000
0001
0000
0000
0000
,
1000
0000
0000
0100
0000
0000
0010
0000
0000
0001
0000
0000
1000
0000
0000
0000
,
0010
0000
0000
0100
0000
0000
0010
0000
1000
0000
0001
0000
1000
0000
0000
0000
,
0100
0000
0000
0001
0000
0000
0100
0000
0000
0010
0000
0000
0001
0000
0000
0000
,
1000
0000
0000
0010
0000
0000
0100
0000
0000
0001
0000
0000
1000
0000
0000
0000
,
0010
0000
0000
0100
0000
0000
1000
0000
0000
0100
0000
0000
0010
0000
0000
0000
,
0100
0000
0000
0001
0000
0000
1000
0000
0000
0100
0000
0000
0010
0000
0000
0000
,
0001
1000
0010
0100
0000
0010
0010
0000
,
0100
0001
1000
0100
0000
0001
0100
0000
,
0010
0000
0000
0001
0000
0000
1000
0000
0000
0001
0000
0000
0100
0000
0000
0000
,
0010
0000
0000
1000
0000
0000
0001
0000
0000
1000
0000
0000
0100
0000
0000
0000
,
0001
0100
0001
0100
1000
0100
1000
0100
,
0020
0031
0002
0103
,
0200
1000
0010
0301
,
0200
0301
0002
1003
,
0001
0010
0020
0000
0100
0000
0031
0000
,
1000
0010
1000
0020
0000
0100
0130
0000
,
0001
1000
0100
0020
0000
0001
0031
0000
,
1000
0010
0100
0010
0000
0110
0000
2001
,
0000
0100
0100
3100
,
1100
0000
0101
0000
0001
0100
0010
0100
,
0001
0000
0000
1000
0000
0000
0001
0000
0000
1000
0000
0000
0100
0000
0010
0000
,
0001
0000
0000
1000
0000
0000
0010
0000
0000
1000
0000
0000
0100
0000
0100
0000
,
1000
0000
0000
0001
0000
0000
1000
0000
0000
0001
0000
0000
0100
0000
0010
0000
,
1000
0000
0000
0001
0000
0000
0010
0000
0100
0000
0010
0000
0001
0000
0000
0000
,
1000
0010
0001
0000
0010
1000
0100
0000
,
0001
0100
0001
0100
0000
0010
0001
1000
,
0020
0000
0100
0000
1030
0010
1000
0000
,
1010
0000
0011
0000
0001
0010
0100
0010
,
0001
0000
0000
1000
0000
0000
0001
0000
0000
1000
0000
0000
0010
0000
0100
0000
,
0001
0000
0000
1000
0000
0000
0100
0000
0000
1000
0000
0000
0010
0000
0010
0000
,
1000
0000
0000
0001
0000
0000
1000
0000
0000
0001
0000
0000
0010
0000
0100
0000
,
1000
0000
0000
0001
0000
0000
0100
0000
0010
0000
0100
0000
0001
0000
0000
0000
,
1000
0100
0001
0000
0100
1000
0010
0000
,
0001
0010
0001
0010
0000
0100
0001
1000
,
0200
0000
0010
0000
1300
0100
1000
0000
,
2100
0001
0100
3001
,
0100
0010
1000
0000
0100
0010
0001
0000
,
1000
0010
0001
0010
0100
0010
1000
0001
,
0010
0000
0000
0000
;

//--------------- dance-single - eataninja ----------------
#NOTES:
     dance-single:
     eataninja:
     Hard:
     13:
     0,0,0,0,0:
0000
0000
0000
0000
,
0000
0000
0000
0000
,
0000
0000
0000
0000
,
0000
0000
0000
0000
,
0000
0000
0000
0000
,
0000
0000
0000
0000
,
1000
0001
0100
0020
0000
0130
0001
2000
,
0000
3100
0001
0200
0000
0310
0001
2000
,
0000
0000
0001
0000
3002
0000
0000
0000
0010
0000
0000
0000
1003
0000
0001
0100
,
0001
1000
0100
0010
0001
1000
0010
0100
,
0001
0000
0000
0001
1000
0000
0100
0000
0010
0100
0000
0000
0010
0000
0001
0000
,
1000
0000
0000
1000
0001
0000
0100
0000
0010
0100
0000
0000
0010
0000
1000
0000
,
0001
0000
0000
0001
0010
0000
0100
0000
1000
0001
0000
0000
0100
0000
0010
0000
,
0100
0000
0000
0100
0001
0000
1000
0000
0100
0010
0000
0000
0100
0000
1000
0000
,
0001
0000
0000
0001
1000
0000
0010
0000
0100
1000
0000
0000
0100
0000
0001
0000
,
1000
0000
0000
1000
0001
0000
0010
0000
0100
0001
0000
0000
0100
0000
1000
0000
,
0010
0000
0000
0010
1000
0000
0001
0000
0100
0001
0000
0000
1000
0000
0100
0000
,
0001
0000
0000
1000
0000
0000
0010
0000
0100
0000
0010
0000
0001
0000
1000
0000
,
0010
0000
0000
0010
1000
0000
0001
0000
0100
0000
0010
0100
0000
0001
1000
0000
,
0100
0000
0000
0100
0010
0000
0001
0000
0010
0000
0100
0010
0000
0001
1000
0000
,
0010
0000
0000
0010
1000
0000
0001
0000
1000
0000
0010
0100
0000
0010
1000
0000
,
0001
0000
0000
0001
1000
0000
0100
0000
0010
0000
0001
1000
0000
0010
0100
0000
,
0001
1000
0100
0001
0000
0100
0010
0001
,
1000
0010
0100
1000
0000
0100
0001
1000
,
0001
0000
0000
0001
1000
0000
0100
0000
0010
0000
0100
0010
0000
0001
1000
0000
,
0010
0000
0100
0000
0001
0000
1000
0000
0010
0000
0000
0001
0000
0000
0010
0000
,
1000
0000
0001
0000
0010
0000
0100
0000
1000
0100
1000
0000
0001
0010
0001
0000
,
1000
0010
0002
0000
0013
0100
0020
0000
,
0130
0001
2000
0000
3200
0000
0320
0000
,
0031
0100
2000
0000
3100
0010
0100
0002
,
0000
1000
2003
0000
3200
0000
0310
0000
,
0001
1000
0010
0200
0000
0001
0301
0000
,
1000
0100
1000
0002
0000
0010
0013
0000
,
0001
1000
0010
2000
0000
3010
0100
1002
,
0000
0010
0010
0013
,
0011
0000
1100
0000
1000
0001
0100
1000
,
0100
0000
0010
0100
0010
0000
0100
0000
0010
1000
0010
0000
1000
0000
0001
0000
,
0010
0000
0100
0010
0100
0000
0010
0000
0100
1000
0100
0000
0010
0000
0001
0000
,
1000
0000
0001
0100
0001
0000
1000
0000
0001
0010
0001
0000
0010
0000
0100
0000
,
0001
1000
0010
0100
1000
0001
0100
0000
,
0001
0100
1000
0100
0010
0100
0001
1000
,
0100
0001
0100
0010
0000
0001
1000
0010
,
0100
0000
0001
0100
0001
0000
0100
0000
1000
0100
1000
0000
0100
0000
0010
0000
,
2000
0000
3001
0000
1000
1000
0100
0010
,
0100
0000
0010
0001
0010
0000
0100
0000
0010
0001
1000
0000
0001
0000
0100
0000
,
0010
0000
0100
0001
0100
0000
0010
0000
0100
0001
1000
0000
0010
0000
0100
0000
,
0001
0000
1000
0100
1000
0000
0001
0000
1000
0100
0010
0000
0001
0000
0100
0000
,
1000
0001
0010
0100
0001
1000
0100
0000
,
1000
0100
0001
0100
0010
0100
1000
0001
,
0100
1000
0100
0010
0000
1000
0001
0010
,
0100
0000
1000
0100
1000
0000
0100
0000
0001
0100
0001
0000
0100
0000
0010
0000
,
0012
1003
1020
0130
,
0010
0100
0001
0100
0010
1000
0001
1000
,
0100
0001
0100
1000
0010
0001
0010
1000
,
0001
0000
0000
0000
;
