#VERSION:0.83;
#TITLE:ピアノ独奏無言歌 "灰燼";
#SUBTITLE:;
#ARTIST:Virkato Wakhmaninov;
#TITLETRANSLIT:Piano dokusou mugonka "Kaijin";
#SUBTITLETRANSLIT:;
#ARTISTTRANSLIT:;
#GENRE:;
#CREDIT:;
#MUSIC:Piano dokusou mugonka Kaijin.ogg;
#BANNER:Piano dokusou mugonka Kaijin.png;
#BACKGROUND:Piano dokusou mugonka Kaijin-bg.png;
#CDTITLE:;
#SAMPLESTART:21.374;
#SAMPLELENGTH:15.000;
#SELECTABLE:YES;
#OFFSET:-0.500;
#BPMS:0.000=150.000
,0.500=160.000
,1.500=170.000
,2.000=184.000
,2.500=188.000
,3.000=192.000
,4.000=124.000
,16.000=116.000
,18.000=100.000
,20.000=140.000
,22.000=152.000
,26.000=165.000
,32.000=158.000
,36.000=147.000
,42.000=131.000
,46.000=175.000
,132.000=170.000
,138.000=165.000
,190.000=174.000
,190.333=175.000
,190.667=176.000
,191.000=177.000
,191.333=178.000
,191.667=179.000
,192.000=180.000
,192.333=181.000
,192.667=182.000
,193.000=183.000
,193.333=184.000
,193.667=185.000
,194.000=186.000
,194.333=187.000
,194.667=188.000
,195.000=189.000
,195.333=190.000
,195.667=191.000
,196.000=192.000
,196.333=193.000
,196.667=194.000
,197.000=195.000
,197.333=196.000
,198.667=197.000
,200.000=198.000
,201.333=199.000
,202.667=200.000
,228.000=198.000
,229.000=196.000
,230.000=194.000
,231.000=192.000
,232.000=189.000
,233.000=186.000
,234.000=183.000
,235.000=180.000
,237.000=177.000
,239.000=174.000
,240.000=171.000
,241.000=168.000
,243.000=174.000
,244.000=180.000
,306.000=175.000
,310.000=180.000
,334.000=172.000
,336.000=157.000
,338.000=150.000
,350.000=142.000
,352.000=132.000
,354.000=152.000
,355.000=157.000
,356.000=162.000
,357.000=167.000
,358.000=172.000
,359.000=176.000
,360.000=180.000
,369.000=168.000
,373.000=180.000
,378.000=168.000
,382.000=164.000
,384.000=160.000
,388.000=165.000
,390.000=170.000
,391.000=175.000
,392.000=180.000
;
#STOPS:;
#BGCHANGES:;
#FGCHANGES:;

//--------------- dance-single - ピーター ----------------
#NOTEDATA:;
#STEPSTYPE:dance-single;
#DESCRIPTION:ピーター;
#DIFFICULTY:Beginner;
#METER:5;
#RADARVALUES:0,0,0,0,0;
#OFFSET:-0.230;
#BPMS:0.000=124.000
,16.000=116.000
,20.000=140.000
,22.000=152.000
,26.000=160.000
,32.000=151.000
,36.000=140.000
,42.000=125.000
,46.000=168.000
,132.000=164.000
,138.000=160.000
,190.000=168.000
,194.000=170.000
,198.000=172.000
,202.000=173.000
,206.000=176.000
,210.000=178.000
,214.000=180.000
,226.000=172.000
,234.000=177.000
,236.000=173.000
,238.000=171.000
,240.000=158.000
,243.000=168.000
,302.000=172.000
,308.000=168.000
,336.000=151.000
,338.000=143.000
,350.000=136.000
,352.000=126.000
,354.000=146.000
,355.000=151.000
,356.000=154.000
,357.000=158.000
,358.000=160.000
,359.000=162.000
,360.000=164.000
,362.000=165.000
,369.000=162.000
,382.000=158.000
,384.000=154.000
;
#MUSIC:Piano dokusou mugonka Kaijin simple.ogg;
#SAMPLESTART:21.879;
#SAMPLELENGTH:15.000;
#NOTES:
0000
0000
0000
0000
,
0000
0000
1001
0000
,
0000
0000
1001
0000
,
0000
0000
1001
0000
,
0000
0000
1001
0000
,
1000
0000
0000
0000
,
0000
0000
0001
0000
,
0000
0000
0100
0000
,
0000
0000
0001
0000
,
0000
0000
0000
0000
,
0010
0000
0000
0000
,
0000
0000
1001
0000
,
0000
1000
0001
0000
,
0100
0000
0010
0000
,
0100
0000
0001
0000
,
1000
0000
0100
0000
,
0010
0000
0001
0000
,
1000
0000
0010
0000
,
0100
0000
0010
0000
,
0010
0000
1000
0000
,
1000
0000
0100
0000
,
0100
0000
0001
0000
,
0100
0000
1000
0000
,
0001
0000
0100
0100
,
0000
0000
0001
0000
,
1000
0000
0100
0100
,
0000
0000
1000
0000
,
0001
0000
0010
0010
,
0000
0000
0001
0000
,
0100
0000
0010
0000
,
0000
0000
1000
1000
,
0000
0000
0100
0100
,
0000
0000
0010
0010
,
0000
0000
0001
0000
,
0000
0000
1000
0000
,
0000
0000
0010
0000
,
0000
0000
1000
0000
,
0000
0000
0100
0000
,
0010
0000
0001
0000
,
1000
0000
0001
0000
,
0000
0000
0010
0000
,
0000
0000
0100
0000
,
0000
0000
1000
0000
,
0000
0000
0100
0000
,
0000
0000
0010
0000
,
0000
0000
0001
0000
,
0000
0000
1000
0000
,
0001
0000
1001
0000
,
0000
0000
0000
1000
,
0000
1000
0000
0000
,
0000
0100
0000
0100
,
0000
0000
0010
0000
,
0010
0000
0000
0000
,
0001
0000
0001
0000
,
0001
0000
0001
0000
,
0100
0000
0010
0000
,
1000
0000
0001
0000
,
0010
0000
0100
0000
,
1000
0000
0001
0000
,
0001
0000
1000
0000
,
1000
0000
0010
0000
,
0100
0000
0010
0000
,
1000
0000
0100
0000
,
0100
0000
0010
0000
,
0100
0000
1000
0000
,
0001
0000
0100
0000
,
0010
0000
0100
0000
,
0001
0000
0010
0000
,
0100
0000
1000
0000
,
0001
0000
1000
1000
,
0010
0010
0100
0000
,
0001
0000
0010
0000
,
0100
0000
1000
0000
,
0100
0000
1000
0000
,
0010
0000
0100
0000
,
0001
0000
0010
0000
,
0010
0000
0010
0000
,
0001
0001
1000
0000
,
0010
0010
0100
0000
,
0001
0001
0010
0000
,
0100
0000
1000
0000
,
0001
0000
0100
0000
,
0001
0001
1000
0000
,
0100
0000
0010
0001
,
1000
0000
1001
0000
,
0000
0000
0110
0000
,
0000
0000
1001
0000
,
0000
0000
0110
0000
,
0000
0000
1000
0000
,
0100
0000
0010
0000
,
0001
0000
1000
0100
,
0010
0001
1000
0001
,
0010
0100
1000
0000
,
0001
0000
1001
0000
,
0000
0000
1000
0000
,
0000
0000
0100
0000
,
0000
0000
0010
0000
,
0000
0001
0001
0000
;

//--------------- dance-single - ピーター ----------------
#NOTEDATA:;
#STEPSTYPE:dance-single;
#DESCRIPTION:ピーター;
#DIFFICULTY:Easy;
#METER:9;
#RADARVALUES:0,0,0,0,0;
#OFFSET:-0.230;
#BPMS:0.000=124.000
,16.000=116.000
,20.000=140.000
,22.000=152.000
,26.000=160.000
,32.000=151.000
,36.000=140.000
,42.000=125.000
,46.000=168.000
,132.000=164.000
,138.000=160.000
,190.000=168.000
,194.000=170.000
,198.000=172.000
,202.000=173.000
,206.000=176.000
,210.000=178.000
,214.000=180.000
,226.000=172.000
,234.000=177.000
,236.000=173.000
,238.000=171.000
,240.000=158.000
,243.000=168.000
,302.000=172.000
,308.000=168.000
,336.000=151.000
,338.000=143.000
,350.000=136.000
,352.000=126.000
,354.000=146.000
,355.000=151.000
,356.000=154.000
,357.000=158.000
,358.000=160.000
,359.000=162.000
,360.000=164.000
,362.000=165.000
,369.000=162.000
,382.000=158.000
,384.000=154.000
;
#MUSIC:Piano dokusou mugonka Kaijin simple.ogg;
#SAMPLESTART:21.879;
#SAMPLELENGTH:15.000;
#NOTES:
0000
0000
0000
0000
,
0000
0000
1001
0000
,
1000
0000
1001
0000
,
0001
0000
1001
0000
,
1000
0000
1001
0001
,
1001
0000
0000
0000
0000
0000
0000
1000
,
0000
0000
0001
0010
,
0001
0000
0100
0010
,
1000
0001
0010
0001
,
1000
0000
0000
0000
,
0100
0010
0001
0000
,
0000
0000
1001
0000
,
0000
0001
1000
0100
,
0001
0100
1000
0001
,
0100
0000
0010
0010
1000
0000
1100
0000
,
0001
0101
1000
0100
,
0010
0001
0010
0100
1000
0000
0010
0000
,
0001
0010
0100
0001
,
0010
0000
0100
0000
1100
0000
1000
0100
,
0000
0000
0100
0010
0000
0000
0010
0001
,
0000
0000
0001
1000
0000
0000
1000
0010
,
0000
0000
0010
0100
0001
0000
0010
0000
,
0100
1000
0001
0100
,
0001
0000
1000
0100
1000
0000
1100
0000
,
0001
0010
0001
0100
,
0010
0000
1000
0100
1000
0000
1100
0000
,
0001
0010
0001
1000
,
0010
0000
0100
0001
0100
0000
0101
0000
,
1000
0001
0010
0001
,
0100
0010
1000
0000
,
0001
0010
0001
0001
,
1000
0010
1000
1000
,
0001
0010
0100
0100
,
1000
0010
0100
0000
,
0001
0000
0010
0010
,
0000
0000
0100
0100
,
0000
0000
1000
1000
,
0000
0000
0001
0000
,
0100
0010
0001
0000
,
0010
1000
0001
0010
,
0100
1000
0001
1000
,
0100
0010
0001
0010
,
0100
1000
0001
1000
,
0100
0010
0001
0100
,
0010
1000
0001
1000
,
0100
1000
0010
0100
,
0001
0010
0001
1000
,
0010
0100
1001
0000
,
0000
0000
0000
1000
,
0100
0001
0000
0000
,
0000
0001
0100
1000
,
0000
0000
0001
0100
,
1000
0100
0000
0000
,
0001
1000
0100
0001
,
0100
1000
0010
0001
,
0010
1000
0001
0010
,
0100
1000
0001
0100
,
0001
0000
1000
0000
1000
0100
0010
0001
,
0010
0100
0010
0001
1000
0000
0010
0000
,
1000
0100
1000
0010
,
1000
0100
1000
0010
,
0001
0010
1000
0100
,
0010
0010
0001
0001
1000
0000
1010
0000
,
0001
0011
1000
0010
,
0100
0001
0100
0010
1000
0000
0100
0000
,
0001
0100
0010
0001
,
0100
0000
0010
1000
0001
0000
0001
0010
,
0000
0000
0010
0100
0000
0000
0100
1000
,
0000
0000
1000
0010
0000
0000
0010
0100
,
0000
0000
0100
0001
1000
0000
1000
0100
,
0010
0000
0010
0001
1000
0000
0001
0000
,
0010
0100
1000
0001
,
0100
0010
1001
1000
,
0100
1000
0010
0100
,
0001
0010
0001
0100
,
0010
0000
0000
0001
0000
0000
0010
0000
1000
0000
1000
0000
,
0100
0000
1000
0000
1000
0000
0001
0000
1000
0000
1000
0000
,
0001
0010
1100
1000
,
0010
0100
0101
0001
,
0010
0000
0100
0000
1000
0100
0010
0000
,
0100
0010
0001
0000
1000
0010
0100
0000
,
0010
0100
0001
0000
1000
0000
0100
0000
,
0010
0001
1000
0001
,
0100
0000
0001
0000
1000
0100
0001
0100
,
1000
0001
1001
0000
,
0110
0000
0100
0000
,
0110
0000
0010
0000
,
0110
0000
0100
0000
,
0110
1001
1000
0100
,
0010
0001
1000
0010
,
0100
0000
0001
0000
1000
0100
0010
0000
,
0001
0100
0010
0000
1000
0010
0100
0000
,
0001
0010
0100
0000
1000
0000
0000
0000
,
0001
0000
1001
0000
,
0000
0000
1000
0000
,
0100
0010
0001
0000
,
0010
0100
1000
0000
,
0000
0001
1000
0000
;

//--------------- dance-single - ピーター ----------------
#NOTEDATA:;
#STEPSTYPE:dance-single;
#DESCRIPTION:ピーター;
#DIFFICULTY:Medium;
#METER:14;
#RADARVALUES:0,0,0,0,0;
#OFFSET:-0.230;
#BPMS:0.000=124.000
,16.000=116.000
,20.000=140.000
,22.000=152.000
,26.000=160.000
,32.000=151.000
,36.000=140.000
,42.000=125.000
,46.000=168.000
,132.000=164.000
,138.000=160.000
,190.000=168.000
,194.000=170.000
,198.000=172.000
,202.000=173.000
,206.000=176.000
,210.000=178.000
,214.000=180.000
,226.000=172.000
,234.000=177.000
,236.000=173.000
,238.000=171.000
,240.000=158.000
,243.000=168.000
,302.000=172.000
,308.000=168.000
,336.000=151.000
,338.000=143.000
,350.000=136.000
,352.000=126.000
,354.000=146.000
,355.000=151.000
,356.000=154.000
,357.000=158.000
,358.000=160.000
,359.000=162.000
,360.000=164.000
,362.000=165.000
,369.000=162.000
,382.000=158.000
,384.000=154.000
;
#MUSIC:Piano dokusou mugonka Kaijin simple.ogg;
#SAMPLESTART:21.879;
#SAMPLELENGTH:15.000;
#NOTES:
0000
0000
0000
0000
,
0000
0000
1001
0000
,
0100
0000
1001
0000
,
0010
0000
1001
0000
,
0100
0000
1001
0010
,
1001
0000
0000
0000
0000
0000
0000
0001
,
0000
0000
1000
0010
,
1000
0000
0001
0010
,
0100
1000
0010
0100
,
1000
0000
0000
0000
,
0100
0001
1000
0000
,
0000
0000
1001
0000
,
0000
0000
0000
0000
0000
0000
1000
0000
0100
0000
0010
0000
0001
0000
0000
0001
0000
0000
0010
0000
0000
0010
0000
0000
,
0100
0100
0010
0010
0001
0001
0100
0100
,
0010
0000
0010
0000
1000
0000
0001
0000
0011
0000
0000
0010
0001
0000
0000
0000
,
0101
0000
0000
0100
0001
0000
0000
0000
1000
0000
0001
0000
0010
0000
0100
0000
,
1000
0010
1000
0100
1000
1000
0001
0001
,
0100
0010
0010
0010
1000
1000
0001
0001
,
0010
0000
0010
0000
0100
0000
1000
0000
1001
0000
0000
0000
1000
0100
0010
0000
,
0100
0000
0000
0000
0100
0010
0001
0000
0010
0000
0000
0000
0010
0001
1000
0000
,
0001
0000
0000
0000
0001
1000
0010
0000
1000
0000
0000
0000
1000
0010
0100
0000
,
0010
0000
0000
0000
0010
0100
0001
0000
1000
0000
0001
0000
0100
0000
0010
0000
,
1000
0000
0100
0000
1000
0000
0001
0000
1000
0000
0100
0000
1000
0000
0001
0100
,
0001
0000
0000
0000
0010
0000
0100
0000
0110
0000
0000
0010
0001
0000
0000
0000
,
0100
0000
0010
0000
0001
0000
0010
0000
1000
0000
0100
0000
0010
0000
0001
0010
,
0001
0000
0000
0000
0100
0000
0010
0000
1010
0000
0000
0010
0100
0000
0000
0000
,
1000
0000
0100
0000
0001
0000
1000
0000
0001
0000
0010
0000
0001
1000
0010
1000
,
0010
0000
1000
0000
0001
0000
0010
0000
0110
0000
0000
0100
1000
0000
0000
0000
,
0001
0010
0100
1000
0001
1000
0010
0100
,
0001
0100
0010
1000
0100
0000
0000
0000
,
0100
1000
0100
0010
0001
0010
0001
0000
,
0001
0100
0010
1000
0010
0100
0010
0000
,
1000
0100
0010
0100
0001
0100
1000
0000
,
0001
1000
0010
1000
0100
0000
0000
0000
,
1000
0100
0010
0001
1000
0000
0001
0000
,
1000
0010
0100
0001
1000
0000
0001
0000
,
1000
0001
0010
0100
1000
0000
0001
0000
,
1000
0001
0100
0001
1000
0000
0010
1000
,
0001
0000
0010
0000
0100
0000
1000
0001
,
0010
0000
0001
1000
0001
0010
0100
1000
,
0001
0010
0100
1000
0001
1000
0100
0010
,
0001
1000
0100
0010
0001
0010
0100
1000
,
0001
0010
0100
1000
0001
1000
0100
0010
,
0001
1000
0100
0010
0001
0100
0010
1000
,
0001
0100
0010
1000
0100
1000
0010
1000
,
0001
1000
0010
0100
0001
1000
0100
0010
,
0100
0001
0100
0010
0001
1000
0010
0100
,
0010
0001
0010
1000
1001
0000
0000
0000
,
0000
0000
0000
1010
,
0110
0101
0000
0000
,
0000
0101
1001
1100
,
0000
0000
1100
0110
,
0011
1001
0000
0000
,
1001
0101
0110
1010
,
1001
0011
0110
0011
,
1001
0000
0000
1010
0000
0000
0010
0100
0000
0100
0001
0000
,
0001
0000
0010
0000
0000
0000
0010
0000
0001
0000
0000
0000
0001
0000
0000
0001
0000
0000
0010
0000
0000
0010
0000
0000
,
0100
0000
0100
0000
1000
0000
1000
0000
1000
0100
0010
0000
0010
0001
1000
0000
,
1000
0001
0100
0000
0100
0010
1000
0000
1000
0000
0100
0000
1000
0000
0010
0000
,
1000
0100
0010
0001
1000
0100
1000
0010
,
1000
0001
0010
0100
1000
1000
0010
0010
,
0100
0100
0001
0001
0010
0010
0100
0100
,
1000
0000
0010
0000
0100
0000
0001
0000
0101
0000
0000
0100
0010
0000
0000
0000
,
1010
0000
0000
1000
0100
0000
0000
0000
0001
0000
0100
0000
0010
0000
0100
0000
,
1000
0001
0010
0100
1000
1000
0100
0100
,
1000
0010
0010
0010
0100
0100
0001
0001
,
0010
0000
0100
0000
1000
0000
0001
0000
1001
0000
0000
0000
1000
0100
0010
0000
,
0100
0000
0000
0000
0100
0010
0001
0000
0010
0000
0000
0000
0010
0001
0100
0000
,
0001
0000
0000
0000
0001
0100
0010
0000
0100
0000
0000
0000
0100
0010
1000
0000
,
0010
0000
0000
0000
0010
1000
0001
0000
1000
0000
1000
0000
0001
0010
0100
0000
,
0010
0000
0010
0000
0010
0100
1000
0000
0001
0000
0001
0000
0010
0000
0010
0000
,
0100
0100
1000
1000
0001
0001
0100
0100
,
0010
0000
0000
0000
0000
0000
0000
0000
0010
0000
0000
0000
0000
0000
0000
0000
1000
0000
0000
0000
0000
0000
0000
0000
1000
0000
0000
0000
0000
0000
0000
0000
0001
1000
0000
0000
0000
0000
0000
0000
0000
0000
0000
0000
0000
0000
0000
0000
1000
0000
0000
0000
0000
0000
0000
0000
0100
0000
0000
0000
0000
0000
0000
0000
,
1000
0010
1000
0001
1000
0100
0010
0001
,
1000
0010
0100
0001
1000
0100
1000
0010
,
0100
0000
0000
0001
0000
0000
0010
0000
0000
0001
0000
0000
1000
0000
0000
0000
0101
0000
0000
0000
0101
0000
0000
0000
,
1000
0000
0011
0000
0011
0000
1000
0000
0110
0000
0110
0000
,
1000
0000
0001
0000
0010
0000
0001
0000
1001
0000
0000
1000
0100
0000
0010
0000
,
0100
0000
0001
0000
1000
0000
0010
0000
0001
0000
0000
0100
0001
0000
1000
0000
,
1000
0000
0100
0000
0010
0000
0001
0000
0010
0000
0010
0100
1000
0000
0000
0000
,
0100
0000
0100
1000
0001
0000
0000
0000
1000
0000
1000
0001
0100
0000
0000
0000
,
0001
0000
0001
0100
0010
0000
0000
0000
0110
0000
0000
0100
0001
0000
1000
0000
,
0010
0001
0010
0100
0001
0010
0001
0100
,
0001
0000
0000
1000
0000
0000
1000
0100
0010
0100
0010
0001
,
1000
0110
1001
0000
,
0110
0000
0000
0000
0000
0000
0000
1000
0100
0000
0000
0000
0000
0000
0000
0000
,
0110
0000
0000
0000
0000
0000
0000
0001
0100
0000
0000
0000
0000
0000
0000
0000
,
0110
0000
0000
0000
0000
0000
0000
0001
1000
0000
0000
0000
0000
0000
0000
0000
,
0110
0000
1001
0000
1000
0100
1000
0010
,
1000
0001
0010
0001
1000
0100
1000
0010
,
1000
0001
0010
0001
1000
0100
1000
0010
,
0100
0001
0010
0001
1000
0001
0010
0001
,
0100
0010
1000
0100
1100
0000
0000
0000
,
0110
0000
1001
0000
,
0000
0000
1000
0000
,
0100
1000
0001
0000
,
0100
0010
1000
0000
,
0000
0000
0000
0001
0010
0100
1000
0000
0000
0000
0000
0000
;

//--------------- dance-single - ピーター ----------------
#NOTEDATA:;
#STEPSTYPE:dance-single;
#DESCRIPTION:ピーター;
#DIFFICULTY:Hard;
#METER:18;
#RADARVALUES:0,0,0,0,0;
#NOTES:
0000
0000
0000
0000
,
0000
0000
0000
0000
0000
0000
0000
0000
1001
0000
0000
0000
0000
0000
0000
1000
,
0100
0000
0000
0000
0000
0000
0000
0000
0110
0000
0000
0000
0000
0000
0000
0010
,
0001
0000
0000
0000
0000
0000
0000
0000
1001
0000
0000
0000
0000
0000
0000
0001
,
0100
0000
0110
0010
,
1001
0000
0000
0000
0000
0000
0000
0001
,
0000
0000
1000
0010
,
1000
0000
0001
0010
,
0100
1000
0010
0100
,
0001
0000
0000
0000
,
1000
0100
0010
0000
,
0000
0000
1001
0000
,
0000
0000
0000
0000
1000
0100
0010
0001
1000
0000
0000
0010
1000
0000
0001
0010
,
0001
0000
0100
0010
0100
0000
0001
0000
1000
0100
0010
0000
0001
0100
0010
1000
,
0001
0000
0010
0000
0001
0010
0001
0000
1001
0000
0000
1000
0010
0000
0000
0000
,
0110
0000
0000
0100
0001
0000
0000
0000
0010
0001
0010
0000
0100
1000
0100
0000
,
1000
0001
0100
0010
1000
0001
0010
0100
1000
0001
0010
0000
0001
1000
0001
0000
,
0010
0001
0010
0000
0001
0000
0001
0000
1000
0010
1000
0000
0100
0010
0001
0000
,
0010
0000
0100
0000
1000
0001
0100
0010
0100
0000
0000
0000
0001
1000
0100
0010
,
0001
0000
0000
0000
1000
0010
0100
0001
0100
0000
0000
0000
0010
1000
0100
0010
,
0001
0000
0000
0000
0100
0010
0100
0001
0010
0000
0000
0000
0100
0010
0001
0010
,
0001
0000
0000
0000
1000
0010
0100
0001
0010
0001
0010
0001
0010
0100
0010
0100
,
1000
0100
1000
0100
1000
0001
1000
0001
1000
0000
0100
0000
1000
0100
0010
0001
,
1000
0000
0010
0000
0100
0001
0010
0001
0100
0000
0000
0010
0001
0000
0000
0000
,
0010
0000
1000
0000
0001
0010
0100
1000
0001
0000
0100
0000
0001
1000
0100
1000
,
0001
0000
0010
0000
0100
0010
0001
1000
0010
0000
0000
0100
1000
0000
0000
0000
,
0100
0000
0001
0000
1000
0100
1000
0100
1000
0000
0010
0000
1000
0010
0100
0001
,
1000
0000
0100
0000
0010
0001
0100
0001
1000
0000
0000
0100
0010
0000
0000
0000
,
1000
0000
0010
0000
0001
0010
0100
1000
0001
0100
0001
1000
0100
0010
0100
0010
,
0001
0010
0100
1000
0001
0010
0100
1000
0001
0000
0000
0000
0000
0000
0000
0000
,
0100
0000
0001
0000
0010
0000
0001
0000
1000
0000
0000
0010
0100
0000
0000
0000
,
0001
0000
1000
0000
0100
0000
0010
0000
0100
0000
0000
1000
0001
0000
0000
0000
,
0100
0000
0010
0000
0001
0000
0010
0000
1000
0000
0000
0100
0010
0000
0000
0000
,
0001
1000
0010
1000
0100
0000
0000
0000
,
0010
0001
0010
0100
1000
0000
0001
0000
,
0010
0001
0100
0010
1000
0000
0001
0000
,
0100
0001
0100
0010
1000
0000
0001
0000
,
0100
0000
0001
0000
0010
0000
0001
0000
1000
0000
0000
0000
0100
1000
0100
1000
,
0001
0000
0000
0000
0100
0000
0000
0000
0010
0000
0000
0000
1000
0100
1000
0100
,
0010
0000
0000
0000
0001
0000
0000
0000
1000
0001
0010
0100
1000
0001
0010
0100
,
1000
0001
0010
0100
1000
0010
0100
0001
,
1000
0010
0100
0001
1000
0010
0100
0001
1000
0001
0100
0010
1000
0001
0100
0010
,
1000
0001
0100
0010
1000
0100
0010
0001
,
1000
0100
0010
0001
1000
0100
0010
0001
1000
0001
0010
0001
0010
0100
1000
0001
,
0010
1000
0010
0001
1000
1000
0100
0100
,
0010
0010
0001
0001
1000
1000
0010
0010
,
0100
0000
0100
0000
0001
0000
0001
0000
1000
0100
1000
0100
0010
0100
0010
0100
,
0010
0001
0010
0001
1000
0001
1000
0001
1001
0000
0000
0000
0000
0000
0000
0000
,
0000
0000
0000
0000
0000
0000
0000
0000
0000
1000
0001
0000
,
1000
0010
0000
0100
0010
0000
0000
0000
0000
0000
0000
0000
,
0000
0000
0000
0100
0010
0000
0100
0001
0000
0010
0001
0000
,
0000
0000
0000
0000
0000
0000
0010
0001
0000
0010
0100
0000
,
1000
0100
0000
1000
0001
0000
0000
0000
0000
0000
0000
0000
,
1000
0001
0000
0010
1000
0000
0010
0001
0000
0100
0010
0000
,
1000
1000
0000
0001
0001
0000
1000
0000
0010
1000
0001
0000
,
0011
0000
0000
0000
0000
0000
0000
0000
0010
0000
0000
0000
0100
0000
0000
0000
1000
0000
0000
0000
0000
0000
0000
0000
0100
0000
0000
1000
0000
0000
0100
0000
0000
1000
0000
0000
0001
0000
0000
0010
0000
0000
0001
0000
0000
0010
0000
0000
,
0001
0000
0000
1000
0000
0000
0001
0000
0000
1000
0000
0000
0010
0000
0000
0100
0000
0000
0010
0000
0000
0100
0000
0000
0001
0000
0000
0000
0000
0000
0000
0000
0000
0000
0000
0000
1000
0000
0000
0000
0001
0000
0000
0000
0010
0000
0000
0000
,
0100
0000
0000
0000
0010
0000
0000
0000
0100
0000
0000
0000
1000
0000
0000
0001
0000
0000
0100
0000
0000
0010
0000
0000
1000
0000
0000
0100
0000
0000
1000
0000
0000
0000
0000
0000
0100
0000
0000
0010
0000
0000
0001
0000
0000
0000
0000
0000
,
0100
0010
1000
0001
0010
0000
0001
0000
0010
0001
1000
0001
0010
0001
1000
0001
,
0100
0001
1000
0001
0010
0001
0100
0001
0010
0001
1000
0001
0010
0001
1000
0001
,
0100
0001
0010
0100
1000
0100
0010
0001
1000
0000
0000
0010
1000
0000
0001
0010
,
0100
0000
0010
0001
1000
0000
0010
0000
0100
0001
0000
0001
1000
0001
0100
0010
,
1000
0100
1000
0001
0100
0010
0100
0000
0110
0000
0000
0100
0001
1000
0100
0000
,
0110
0000
0000
0100
1000
0001
0100
0000
0001
0010
0001
0100
0001
1000
0100
1000
,
0001
0100
0010
1000
0001
0010
0100
1000
0001
0100
0001
0000
1000
0100
1000
0000
,
0010
0100
0001
0000
0100
0010
0100
0000
0001
0010
0001
0010
0100
1000
0001
0000
,
0100
0010
1000
0001
0010
0100
1000
0000
0100
1000
0100
0010
0001
0010
0100
0000
,
1000
0010
0100
0001
0100
0010
1000
0000
0001
0010
0100
1000
0100
0010
0001
0000
,
0100
0001
0100
0010
1000
0010
0100
0000
0001
0010
0100
1000
0010
0100
0001
0000
,
0010
0001
0010
0100
1000
0010
0100
0000
0001
0010
0100
0010
0001
1000
0010
1000
,
0001
0010
0001
0000
1000
0100
0010
0001
0010
0001
0010
0001
0010
0100
0010
0100
,
1000
0100
1000
0100
1000
0001
1000
0001
0100
0001
0100
0001
0100
0010
0100
0010
,
1000
0000
0000
0000
0010
0000
0000
0000
1000
0000
0000
0000
0010
0000
0000
0000
1000
0000
0000
0000
0001
0000
0000
0000
0000
0000
0000
0000
0001
0000
0000
0000
1000
0001
0000
0000
0000
0000
0000
0000
0000
0000
0000
0000
0000
0000
0000
0000
0000
0000
0000
0000
0000
0000
0000
0000
1000
0000
0000
0000
0000
0000
0000
0000
,
0100
0000
0010
0000
0001
0000
1000
0000
0010
0100
0001
0000
1000
0100
0010
0000
,
0001
1000
0010
0000
0100
0001
1000
0100
0010
0001
0010
0100
0010
0001
1000
0010
,
0100
0000
0000
0010
0000
0000
1000
0000
0000
0001
0000
0000
0010
0000
0000
1000
0000
0000
0010
0000
0000
0001
0000
0000
1000
0000
0000
0000
0010
0000
0000
0000
0010
0000
0000
0000
0000
0000
0000
0000
1010
0000
0000
0000
0000
0000
0000
0000
,
0001
0010
0010
0000
0011
0000
1000
0010
0010
0000
1010
0000
,
1000
0000
1100
0000
0010
0000
0011
0000
1001
0000
0000
0001
0100
0000
0001
0010
,
0100
0000
1000
0000
1100
0000
0100
0000
0110
0000
0000
0010
0001
0000
1000
0010
,
0100
0000
1000
0000
0100
0000
0001
0000
1000
0000
0100
0010
0100
0000
1000
0001
,
0100
0000
0001
0010
0001
0000
1000
0010
0100
0000
0010
1000
0010
0000
1000
0100
,
0010
0000
0001
0100
0001
0000
1000
0100
1000
0000
0000
0010
0100
0000
1000
0100
,
0001
0000
0010
0000
0001
0000
0100
0000
0001
0010
0100
1000
0001
0100
0010
1000
,
0001
0000
0000
0000
0000
0000
0000
0000
0000
0000
0000
0000
1000
0000
0000
0100
0000
0000
0010
0000
0000
0001
0000
0000
1000
0000
0000
0000
0010
0000
0000
0000
0001
0000
0000
0000
1000
0000
0000
0000
0100
0000
0000
0000
0001
0000
0000
0000
,
1000
0000
0000
0000
0000
0000
0001
0000
0000
0000
0000
0000
1001
0000
0000
0000
0000
0000
0000
0000
0000
1000
0100
0010
,
0001
0000
0000
0000
0000
0000
0000
0000
0000
0000
0000
0000
0000
0000
0000
0000
0000
0000
0000
0000
0000
1000
0000
0000
0001
0000
0000
0000
0000
0000
0000
0000
0000
0000
0000
0000
0000
0000
0000
0000
0000
0000
1000
0000
0100
0000
0010
0000
,
0001
0000
0000
0000
0000
0000
0000
0000
0000
0000
0000
0000
0000
0000
0000
0000
0000
0000
0000
0000
0000
1000
0000
0000
0001
0000
0000
0000
0000
0000
0000
0000
0000
0000
0000
0000
0000
0000
0000
0000
0000
0000
1000
0000
0100
0000
0010
0000
,
0001
0000
0000
0000
0000
0000
0000
0000
0000
0000
0000
0000
0000
0000
0000
0000
0000
0000
0000
0000
0000
1000
0000
0000
0001
0000
0000
0000
0000
0000
0000
0000
0000
0000
0000
0000
0000
0000
0000
0000
0000
0000
1000
0000
0100
0000
0010
0000
,
0001
0000
1001
0000
1000
0100
0010
0001
,
1000
0000
0010
0000
0100
0000
0001
0000
1000
0100
0010
0000
0001
1000
0010
0000
,
0100
0001
1000
0000
0100
0010
0001
0000
0010
0001
0100
0001
1000
0001
0010
0001
,
0100
0001
1000
0001
0010
0001
0100
0001
1000
0001
0010
0001
0100
0001
1000
0001
,
0010
0001
0100
0001
1000
0001
0010
0100
1000
0000
0000
0000
0000
0000
0010
0100
,
0001
0100
0010
1000
0001
0010
0100
1000
0001
0000
0000
0000
0000
0000
0000
0000
,
0000
0000
1000
0000
,
0010
0100
0001
0000
,
0010
0100
1000
0000
,
0000
0000
0000
0000
,
0001
0100
0010
1000
0000
0000
0000
0000
0000
0000
0000
0000
0000
0000
0000
0000
;

//--------------- dance-single - ピーター ----------------
#NOTEDATA:;
#STEPSTYPE:dance-single;
#DESCRIPTION:ピーター;
#DIFFICULTY:Challenge;
#METER:19;
#RADARVALUES:0,0,0,0,0;
#NOTES:
0000
0000
0000
0000
,
0000
0000
0000
0000
0000
0000
0000
0000
0000
0000
0000
0000
0000
0000
0000
0000
0000
0000
1000
0000
0100
0000
0010
0000
0001
0000
0000
0000
0000
0000
0000
0000
0000
0000
0000
0000
0000
0000
0000
0000
0000
0000
0000
0000
0000
1000
0000
0000
,
1000
0000
0000
0000
0000
0000
0000
0000
0000
0000
0000
0000
0000
0000
0000
0000
0000
0000
1000
0000
0100
0000
0010
0000
0001
0000
0000
0000
0000
0000
0000
0000
0000
0000
0000
0000
0000
0000
0000
0000
0000
0000
0000
0000
0000
1000
0000
0000
,
1000
0000
0000
0000
0000
0000
0000
0000
0000
0000
0000
0000
0000
0000
0000
0000
0000
0000
1000
0000
0010
0000
0100
0000
0001
0000
0000
0000
0000
0000
0000
0000
0000
0000
0000
0000
0000
0000
0000
0000
0000
0000
0000
0000
0000
1000
0000
0000
,
1000
0000
0000
0000
0000
0000
0000
0000
0000
1000
0100
0010
0001
0000
0000
0000
0000
0000
1001
0000
0000
0001
0010
0100
,
1000
0000
0000
0000
0000
0000
0000
0000
0000
0000
0000
0000
0000
0000
0000
0000
0000
0000
0000
0000
0001
1000
0000
0000
,
0000
0000
1000
0100
,
1000
0000
0001
0010
,
0001
0100
0001
0010
,
0100
0000
0000
0000
,
0010
0001
1000
0000
,
0000
0000
1001
0000
,
0000
0000
0000
0000
1000
0100
0010
0001
1000
0000
0000
0010
0100
0010
1000
0001
,
0010
0001
1000
0000
0010
1000
0010
0000
1000
0001
0010
0001
1000
0001
0010
0100
,
1000
0001
0100
0001
0010
0100
0010
0100
0110
0000
0000
0010
0001
1000
0010
0100
,
0110
0000
0000
0010
1000
0010
0100
0001
0010
0001
0100
0001
0010
0100
0010
0001
,
0010
0000
0000
0100
0000
0000
1000
0000
0000
0001
0000
0000
0010
0000
0100
0000
0010
0000
0100
0000
1000
0000
0100
0000
1000
0000
0000
0100
0000
0000
1000
0000
0000
0001
0000
0000
0100
0000
0000
0010
0000
0000
0100
0000
0000
0001
0000
0000
,
1000
0010
0100
0010
0001
0010
0100
0001
1000
0001
0010
0100
0010
1000
0010
0100
,
1000
0001
0100
0001
1000
0010
1000
0001
1001
0000
0000
0001
1000
0010
0100
0001
,
0101
0000
0000
0001
1000
0100
0010
0001
0011
0000
0000
0001
1000
0010
0100
0001
,
0101
0000
0000
0001
1000
0100
0010
0001
0011
0000
0000
0001
1000
0100
0010
0100
,
0110
0000
0000
0100
1000
0100
0010
0001
0010
0001
1000
0010
0100
0010
1000
0001
,
0010
0100
0010
0001
0010
0100
1000
0001
1000
0000
1000
0100
1000
0001
0100
0001
,
0010
0001
0010
0001
1000
0100
0010
0001
0010
0000
0000
0001
1000
0000
0000
0010
,
0100
0000
0001
1000
0001
0010
0100
1000
0001
0000
1000
0100
1000
0100
0010
0001
,
1000
0000
1000
0010
0100
0001
0010
0001
0010
0000
0000
0100
1000
0000
0010
0100
,
0010
0000
1000
0001
1000
0100
1000
0001
1000
0100
0010
0100
1000
0001
0010
0001
,
0010
0000
0100
0000
1000
0001
0100
0010
1000
0000
0000
0100
0010
0000
0100
1000
,
0100
0000
0010
0001
0010
0001
0100
0010
1000
0010
0100
0010
1000
0001
0010
0001
,
1000
0001
0010
0100
1000
0001
0100
0010
1000
0000
0000
0000
0000
0000
0000
0000
,
0100
0000
1000
0000
0010
0000
0100
0000
0001
0000
0000
0010
0001
0000
0000
0000
,
1000
0000
0010
0000
0100
0000
0001
0000
0100
0000
0000
0010
1000
0000
0000
0000
,
0100
0000
1000
0000
0010
0000
0100
0000
0001
0000
0000
1000
0001
0000
0000
0000
,
0010
0001
0100
0001
1000
0000
0000
0000
,
0010
0001
0010
1000
0001
0000
1000
0000
,
0100
0010
1000
0010
0001
0000
1000
0000
,
0100
0001
0100
1000
0001
0000
1000
0000
,
0001
0000
0100
0000
0010
0000
1000
0000
0001
0000
0000
0000
1000
0100
0010
0001
,
1000
0000
0000
0000
0100
0000
0000
0000
1000
0000
0000
0000
0001
1000
0100
0010
,
0001
0000
0000
0000
1000
0000
0000
0000
0001
0010
0100
1000
0001
0010
0100
1000
,
0001
0010
0100
1000
0001
0010
0100
1000
0001
1000
0100
0010
0001
1000
0100
0010
,
0001
1000
0100
0010
0001
1000
0100
0010
0001
0010
0100
1000
0001
0010
0100
1000
,
0001
0010
0100
1000
0001
0010
0100
1000
0001
1000
0100
0010
0001
1000
0100
0010
,
0001
1000
0100
0010
0001
1000
0100
1000
0001
0100
0010
1000
0001
0100
0010
1000
,
0001
0100
0010
1000
0001
0100
0010
1000
0100
0000
1000
0100
1000
0100
0010
0100
,
1000
0100
0010
0001
0010
0100
0010
0001
1000
0010
1000
0010
1000
0010
0100
0010
,
1000
0010
0100
0001
0100
0010
0100
0001
1000
0100
1000
0010
0100
0001
0010
0001
,
1000
0010
0100
0001
1000
0100
0010
0001
1001
0000
0000
0000
0000
0000
0000
0000
,
0000
0000
0000
0000
0000
0000
0000
0000
0000
0001
0011
0000
,
0010
0110
0000
0100
1100
0000
0000
0000
0000
0000
0000
0000
,
0000
0000
0000
1000
1010
0000
0010
0110
0000
0100
1100
0000
,
0000
0000
0000
0000
0000
0000
1000
1001
0000
0001
0011
0000
,
0010
0110
0000
0100
0101
0000
0000
0000
0000
0000
0000
0000
,
0001
0011
0000
0010
1010
0000
1000
1010
0000
0010
0011
0000
,
1001
1001
0000
0110
0110
0000
1000
0100
0001
1000
0010
0001
,
1000
0000
0000
0000
0010
0000
0000
0000
0001
0000
0000
0000
1000
0000
0000
0000
0100
0000
0000
0000
0001
0000
0000
0000
1000
0000
0000
0100
0000
0000
0010
0000
0000
0100
0000
0000
1000
0000
0000
0100
0000
0000
0010
0000
0000
0001
0000
0000
,
1000
0000
0000
0010
0000
0000
0100
0000
0000
0001
0000
0000
0010
0000
0000
0100
0000
0000
0010
0000
0000
0001
0000
0000
0010
0000
0000
0000
0010
0000
0000
0000
0010
0000
0000
0000
0001
0000
0000
0000
0001
0000
0000
0000
0001
0000
0000
0000
,
0100
0000
0000
0000
0100
0000
0000
0000
0100
0000
0000
0000
0010
0000
0000
0000
0010
0000
0000
0000
0010
0000
0000
0000
1000
0000
0010
0000
0100
0000
0001
0000
1000
0000
0001
0000
0010
0000
0000
0001
0000
0000
1000
0000
0000
0010
0000
0000
,
0001
0000
0000
0000
0010
0000
0000
0000
1000
0000
0001
0000
0010
0000
0000
0000
0001
0000
1000
0000
0100
0000
0010
0000
0001
0000
0000
0010
0000
0000
0001
0000
0000
0010
0000
0000
0100
0000
0000
1000
0000
0000
0100
0000
0000
1000
0000
0000
,
0001
0100
0001
0100
0010
1000
0010
1000
0001
0010
0001
0010
0100
1000
0100
1000
,
0010
0100
0000
0100
0010
1000
0100
0010
0001
0000
0000
0001
1000
0001
0010
0100
,
1000
0001
0100
0001
0100
0010
0100
0001
1000
0100
0010
0100
1000
0001
0100
0010
,
1000
0001
0010
0100
0010
0001
1000
0001
1001
0000
0000
1000
0010
0001
0010
1000
,
1010
0000
0000
1000
0001
0010
1000
0010
0001
0010
0001
0100
0001
1000
0100
1000
,
0001
0000
0000
0100
0000
0000
0010
0000
0000
1000
0000
0000
0001
0000
0010
0000
0100
0000
0010
0000
0100
0000
1000
0000
0100
0000
0000
0010
0000
0000
0100
0000
0000
1000
0000
0000
0001
0000
0000
0100
0000
0000
0010
0000
0000
0100
0000
0000
,
0001
1000
0100
0010
0100
0001
0100
1000
0001
0100
0001
0100
0010
0001
0010
0100
,
0001
0010
0001
1000
0010
0100
0010
0100
0010
1000
0001
0010
0100
0010
0001
1000
,
0010
1000
0001
0100
0001
0010
0001
1000
0010
1000
0001
0010
0100
0010
0001
1000
,
0100
1000
0001
0100
0001
1000
0010
1000
0100
1000
0001
0100
0010
0100
0001
1000
,
0100
1000
0001
0100
0010
1000
0001
0100
0001
1000
0100
1000
0010
0100
0010
1000
,
0001
1000
0010
1000
0100
0010
0001
1000
0001
0010
0001
1000
0010
0100
0010
1000
,
0001
0100
0001
1000
0100
0010
0100
1000
0001
0010
0001
1000
0010
0100
0010
1000
,
0001
0000
0000
0000
0100
0000
0000
0000
0001
0000
0000
0000
1000
0000
0000
0000
0100
0000
0000
0000
0010
0000
0000
0000
0001
0000
0000
0000
1000
0000
0000
0000
0001
1000
0000
0000
0000
0000
0000
0000
0000
0000
0000
0000
0000
0000
0000
0000
0100
0000
0000
0000
1000
0000
0000
0000
0010
0000
0000
0000
0100
0000
0000
0000
,
0001
1000
0100
1000
0001
0100
0001
1000
0100
1000
0010
0100
0001
0010
0001
1000
,
0100
0010
0100
1000
0010
0100
0001
1000
0100
1000
0010
1000
0001
0010
0001
1000
,
0010
0000
0000
1000
0000
0000
0100
0000
0000
1000
0000
0000
0001
0000
0000
0100
0000
0000
0001
0000
0000
1000
0000
0000
0001
0000
0000
0000
0010
0000
0000
0000
0011
0000
0000
0000
0000
0000
0000
0000
1001
0000
0000
0000
0000
0000
0000
0000
,
0010
1000
1010
0000
1001
0000
0010
0001
0011
0000
1001
0001
,
1000
0000
1100
0000
0110
0000
0011
0000
1001
0000
0000
0001
1000
0100
0010
0001
,
0010
0000
0011
0000
0101
0000
1010
0000
0110
0000
0000
0100
0001
0000
1000
0100
,
0010
0000
0100
0000
1100
0000
1001
0000
0011
0000
0001
0010
0100
0000
0010
0001
,
0011
0000
0001
0100
0010
0000
1000
0100
1100
0000
1000
0100
0010
0000
0100
1000
,
1100
0000
1000
0010
0100
0001
0100
0001
0100
0000
0000
0010
0110
0000
0100
0001
,
1000
0000
0100
0000
0010
0000
0001
0000
0010
0001
1000
0010
0100
0001
0010
0001
,
1000
0000
0000
0000
0001
0000
0000
0000
0000
0000
0000
0000
1000
0000
0000
0100
0000
0000
0010
0000
0000
0001
0000
0000
1000
0000
0000
0000
0010
0000
0000
0000
0001
0000
0000
0000
1000
0000
0000
0000
0100
0000
0000
0000
0001
0000
0000
0000
,
1000
0000
0001
0000
0100
0000
1000
0000
0001
0000
0010
0000
1000
0000
0000
0000
0000
0000
0000
0000
0000
1000
0100
0010
,
0001
0000
0000
0000
0000
0000
0000
0000
0000
0000
0000
0000
0000
0000
0000
0000
0000
0000
0000
0000
0000
1000
0000
0000
1000
0000
0000
0000
0000
0000
0000
0000
0000
0000
0000
0000
0000
0000
0000
0000
0000
0000
1000
0000
0100
0000
0010
0000
,
0001
0000
0000
0000
0000
0000
0000
0000
0000
0000
0000
0000
0000
0000
0000
0000
0000
0000
0000
0000
0000
1000
0000
0000
1000
0000
0000
0000
0000
0000
0000
0000
0000
0000
0000
0000
0000
0000
0000
0000
0000
0000
1000
0000
0100
0000
0010
0000
,
0001
0000
0000
0000
0000
0000
0000
0000
0000
0000
0000
0000
0000
0000
0000
0000
0000
0000
0000
0000
0000
1000
0000
0000
1000
0000
0000
0000
0000
0000
0000
0000
0000
0000
0000
0000
0000
0000
0000
0000
0000
0000
1000
0000
0100
0000
0010
0000
,
0001
0000
0000
0000
1001
0000
0000
0000
1000
0100
1000
0100
0010
0001
0010
0001
,
1000
0010
0100
0010
1000
0001
0100
0001
1000
0100
0010
0100
1000
0001
0100
0001
,
1000
0100
0010
0001
1000
0010
0100
0001
0010
0001
0100
0010
1000
0100
1000
0001
,
0010
0001
0100
0010
1000
0100
1000
0001
0010
0001
0100
0010
1000
0100
1000
0001
,
0010
0000
0000
0001
0000
0000
0100
0000
0000
0010
0000
0000
1000
0000
0100
0000
1000
0000
0001
0000
0100
0000
0010
0000
1000
0000
0000
0000
0000
0000
0000
0000
0000
0000
0000
0000
0000
0000
0000
0000
0000
0000
0001
0000
0000
0010
0000
0000
,
0100
0010
0100
1000
0001
0100
0010
1000
1001
0000
0000
0000
0000
0000
0000
0000
,
0000
0000
1000
0000
,
0100
0010
0001
0000
,
0100
0010
1000
0000
,
0000
0000
0000
0000
,
0001
0010
1000
0100
0000
0000
0000
0000
0000
0000
0000
0000
0000
0000
0000
0000
;

//--------------- dance-single - ピーター ----------------
#NOTEDATA:;
#STEPSTYPE:dance-single;
#DESCRIPTION:ピーター;
#DIFFICULTY:Edit;
#METER:20;
#RADARVALUES:0,0,0,0,0;
#NOTES:
0000
0000
0000
0000
,
0000
0000
0000
0000
0000
0000
0000
0000
0000
0000
0000
0000
0000
0000
0000
0000
0000
0000
1000
0000
0100
0000
0010
0000
0001
0000
0000
0000
0000
0000
0000
0000
0000
0000
0000
0000
0000
0000
0000
0000
0000
0000
0000
0000
0000
1001
0000
0000
,
1001
0000
0000
0000
0000
0000
0000
0000
0000
0000
0000
0000
0000
0000
0000
0000
0000
0000
1000
0000
0100
0000
0010
0000
0001
0000
0000
0000
0000
0000
0000
0000
0000
0000
0000
0000
0000
0000
0000
0000
0000
0000
0000
0000
0000
1001
0000
0000
,
1001
0000
0000
0000
0000
0000
0000
0000
0000
0000
0000
0000
0000
0000
0000
0000
0000
0000
1000
0000
0010
0000
0100
0000
0001
0000
0000
0000
0000
0000
0000
0000
0000
0000
0000
0000
0000
0000
0000
0000
0000
0000
0000
0000
0000
1001
0000
0000
,
1001
0000
0000
0000
0000
0000
0000
0000
0000
1000
0100
0010
0001
0000
0000
0000
0000
0000
1001
0000
0000
0001
0010
0100
,
1000
0000
0000
0000
0000
0000
0000
0000
0000
0000
0000
0000
0000
0000
0000
0000
0000
0000
0000
0100
0010
0001
0000
0000
,
0000
0000
1000
0100
,
1000
0000
0001
0010
,
0001
0100
0001
0010
,
0100
0000
0000
0000
,
0010
0001
1000
0000
,
0000
0000
1001
0000
,
0000
0000
0000
0000
1000
0100
0010
0001
1000
0000
0000
0010
0100
0010
1000
0001
,
0010
0001
1000
0000
0010
1000
0010
0000
1000
0001
0010
0001
1000
0001
0010
0100
,
1000
0001
0100
0001
0010
0100
0010
0100
0110
0000
0000
0010
0001
1000
0010
0100
,
0110
0000
0000
0010
1000
0010
0100
0001
0010
0001
0100
0001
0010
0100
0010
0001
,
0010
0000
0000
0100
0000
0000
1000
0000
0000
0001
0000
0000
0010
0000
0100
0000
0010
0000
0100
0000
1000
0000
0100
0000
1000
0000
0000
0100
0000
0000
1000
0000
0000
0001
0000
0000
0100
0000
0000
0010
0000
0000
0100
0000
0000
0001
0000
0000
,
1000
0010
0100
0010
0001
0010
0100
0001
1000
0001
0010
0100
0010
1000
0010
0100
,
1000
0001
0100
0001
1000
0010
1000
0001
1001
0000
0000
0001
1000
0010
0100
0001
,
0101
0000
0000
0001
1000
0100
0010
0001
0011
0000
0000
0001
1000
0010
0100
0001
,
0101
0000
0000
0001
1000
0100
0010
0001
0011
0000
0000
0001
1000
0100
0010
0100
,
0110
0000
0000
0100
1000
0100
0010
0001
0010
0001
1000
0010
0100
0010
1000
0001
,
0010
0100
0010
0001
0010
0100
1000
0001
1000
0000
1000
0100
1000
0001
0100
0001
,
0010
0001
0010
0001
1000
0100
0010
0001
0010
0000
0000
0001
1000
0000
0000
0010
,
0100
0000
0001
1000
0001
0010
0100
1000
0001
0000
1000
0100
1000
0100
0010
0001
,
1000
0000
1000
0010
0100
0001
0010
0001
0010
0000
0000
0100
1000
0000
0010
0100
,
0010
0000
1000
0001
1000
0100
1000
0001
1000
0100
0010
0100
1000
0001
0010
0001
,
0010
0000
0100
0000
1000
0001
0100
0010
1000
0000
0000
0100
0010
0000
0100
1000
,
0100
0000
0010
0001
0010
0001
0100
0010
1000
0010
0100
0010
1000
0001
0010
0001
,
1000
0001
0010
0100
1000
0001
0100
0010
1000
0100
0010
0100
1000
0100
0010
0100
,
1000
0100
0010
0100
1000
0100
0010
0100
1000
0001
0100
0001
1000
0001
0100
0001
,
1000
0001
0100
0001
1000
0001
0100
0001
1000
0010
0100
0010
1000
0010
0100
0010
,
1000
0010
0100
0010
1000
0010
0100
0010
1000
0001
0010
0001
1000
0001
0010
0001
,
1000
0000
0000
0001
0000
0000
0010
0000
0000
0001
0000
0000
1000
0000
0000
0001
0000
0000
0010
0000
0000
0001
0000
0000
1000
0000
0000
0000
0100
0000
0000
0000
0010
0000
0000
0000
0100
0000
0000
0000
0010
0000
0000
0000
0001
0000
0000
0000
,
1000
0001
0010
1000
0010
0100
1000
0001
0100
1000
0100
0001
,
1000
0100
0001
0100
0010
0001
1000
0010
0100
0010
0100
0001
,
1000
0001
0100
1000
0100
0010
1000
0001
0010
1000
0010
0001
,
1000
0000
0000
0000
0010
0000
0000
0000
0001
0000
0000
0000
0010
0000
0000
0000
0100
0000
0000
0000
0001
0000
0000
0000
1000
0000
0000
0000
0100
0000
0000
0000
0010
0000
0000
0000
0001
0000
0000
1000
0000
0000
0100
0000
0000
0010
0000
0000
,
0001
0000
0000
0000
0100
0000
0000
0000
0010
0000
0000
0000
0001
0000
0000
0000
0010
0000
0000
0000
1000
0000
0000
0000
0001
0000
0000
0000
0010
0000
0000
0000
0100
0000
0000
0000
1000
0000
0000
0100
0000
0000
0010
0000
0000
0001
0000
0000
,
1000
0010
0001
0010
1000
0100
0010
0000
0001
0010
0100
1000
0001
0010
0100
1000
,
0001
0010
0100
1000
0001
0010
0100
1000
0001
1000
0100
0010
0001
1000
0100
0010
,
0001
1000
0100
0010
0001
1000
0100
0010
0001
0010
0100
1000
0001
0010
0100
1000
,
0001
0010
0100
1000
0001
0010
0100
1000
0001
1000
0100
0010
0001
1000
0100
0010
,
0001
1000
0100
0010
0001
1000
0100
1000
0001
0100
0010
1000
0001
0100
0010
1000
,
0001
0100
0010
1000
0001
0100
0010
1000
0100
0000
1000
0100
1000
0100
0010
0100
,
1000
0100
0010
0001
0010
0100
0010
0001
1000
0010
1000
0010
1000
0010
0100
0010
,
1000
0010
0100
0001
0100
0010
0100
0001
1000
0100
1000
0010
0100
0001
0010
0001
,
1000
0000
0000
0010
0000
0000
0100
0000
0000
0001
0000
0000
1000
0000
0000
0100
0000
0000
0010
0000
0000
0001
0000
0000
1001
0000
0000
0000
0001
0000
0000
0000
0001
0000
0000
0000
0001
0000
0000
0000
0001
0000
0000
0000
0001
0000
0000
0000
,
0001
0001
0001
0001
0001
0001
0001
0001
0001
0001
0011
0010
,
0010
0110
0100
0100
1100
1000
1000
1000
1000
1000
1000
1000
,
1000
1000
1000
1000
1010
0010
0010
0110
0100
0100
1100
1000
,
1000
1000
1000
1000
1000
1000
1000
1001
0001
0001
0011
0010
,
0010
0110
0100
0100
0101
0001
0001
0001
0001
0001
0001
0001
,
0001
0011
0010
0010
1010
1000
1000
1010
0010
0010
0011
0001
,
1001
1001
1001
0110
0110
0110
1000
0100
0001
1000
0010
0001
,
1000
0000
0000
0000
0010
0000
0000
0000
0001
0000
0000
0000
1000
0000
0000
0000
0100
0000
0000
0000
0001
0000
0000
0000
1000
0000
0000
0100
0000
0000
0010
0000
0000
0100
0000
0000
1000
0000
0000
0100
0000
0000
0010
0000
0000
0001
0000
0000
,
1000
0000
0000
0010
0000
0000
0100
0000
0000
0001
0000
0000
0010
0000
0000
0100
0000
0000
0010
0000
0000
0001
0000
0000
0010
0000
0000
0000
0010
0000
0000
0000
0010
0000
0000
0000
0001
0000
0000
0000
0001
0000
0000
0000
0001
0000
0000
0000
,
0100
0000
0000
0000
0100
0000
0000
0000
0100
0000
0000
0000
0010
0000
0000
0000
0010
0000
0000
0000
0010
0000
0000
0000
1000
0000
0010
0000
0100
0000
0001
0000
1000
0000
0001
0000
0010
0000
0000
0001
0000
0000
1000
0000
0000
0010
0000
0000
,
0001
0000
0000
0000
0010
0000
0000
0000
1000
0000
0001
0000
0010
0000
0000
0000
0001
0000
1000
0000
0100
0000
0010
0000
0001
0000
0000
0010
0000
0000
0001
0000
0000
0010
0000
0000
0100
0000
0000
1000
0000
0000
0100
0000
0000
1000
0000
0000
,
0001
0100
0001
0100
0010
1000
0010
1000
0001
0010
0001
0010
0100
1000
0100
1000
,
0010
0100
0000
0100
0010
1000
0100
0010
0001
0000
0000
0001
1000
0001
0010
0100
,
1000
0001
0100
0001
0100
0010
0100
0001
1000
0100
0010
0100
1000
0001
0100
0010
,
1000
0001
0010
0100
0010
0001
1000
0001
1001
0000
0000
1000
0010
0001
0010
1000
,
1010
0000
0000
1000
0001
0010
1000
0010
0001
0010
0001
0100
0001
1000
0100
1000
,
0001
0000
0000
0100
0000
0000
0010
0000
0000
1000
0000
0000
0001
0000
0010
0000
0100
0000
0010
0000
0100
0000
1000
0000
0100
0000
0000
0010
0000
0000
0100
0000
0000
1000
0000
0000
0001
0000
0000
0100
0000
0000
0010
0000
0000
0100
0000
0000
,
0001
1000
0100
0010
0100
0001
0100
1000
0001
0100
0001
0100
0010
0001
0010
0100
,
0001
0010
0001
1000
0010
0100
0010
0100
0010
1000
0001
0010
0100
0010
0001
1000
,
0010
1000
0001
0100
0001
0010
0001
1000
0010
1000
0001
0010
0100
0010
0001
1000
,
0100
1000
0001
0100
0001
1000
0010
1000
0100
1000
0001
0100
0010
0100
0001
1000
,
0100
1000
0001
0100
0010
1000
0001
0100
0001
1000
0100
1000
0010
0100
0010
1000
,
0001
1000
0010
1000
0100
0010
0001
1000
0001
0010
0001
1000
0010
0100
0010
1000
,
0001
0100
0001
1000
0100
0010
0100
1000
0001
0010
0001
1000
0010
0100
0010
1000
,
0001
0000
0000
0000
0100
0000
0000
0000
0001
0000
0000
0000
1000
0000
0000
0000
0100
0000
0000
0000
0010
0000
0000
0000
0001
0000
0000
0000
1000
0000
0000
0000
0001
1000
0000
0000
0000
0000
0000
0000
0000
0000
0000
0000
0000
0000
0000
0000
0100
0000
0000
0000
1000
0000
0000
0000
0010
0000
0000
0000
0100
0000
0000
0000
,
0001
1000
0100
1000
0001
0100
0001
1000
0100
1000
0010
0100
0001
0010
0001
1000
,
0100
0010
0100
1000
0010
0100
0001
1000
0100
1000
0010
1000
0001
0010
0001
1000
,
0010
0000
0000
1000
0000
0000
0100
0000
0000
1000
0000
0000
0001
0000
0000
0100
0000
0000
0001
0000
0000
1000
0000
0000
0001
0000
0000
0000
0011
0000
0000
0000
0011
0000
0000
0000
0000
0000
0000
0000
1001
0000
0000
0000
0000
0000
0000
0000
,
0010
1010
1010
0000
1001
0000
0010
0011
0011
0000
1001
1001
,
1000
0000
1100
0000
0110
0000
0011
0000
1001
0000
0000
0001
1000
0100
0010
0001
,
0010
0000
0011
0000
0101
0000
1010
0000
0110
0000
0000
0100
0001
0000
1000
0100
,
0010
0000
0100
0000
1100
0000
1001
0000
0011
0000
0001
0010
0100
0000
0010
0001
,
0011
0000
0001
0100
0010
0000
1000
0100
1100
0000
1000
0100
0010
0000
0100
1000
,
1100
0000
1000
0010
0100
0001
0100
0001
0100
0000
0000
0010
0110
0000
0100
0001
,
1000
0000
0100
0000
0010
0000
0001
0000
0010
0001
1000
0010
0100
0001
0010
0001
,
1000
0000
0000
0000
0001
0000
0000
0000
0000
0000
0000
0000
1000
0000
0000
0100
0000
0000
0010
0000
0000
0001
0000
0000
1000
0000
0000
0000
0010
0000
0000
0000
0001
0000
0000
0000
1000
0000
0000
0000
0100
0000
0000
0000
0001
0000
0000
0000
,
1001
0000
0101
0000
0110
0000
1010
0000
1100
0000
0011
0000
1001
0000
0000
0000
0000
0000
0000
0000
0000
1000
0100
0010
,
0001
0000
0000
0000
0000
0000
0000
0000
0000
0000
0000
0000
0000
0000
0000
0000
0000
0000
0000
0000
0000
1001
0000
0000
1001
0000
0000
0000
0000
0000
0000
0000
0000
0000
0000
0000
0000
0000
0000
0000
0000
0000
1000
0000
0100
0000
0010
0000
,
0001
0000
0000
0000
0000
0000
0000
0000
0000
0000
0000
0000
0000
0000
0000
0000
0000
0000
0000
0000
0000
1001
0000
0000
1001
0000
0000
0000
0000
0000
0000
0000
0000
0000
0000
0000
0000
0000
0000
0000
0000
0000
1000
0000
0100
0000
0010
0000
,
0001
0000
0000
0000
0000
0000
0000
0000
0000
0000
0000
0000
0000
0000
0000
0000
0000
0000
0000
0000
0000
1001
0000
0000
1001
0000
0000
0000
0000
0000
0000
0000
0000
0000
0000
0000
0000
0000
0000
0000
0000
0000
1000
0000
0100
0000
0010
0000
,
0001
0000
0000
0000
1001
0000
0000
0000
1000
0100
1000
0010
0100
0001
0010
0001
,
1000
0010
1000
0100
0010
0001
0100
0001
1000
0100
0010
0100
0001
1000
0010
0100
,
0010
0001
1000
0010
0001
0010
0100
0001
1000
0100
0001
0100
1000
0010
0001
0010
,
1000
0100
0001
0100
1000
0010
0001
0010
1000
0100
0001
0100
1000
0010
0001
0010
,
1000
0000
0000
0100
0000
0000
0001
0000
0000
0100
0000
0000
1000
0000
0001
0000
0100
0000
1000
0000
0100
0000
0001
0000
1000
0000
0000
0000
0000
0000
0000
0000
0000
0000
0000
0000
0000
0000
0000
0000
0000
0000
0001
0000
0000
0010
0000
0000
,
0100
0010
0100
1000
0001
0100
0010
1000
1001
0000
0000
0000
0000
0000
0000
0000
,
0000
0000
1000
0000
,
0100
0010
0001
0000
,
0100
0010
1000
0000
,
0000
0000
0000
0000
,
0001
0010
1000
0100
0000
0000
0000
0000
0000
0000
0000
0000
0000
0000
0000
0000
;

//--------------- dance-double - ピーター ----------------
#NOTEDATA:;
#STEPSTYPE:dance-double;
#DESCRIPTION:ピーター;
#DIFFICULTY:Medium;
#METER:15;
#RADARVALUES:0,0,0,0,0;
#OFFSET:-0.230;
#BPMS:0.000=124.000
,16.000=116.000
,20.000=140.000
,22.000=152.000
,26.000=160.000
,32.000=151.000
,36.000=140.000
,42.000=125.000
,46.000=168.000
,132.000=164.000
,138.000=160.000
,190.000=168.000
,194.000=170.000
,198.000=172.000
,202.000=173.000
,206.000=176.000
,210.000=178.000
,214.000=180.000
,226.000=172.000
,234.000=177.000
,236.000=173.000
,238.000=171.000
,240.000=158.000
,243.000=168.000
,302.000=172.000
,308.000=168.000
,336.000=151.000
,338.000=143.000
,350.000=136.000
,352.000=126.000
,354.000=146.000
,355.000=151.000
,356.000=154.000
,357.000=158.000
,358.000=160.000
,359.000=162.000
,360.000=164.000
,362.000=165.000
,369.000=162.000
,382.000=158.000
,384.000=154.000
;
#MUSIC:Piano dokusou mugonka Kaijin simple.ogg;
#SAMPLESTART:21.879;
#SAMPLELENGTH:15.000;
#NOTES:
00000000
00000000
00000000
00000000
,
00000000
00000000
00011000
00000000
,
01000000
00000000
00011000
00000000
,
00000100
00000000
00011000
00000000
,
01000000
00000000
00011000
00000100
,
00011000
00000000
00000000
00000000
00000000
00000000
00000000
00010000
,
00000000
00000000
00100000
10000000
,
01000000
00000000
00100000
00010000
,
01000000
00001000
00010000
00000100
,
00000010
00000000
00000000
00000000
,
00000001
00000100
00001000
00000000
,
00000000
00000000
00011000
00000000
,
00000000
00000000
00000000
00000000
00000000
00000000
00001000
00000000
00010000
00000000
00100000
00000000
10000000
00000000
00000000
10000000
00000000
00000000
00100000
00000000
00000000
00100000
00000000
00000000
,
00010000
00010000
00001000
00001000
01000000
01000000
00010000
00010000
,
00001000
00000000
00000010
00000000
00000100
00000000
00000001
00000000
00001001
00000000
00000000
00001000
00010000
00000000
00000000
00000000
,
10010000
00000000
00000000
00010000
00001000
00000000
00000000
00000000
00000001
00000000
00000010
00000000
00000100
00000000
00001000
00000000
,
00010000
00100000
01000000
10000000
00010000
00010000
10000000
10000000
,
01000000
00100000
00100000
00100000
00001000
00001000
00010000
00010000
,
00000100
00000000
00000100
00000000
00000010
00000000
00000001
00000000
00001001
00000000
00000000
00000000
00000001
00000010
00000100
00000000
,
00000010
00000000
00000000
00000000
00000010
00000100
00001000
00000000
00000100
00000000
00000000
00000000
00000100
00001000
00010000
00000000
,
00001000
00000000
00000000
00000000
00001000
00010000
00100000
00000000
00010000
00000000
00000000
00000000
00010000
00100000
01000000
00000000
,
00100000
00000000
00000000
00000000
00100000
01000000
10000000
00000000
01000000
00000000
10000000
00000000
00100000
00000000
10000000
00000000
,
00010000
00000000
00100000
00000000
00001000
00000000
00000010
00000000
00000001
00000000
00001000
00000000
00000010
00000000
00000100
00000001
,
00000100
00000000
00000000
00000000
00001000
00000000
00010000
00000000
00011000
00000000
00000000
00010000
00100000
00000000
00000000
00000000
,
10000000
00000000
01000000
00000000
00001000
00000000
01000000
00000000
10000000
00000000
00010000
00000000
01000000
00000000
00100000
10000000
,
00100000
00000000
00000000
00000000
00010000
00000000
00001000
00000000
00011000
00000000
00000000
00001000
00000100
00000000
00000000
00000000
,
00000001
00000000
00000010
00000000
00010000
00000000
00000010
00000000
00000001
00000000
00000100
00000000
00000010
00001000
00000010
00001000
,
00000100
00000000
00000010
00000000
00001000
00000000
00010000
00000000
00011000
00000000
00000000
00010000
01000000
00000000
00000000
00000000
,
10000000
00100000
01000000
00010000
00001000
00100000
00010000
00001000
,
00000100
00000010
00000100
00000001
00001000
00000000
00000000
00000000
,
00000001
00000010
00001000
00010000
00000010
00000100
00000010
00000000
,
00010000
00001000
00100000
01000000
10000000
00100000
10000000
00000000
,
01000000
00010000
00001000
00000010
00000100
00010000
00001000
00000000
,
00000100
00000010
00001000
00000001
00001000
00000000
00000000
00000000
,
00000001
00000010
00000100
00001000
00010000
00000000
00000010
00000000
,
00000100
00001000
00010000
00100000
01000000
00000000
00001000
00000000
,
00010000
00100000
01000000
10000000
00100000
00000000
01000000
00000000
,
00010000
00001000
00000010
00000100
00000001
00000000
00001000
00000100
,
00000010
00000000
00000001
00000000
00000100
00000000
00001000
00010000
,
00100000
00000000
10000000
00010000
10000000
01000000
00100000
00010000
,
00001000
00000100
00000010
00000001
00001000
00000001
00000010
00000100
,
00001000
00010000
00100000
01000000
10000000
01000000
00100000
00010000
,
00001000
00000100
00000010
00000001
00001000
00000001
00000010
00000100
,
00001000
00010000
00100000
01000000
10000000
00100000
01000000
00010000
,
00001000
00000010
00000100
00000001
00000010
00000001
00000100
00000010
,
00001000
00000100
00010000
00001000
00100000
00010000
01000000
00100000
,
10000000
01000000
10000000
00100000
01000000
00010000
00100000
00001000
,
00010000
00000100
00001000
00000001
00001001
00000000
00000000
00000000
,
00000000
00000000
00000000
00001001
,
00000011
00001010
00000000
00000000
,
00000000
00001010
00011000
01010000
,
00000000
00000000
01010000
11000000
,
10100000
00110000
00000000
00000000
,
00110000
00011000
00001100
00000101
,
00001001
00011000
10010000
00011000
,
01100000
00000000
00000000
10010000
00000000
00000000
10000000
01000000
00000000
01000000
00010000
00000000
,
00010000
00000000
00001000
00000000
00000000
00000000
00001000
00000000
00000100
00000000
00000000
00000000
00000001
00000000
00000000
00000001
00000000
00000000
00001000
00000000
00000000
00001000
00000000
00000000
,
00010000
00000000
00010000
00000000
10000000
00000000
10000000
00000000
10000000
01000000
00100000
00000000
00100000
00010000
00001000
00000000
,
00001000
00000100
00000010
00000000
00000010
00000001
00001000
00000000
00000001
00000000
00000010
00000000
00001000
00000000
00010000
00000000
,
00000010
00000100
00001000
00000100
00000001
00000010
00001000
00010000
,
01000000
10000000
01000000
01000000
10000000
10000000
00100000
00100000
,
00010000
00010000
00001000
00001000
00100000
00100000
00010000
00010000
,
00001000
00000000
00000100
00000000
00000010
00000000
00000001
00000000
00001001
00000000
00000000
00001000
00010000
00000000
00000000
00000000
,
10010000
00000000
00000000
00010000
00001000
00000000
00000000
00000000
00000001
00000000
00000010
00000000
00000100
00000000
00001000
00000000
,
00010000
01000000
00100000
10000000
00010000
00010000
01000000
01000000
,
00001000
00100000
00100000
00100000
00010000
00010000
00001000
00001000
,
00000100
00000000
00000010
00000000
00000001
00000000
00001000
00000000
00001001
00000000
00000000
00000000
00000001
00000100
00000010
00000000
,
00000100
00000000
00000000
00000000
00000100
00000010
00001000
00000000
00000010
00000000
00000000
00000000
00000010
00001000
00010000
00000000
,
00001000
00000000
00000000
00000000
00001000
00010000
01000000
00000000
00010000
00000000
00000000
00000000
00010000
01000000
00100000
00000000
,
01000000
00000000
00000000
00000000
01000000
00100000
10000000
00000000
00100000
00000000
00100000
00000000
00100000
10000000
01000000
00000000
,
10000000
00000000
10000000
00000000
10000000
01000000
00100000
00000000
00010000
00000000
10000000
00000000
01000000
00000000
10000000
00000000
,
00100000
01000000
00010000
00100000
00001000
00010000
00000100
00001000
,
00000010
00000000
00000000
00000000
00000000
00000000
00000000
00000000
00000100
00000000
00000000
00000000
00000000
00000000
00000000
00000000
00000001
00000000
00000000
00000000
00000000
00000000
00000000
00000000
00001000
00000000
00000000
00000000
00000000
00000000
00000000
00000000
00000001
00001000
00000000
00000000
00000000
00000000
00000000
00000000
00000000
00000000
00000000
00000000
00000000
00000000
00000000
00000000
00001000
00000000
00000000
00000000
00000000
00000000
00000000
00000000
00000001
00000000
00000000
00000000
00000000
00000000
00000000
00000000
,
00000100
00001000
00010000
00100000
00001000
00010000
01000000
00100000
,
10000000
01000000
00010000
01000000
10000000
00100000
10000000
01000000
,
00010000
00000000
00000000
00001000
00000000
00000000
00000100
00000000
00000000
00000010
00000000
00000000
00001000
00000000
00000000
00000000
01100000
00000000
00000000
00000000
01100000
00000000
00000000
00000000
,
00010000
00000000
00000110
00000000
00000110
00000000
00001000
00000000
01100000
00000000
01100000
00000000
,
00010000
00000000
00100000
00000000
01000000
00000000
10000000
00000000
10010000
00000000
00000000
00010000
00001000
00000000
00000010
00000000
,
00000100
00000000
00001000
00000000
00000100
00000000
00000001
00000000
00001001
00000000
00000000
00001000
00010000
00000000
01000000
00000000
,
01000000
00000000
00010000
00000000
00100000
00000000
01000000
00000000
10000000
00000000
10000000
00100000
01000000
00000000
00000000
00000000
,
00100000
00000000
00100000
00010000
00001000
00000000
00000000
00000000
00010000
00000000
00010000
00001000
00000100
00000000
00000000
00000000
,
00001000
00000000
00001000
00000100
00000001
00000000
00000000
00000000
00001001
00000000
00000000
00001000
00010000
00000000
00100000
00000000
,
10000000
00100000
00010000
10000000
00100000
00010000
00001000
00000100
,
00000001
00000000
00000000
00001000
00000000
00000000
00000001
00000010
00001000
00010000
01000000
10000000
,
00100000
00010000
00011000
00000000
,
00000110
00000000
00000000
00000000
00000000
00000000
00000000
00010000
00001000
00000000
00000000
00000000
00000000
00000000
00000000
00000000
,
01100000
00000000
00000000
00000000
00000000
00000000
00000000
00001000
00010000
00000000
00000000
00000000
00000000
00000000
00000000
00000000
,
00000110
00000000
00000000
00000000
00000000
00000000
00000000
00010000
00001000
00000000
00000000
00000000
00000000
00000000
00000000
00000000
,
01100000
00000000
10010000
00000000
10000000
01000000
10000000
00100000
,
01000000
00010000
00100000
00001000
00010000
00000100
00001000
00000010
,
00000100
00000001
00000010
00000001
00000100
00000010
00001000
00010000
,
01000000
00100000
10000000
00010000
10000000
01000000
00100000
00010000
,
00001000
00000100
00000010
00000001
00001001
00000000
00000000
00000000
,
00010000
00000000
00011000
00000000
,
00000000
00000000
00001000
00000000
,
00000100
00000001
00000100
00000000
,
00001000
00010000
00100000
00000000
,
00000000
00000000
00000000
01000000
00010000
00001000
00000100
00000000
00000000
00000000
00000000
00000000
;

//--------------- dance-double - ピーター ----------------
#NOTEDATA:;
#STEPSTYPE:dance-double;
#DESCRIPTION:ピーター;
#DIFFICULTY:Challenge;
#METER:19;
#RADARVALUES:0,0,0,0,0;
#NOTES:
00000000
00000000
00000000
00000000
,
00000000
00000000
00000000
00000000
00000000
00000000
00000000
00000000
00000000
00000000
00000000
00000000
00000000
00000000
00000000
00000000
00000000
00000000
10000000
00000000
01000000
00000000
00100000
00000000
00010000
00000000
00000000
00000000
00000000
00000000
00000000
00000000
00000000
00000000
00000000
00000000
00000000
00000000
00000000
00000000
00000000
00000000
00000000
00000000
00000000
00010000
00000000
00000000
,
00001000
00000000
00000000
00000000
00000000
00000000
00000000
00000000
00000000
00000000
00000000
00000000
00000000
00000000
00000000
00000000
00000000
00000000
00001000
00000000
00000100
00000000
00000010
00000000
00000001
00000000
00000000
00000000
00000000
00000000
00000000
00000000
00000000
00000000
00000000
00000000
00000000
00000000
00000000
00000000
00000000
00000000
00000000
00000000
00000000
00010000
00000000
00000000
,
00001000
00000000
00000000
00000000
00000000
00000000
00000000
00000000
00000000
00000000
00000000
00000000
00000000
00000000
00000000
00000000
00000000
00000000
00000001
00000000
00000100
00000000
00000010
00000000
00001000
00000000
00000000
00000000
00000000
00000000
00000000
00000000
00000000
00000000
00000000
00000000
00000000
00000000
00000000
00000000
00000000
00000000
00000000
00000000
00000000
00010000
00000000
00000000
,
00001000
00000000
00000000
00000000
00000000
00000000
00000000
00000000
00000000
10000000
01000000
00100000
00010000
00000000
00000000
00000000
00000000
00000000
10000000
00000000
00000000
00010000
00100000
01000000
,
10000000
00000000
00000000
00000000
00000000
00000000
00000000
00000000
00000000
00000000
00000000
00000000
00000000
00000000
00000000
00000000
00000000
00000000
00000000
00000000
00001000
00010000
00000000
00000000
,
00000000
00000000
01000000
10000000
,
00100000
00000000
00010000
00001000
,
00000100
00001000
00010000
00001000
,
00000010
00000000
00000000
00000000
,
00000001
00000010
00001000
00000000
,
00000000
00000000
00011000
00000000
,
00000000
00000000
00000000
00000000
00010000
00001000
00000010
00000001
00001000
00000000
00000000
00000001
00000100
00000000
00000010
00001000
,
00000100
00000010
00001000
00000000
00010000
00100000
01000000
00000000
00010000
10000000
01000000
00100000
01000000
10000000
00010000
01000000
,
00001000
00010000
00100000
01000000
00010000
00100000
00001000
00010000
00011000
00000000
00000000
00001000
00100000
00010000
01000000
00001000
,
00011000
00000000
00000000
00010000
00000010
00001000
00000100
00010000
00001000
00000100
00000010
00000100
00000001
00001000
00000010
00001000
,
00000001
00000000
00000000
00000010
00000000
00000000
00000100
00000000
00000000
00001000
00000000
00000000
00010000
00000000
00100000
00000000
01000000
00000000
10000000
00000000
01000000
00000000
00100000
00000000
00010000
00000000
00000000
10000000
00000000
00000000
00100000
00000000
00000000
00000000
00000000
00000000
01000000
00000000
00000000
00001000
00000000
00000000
00010000
00000000
00000000
01000000
00000000
00000000
,
00100000
00001000
00010000
00000000
00000010
00000100
00000001
00000000
00000010
00000100
00000010
00000000
00001000
00010000
00001000
00000000
,
01000000
00100000
01000000
00100000
10000000
01000000
00010000
00001000
00011000
00000000
00000000
00001000
00000100
00000010
00010000
00001000
,
00011000
00000000
00000000
00010000
00100000
01000000
00001000
00010000
00011000
00000000
00000000
00001000
00000010
00000100
00010000
00001000
,
00011000
00000000
00000000
00010000
01000000
00100000
00001000
00010000
00011000
00000000
00000000
00010000
00000100
00000010
00001000
00010000
,
00011000
00000000
00000000
00001000
01000000
00100000
00010000
00001000
00010000
00000100
00000010
00000001
00000100
00000010
00001000
00000100
,
00010000
00001000
00100000
00010000
01000000
00100000
10000000
01000000
10000000
00000000
00100000
10000000
00010000
00100000
00001000
00010000
,
00000010
00001000
00000010
00000000
00000100
00000001
00000010
00000001
00000010
00000000
00000000
00001000
00010000
00000000
01000000
00100000
,
01000000
00000000
00010000
00001000
00010000
00001000
00100000
00010000
10000000
00000000
00100000
10000000
00010000
00100000
00001000
00010000
,
00000100
00001000
00000100
00000000
00000010
00000001
00000010
00000001
00000100
00000000
00000000
00001000
00010000
00000000
00100000
01000000
,
00100000
00000000
00010000
00001000
00010000
00001000
01000000
00100000
10000000
00000000
01000000
00100000
00010000
01000000
00001000
00010000
,
00000010
00000000
00000100
00000000
00000001
00000010
00000001
00000000
00000100
00000000
00000000
00001000
00010000
00000000
01000000
00100000
,
01000000
00000000
00010000
00001000
00010000
00001000
01000000
00100000
10000000
01000000
00100000
00010000
01000000
00001000
00010000
00000100
,
00000010
00000001
00000010
00000100
00001000
00010000
00100000
01000000
10000000
00000000
00000000
00000000
00000000
00000000
00000000
00000000
,
01000000
00000000
10000000
00000000
00010000
00000000
01000000
00000000
00001000
00000000
00000000
00010000
00001000
00000000
00000000
00000000
,
00000100
00000000
00000010
00000000
00001000
00000000
00000001
00000000
00000010
00000000
00000000
00001000
00010000
00000000
00000000
00000000
,
01000000
00000000
00100000
00000000
00010000
00000000
10000000
00000000
00100000
00000000
00000000
00010000
00001000
00000000
00000000
00000000
,
00010000
01000000
10000000
00100000
10000000
00000000
00000000
00000000
,
01000000
00010000
00001000
00000010
00000001
00000000
00001000
00000000
,
00000001
00000010
00001000
00010000
01000000
00000000
10000000
00000000
,
00100000
00010000
00001000
00000100
00000001
00000000
00000100
00000000
,
00001000
00000000
00010000
00000000
00100000
00000000
10000000
00000000
00010000
00000000
00000000
00000000
10000000
01000000
00100000
00010000
,
01000000
00000000
00000000
00000000
00001000
00000000
00000000
00000000
00010000
00000000
00000000
00000000
00000100
00001000
00000100
00000010
,
00000001
00000000
00000000
00000000
00001000
00000000
00000000
00000000
00000001
00000010
00000100
00001000
00000010
00000100
00001000
00010000
,
00000100
00001000
00010000
00100000
00001000
00010000
00100000
01000000
00010000
10000000
01000000
00100000
00010000
01000000
00100000
00010000
,
00001000
00100000
00010000
00001000
00000100
00010000
00001000
00000100
00000001
00000010
00000100
00001000
00000010
00000100
00001000
00010000
,
00000100
00001000
00010000
00100000
00001000
00010000
00100000
01000000
00010000
10000000
01000000
00100000
00010000
01000000
00100000
00010000
,
00001000
00100000
00010000
00001000
00000100
00010000
00001000
00000100
00000001
00000100
00000010
00001000
00000100
00000010
00001000
00010000
,
00000010
00001000
00010000
01000000
00001000
00010000
01000000
10000000
01000000
00000000
10000000
01000000
10000000
00010000
01000000
00100000
,
01000000
00010000
10000000
00010000
00100000
00001000
00010000
00000100
00001000
00000001
00000100
00000010
00000100
00000001
00001000
00000100
,
00000010
00000001
00000010
00000100
00010000
00001000
00000100
00000010
00010000
00001000
00010000
00000100
00001000
00000001
00000100
00000010
,
00001000
00000010
00000100
00000001
00001000
00000100
00000010
00000001
00001001
00000000
00000000
00000000
00000000
00000000
00000000
00000000
,
00000000
00000000
00000000
00000000
00000000
00000000
00000000
00000000
00000000
00000001
00000010
00000000
,
00010000
00100000
00000000
00001000
10000000
00000000
00000000
00000000
00000000
00000000
00000000
00000000
,
00000000
00000000
00000000
10000000
00100000
00000000
00001000
00000010
00000000
00010000
00000001
00000000
,
00000000
00000000
00000000
00000000
00000000
00000000
00000001
00000100
00000000
00010000
01000000
00000000
,
00100000
00010000
00000000
00000010
00000001
00000000
00000000
00000000
00000000
00000000
00000000
00000000
,
00000010
00001000
00000000
00100000
10000000
00000000
01000000
00010000
00000000
00000100
00000001
00000000
,
00000100
00000010
00000000
01000000
00100000
00000000
00010000
10000000
01000000
00010000
00001000
00000100
,
00000001
00000000
00000000
00000000
00000010
00000000
00000000
00000000
00001000
00000000
00000000
00000000
00010000
00000000
00000000
00000000
00100000
00000000
00000000
00000000
10000000
00000000
00000000
00000000
01000000
00000000
00000000
10000000
00000000
00000000
01000000
00000000
00000000
10000000
00000000
00000000
00010000
00000000
00000000
01000000
00000000
00000000
00010000
00000000
00000000
01000000
00000000
00000000
,
00001000
00000000
00000000
00010000
00000000
00000000
00001000
00000000
00000000
00010000
00000000
00000000
00000010
00000000
00000000
00001000
00000000
00000000
00000010
00000000
00000000
00001000
00000000
00000000
00000001
00000000
00000000
00000000
00000001
00000000
00000000
00000000
00000001
00000000
00000000
00000000
00000010
00000000
00000000
00000000
00000010
00000000
00000000
00000000
00000010
00000000
00000000
00000000
,
00000100
00000000
00000000
00000000
00000100
00000000
00000000
00000000
00000100
00000000
00000000
00000000
00001000
00000000
00000000
00000000
00001000
00000000
00000000
00000000
00001000
00000000
00000000
00000000
00010000
00000000
00100000
00000000
01000000
00000000
10000000
00000000
01000000
00000000
00100000
00000000
00010000
00000000
00000000
10000000
00000000
00000000
00100000
00000000
00000000
01000000
00000000
00000000
,
00001000
00010000
00100000
00010000
00001000
00010000
00000100
00000010
00000001
00000100
00000010
00001000
00000100
00010000
00001000
00100000
,
01000000
10000000
00100000
10000000
01000000
00010000
00001000
00000010
00000001
00000100
00000010
00001000
00000100
00010000
00001000
00100000
,
01000000
10000000
00010000
10000000
01000000
00010000
00001000
00010000
00011000
00000000
00000000
00001000
00000100
00000001
00000100
00000010
,
00001000
00000100
00010000
00001000
01000000
00010000
10000000
00000000
01000000
00100000
01000000
10000000
00010000
01000000
00100000
10000000
,
00100000
00010000
00001000
00000100
00001000
00010000
00001000
00010000
00011000
00000000
00000000
00001000
00000010
00000001
00000100
00001000
,
00011000
00000000
00000000
00010000
00100000
10000000
01000000
00010000
00001000
00000100
00000001
00000010
00001000
00000010
00000001
00001000
,
00000001
00000000
00000000
00000100
00000000
00000000
00000010
00000000
00000000
00001000
00000000
00000000
00010000
00000000
00100000
00000000
01000000
00000000
10000000
00000000
01000000
00000000
00100000
00000000
00010000
00000000
00000000
01000000
00000000
00000000
00001000
00000000
00000000
00000000
00000000
00000000
00000100
00000000
00000000
00000001
00000000
00000000
00000010
00000000
00000000
00000000
00000000
00000000
,
00001000
00000010
00000001
00001000
00000100
00010000
00001000
00000000
00010000
00100000
10000000
00100000
00010000
00001000
01000000
00010000
,
00100000
01000000
10000000
01000000
00010000
00001000
00010000
00001000
00011000
00000000
00001000
00000100
00000001
00000100
00001000
00010000
,
00011000
00000000
00010000
00100000
10000000
00100000
00010000
00001000
00011000
00000000
00001000
00000010
00000001
00000010
00001000
00010000
,
00011000
00000000
00010000
01000000
10000000
01000000
00010000
00001000
00011000
00000000
00001000
00000010
00000001
00000100
00001000
00010000
,
00011000
00000000
00010000
00100000
10000000
01000000
00010000
00001000
00010000
00001000
00000100
00000001
00000010
00001000
00010000
00001000
,
00010000
01000000
10000000
00100000
00010000
00001000
00000010
00000001
00000100
00000001
00000010
00000001
00001000
00000010
00000100
00001000
,
00010000
00000100
00000010
00001000
00010000
00100000
01000000
00001000
00010000
01000000
00100000
00010000
01000000
00100000
10000000
01000000
,
10000000
00000000
00000000
00000000
00100000
00000000
00000000
00000000
00010000
00000000
00000000
00000000
00001000
00000000
00000000
00000000
00010000
00000000
00000000
00000000
01000000
00000000
00000000
00000000
10000000
00000000
00000000
00000000
00010000
00000000
00000000
00000000
10000000
00010000
00000000
00000000
00000000
00000000
00000000
00000000
00000000
00000000
00000000
00000000
00000000
00000000
00000000
00000000
10000000
00000000
00000000
00000000
01000000
00000000
00000000
00000000
10000000
00000000
00000000
00000000
00100000
00000000
00000000
00000000
,
01000000
00010000
00100000
00001000
00010000
01000000
10000000
00100000
01000000
00010000
00100000
00001000
00010000
00000100
00001000
00010000
,
00100000
00001000
00010000
00000100
00001000
00000010
00000100
00000001
00000010
00000001
00001000
00000010
00010000
00001000
00000100
00000001
,
00001000
00000000
00000000
00000100
00000000
00000000
00010000
00000000
00000000
00001000
00000000
00000000
00000100
00000000
00000000
00000001
00000000
00000000
00000010
00000000
00000000
00000001
00000000
00000000
00000100
00000000
00000000
00000000
00001000
00000000
00000000
00000000
01000000
00000000
00000000
00000000
00000000
00000000
00000000
00000000
10000000
00000000
00000000
00000000
00000000
00000000
00000000
00000000
,
01000000
00010000
00000100
00000000
00000010
00000000
00001000
00100000
10000000
00000000
00001000
00010000
,
00100000
00000000
10100000
00000000
10010000
00000000
11000000
00000000
01010000
00000000
00000000
00010000
00001000
00000100
00000001
00000100
,
00001000
00000000
00011000
00000000
00010100
00000000
00000110
00000000
00000011
00000000
00000000
00000001
00000100
00000000
00001000
00010000
,
00100000
00000000
00010000
00000000
00001000
00000000
00000010
00000000
00001000
00000000
00010000
01000000
10000000
00000000
00100000
00010000
,
00100000
00000000
10000000
01000000
00010000
00000000
00001000
00010000
00100000
00000000
00010000
00001000
00000100
00000000
00000001
00000010
,
00001000
00000000
00000010
00000001
00001000
00000000
00000100
00000010
00000001
00000000
00000000
00001000
00000001
00000000
00000010
00000100
,
00001000
00000000
00000100
00000000
00010000
00000000
00001000
00000000
01000000
00100000
00010000
00001000
00100000
00010000
10000000
00100000
,
01000000
00000000
00000000
00000000
00000000
00000000
00000000
00000000
00000000
00000000
00000000
00000000
00001000
00000000
00000000
00010000
00000000
00000000
01000000
00000000
00000000
10000000
00000000
00000000
00100000
00000000
00000000
00000000
00010000
00000000
00000000
00000000
00001000
00000000
00000000
00000000
00000010
00000000
00000000
00000000
00000001
00000000
00000000
00000000
00000100
00000000
00000000
00000000
,
00001000
00000000
00010000
00000000
01000000
00000000
10000000
00000000
00010000
00000000
10000000
00000000
10010000
00000000
00000000
00000000
00000000
00000000
00000000
00000000
00000000
10000000
01000000
00100000
,
00010000
00000000
00000000
00000000
00000000
00000000
00000000
00000000
00000000
00000000
00000000
00000000
00000000
00000000
00000000
00000000
00000000
00000000
00000000
00000000
00000000
00010000
00000000
00000000
00010000
00000000
00000000
00000000
00000000
00000000
00000000
00000000
00000000
00000000
00000000
00000000
00000000
00000000
00000000
00000000
00000000
00000000
00001000
00000000
00000100
00000000
00000010
00000000
,
00000001
00000000
00000000
00000000
00000000
00000000
00000000
00000000
00000000
00000000
00000000
00000000
00000000
00000000
00000000
00000000
00000000
00000000
00000000
00000000
00000000
00000001
00000000
00000000
00000001
00000000
00000000
00000000
00000000
00000000
00000000
00000000
00000000
00000000
00000000
00000000
00000000
00000000
00000000
00000000
00000000
00000000
00000001
00000000
00000010
00000000
00000100
00000000
,
00001000
00000000
00000000
00000000
00000000
00000000
00000000
00000000
00000000
00000000
00000000
00000000
00000000
00000000
00000000
00000000
00000000
00000000
00000000
00000000
00000000
00001000
00000000
00000000
00001000
00000000
00000000
00000000
00000000
00000000
00000000
00000000
00000000
00000000
00000000
00000000
00000000
00000000
00000000
00000000
00000000
00000000
00010000
00000000
00100000
00000000
01000000
00000000
,
10000000
00000000
00000000
00000000
00011000
00000000
00000000
00000000
00010000
00001000
00010000
00001000
00100000
00010000
00100000
00010000
,
10000000
00100000
01000000
00100000
10000000
00010000
00100000
00010000
10000000
01000000
00100000
00010000
01000000
00001000
00010000
00001000
,
00010000
00000010
00001000
00000100
00000010
00000001
00001000
00000001
00000100
00000001
00001000
00000010
00010000
00000100
00100000
00001000
,
01000000
00010000
10000000
01000000
00010000
00001000
00000010
00000001
00000100
00000001
00001000
00000010
00010000
00000100
00100000
00001000
,
01000000
00000000
00000000
00010000
00000000
00000000
10000000
00000000
00000000
00100000
00000000
00000000
10000000
00000000
01000000
00000000
00100000
00000000
00010000
00000000
01000000
00000000
00001000
00000000
00010000
00000000
00000000
00000000
00000000
00000000
00000000
00000000
00000000
00000000
00000000
00000000
00000000
00000000
00000000
00000000
00000000
00000000
00000001
00000000
00000000
00000010
00000000
00000000
,
00000100
00001000
00000010
00000100
00001000
00010000
00100000
01000000
10000000
00000000
00000000
00000000
00000000
00000000
00000000
00000000
,
00000000
00000000
01000000
00000000
,
00010000
00100000
00001000
00000000
,
00000100
00000001
00000010
00000000
,
00000000
00000000
00000000
00000000
,
00000100
00010000
00100000
00001000
00000000
00000000
00000000
00000000
00000000
00000000
00000000
00000000
00000000
00000000
00000000
00000000
;
