#VERSION:0.83;
#TITLE:Party Starter;
#SUBTITLE:;
#ARTIST:ARM (IOSYS) x cotowari ft. anporin;
#TITLETRANSLIT:;
#SUBTITLETRANSLIT:;
#ARTISTTRANSLIT:;
#GENRE:;
#ORIGIN:;
#CREDIT:;
#BANNER:Party Starter.png;
#BACKGROUND:Party Starter-bg.png;
#PREVIEWVID:;
#JACKET:Party Starter-jacket.png;
#CDIMAGE:;
#DISCIMAGE:;
#LYRICSPATH:;
#CDTITLE:;
#MUSIC:Party Starter.ogg;
#OFFSET:-1.028999;
#SAMPLESTART:85.183174;
#SAMPLELENGTH:12.467529;
#SELECTABLE:YES;
#BPMS:0.000=154.000,
136.000=77.000,
152.000=154.000;
#STOPS:;
#DELAYS:;
#WARPS:;
#TIMESIGNATURES:0.000=4=4;
#TICKCOUNTS:0.000=4;
#COMBOS:0.000=1;
#SPEEDS:0.000=1.000=0.000=0;
#SCROLLS:0.000=1.000;
#FAKES:;
#LABELS:0.000=Song Start;
#BGCHANGES:;
#KEYSOUNDS:;
#ATTACKS:
;

//---------------dance-single - ----------------
#NOTEDATA:;
#CHARTNAME:;
#STEPSTYPE:dance-single;
#DESCRIPTION:;
#CHARTSTYLE:;
#DIFFICULTY:Challenge;
#METER:16;
#RADARVALUES:0.640881,0.963207,0.463811,0.375847,0.731701,561.000000,503.000000,58.000000,47.000000,8.000000,0.000000,0.000000,0.000000,0.000000,0.640881,0.963207,0.463811,0.375847,0.731701,561.000000,503.000000,58.000000,47.000000,8.000000,0.000000,0.000000,0.000000,0.000000;
#CREDIT:hdm300;
#NOTES:
// measure 0
0000
0000
0000
0000
,  // measure 1
0000
0000
0000
0000
,  // measure 2
0000
0000
0000
0000
,  // measure 3
0000
0000
0000
0000
,  // measure 4
1001
0000
0000
0000
1001
0000
0000
0000
1001
0000
0000
1100
0000
0000
0010
0000
,  // measure 5
0110
0000
0001
0000
1000
0000
0010
0000
0100
0000
0001
1000
0000
0100
0010
0000
,  // measure 6
0110
0000
0000
0000
0110
0000
0000
0000
0110
0000
0000
0011
0000
0000
1000
0000
,  // measure 7
1001
0000
1000
0000
0010
0100
0000
0010
1000
0000
0001
1000
0001
0000
0001
0000
,  // measure 8
1001
0000
0000
0000
1001
0000
0000
0000
1001
0000
0000
0011
0000
0000
0100
0000
,  // measure 9
0110
0000
1000
0000
0001
0000
0100
0000
0010
0000
1000
0001
0000
0010
0100
1000
,  // measure 10
0002
0203
0320
0230
2300
3000
2000
3000
,  // measure 11
1000
0000
0100
0010
0000
0100
0000
0100
0001
0000
1000
0001
1000
0000
1000
0000
,  // measure 12
0001
0000
0001
0010
0100
0000
0010
0100
1000
0010
0100
1000
0000
0000
1000
0000
,  // measure 13
0100
0000
1000
0100
0010
0000
0100
0010
1000
0100
0000
0010
0000
0010
0001
0000
,  // measure 14
1000
0000
1000
0010
0100
0000
0010
0100
0001
0010
0100
1000
0010
0000
0100
0000
,  // measure 15
0010
0000
1000
0100
0000
0010
0000
0001
2000
0000
0000
0000
3002
0000
0000
0000
,  // measure 16
1003
0000
1000
0010
0100
0000
0010
0100
0001
0010
0100
0001
0000
0000
0001
0000
,  // measure 17
0100
0000
0010
0100
2000
0000
0100
0000
3001
1000
0010
0100
0002
0000
0000
0000
,  // measure 18
2003
3200
0320
0230
0302
0003
0002
0003
,  // measure 19
0001
0000
0100
0010
0000
0100
0000
0100
2000
0000
0000
0000
3002
0000
0000
0000
,  // measure 20
1003
0010
0100
0001
1000
0100
0010
0001
0100
0010
0010
0000
,  // measure 21
0100
0010
1000
0001
0010
0100
1000
0001
0100
1000
0100
0001
,  // measure 22
0010
0000
0000
0000
0100
0000
0000
0000
1000
0000
0000
0000
0010
0000
0000
0000
0000
0000
0000
0000
0100
0000
0000
0000
0001
0000
0000
0000
1000
0000
0000
0000
0100
0000
0000
0000
0010
0000
0000
0000
0000
0000
0010
0000
0000
0001
0000
0000
,  // measure 23
0010
0000
0001
1000
0001
0000
0100
0000
0010
0000
0010
0000
0110
0000
0110
0000
,  // measure 24
0002
0000
0000
0000
1000
0000
0000
0000
0013
0100
0000
0000
0200
0000
0000
0000
,  // measure 25
2300
0000
0000
0000
0001
0000
0000
0000
3010
0100
0000
0000
0200
0000
0000
0000
,  // measure 26
0302
0000
1000
0000
1000
0000
0000
0000
0013
0100
0000
0000
0200
0000
0000
0000
,  // measure 27
2300
0000
0000
0000
0001
0000
0000
0000
3010
0100
0000
0000
0200
0000
0000
0000
,  // measure 28
0302
0100
0000
1000
0000
1000
0000
1003
0100
0010
0000
0000
0020
0000
0000
0000
,  // measure 29
0032
0000
0000
0000
2003
0000
0000
0000
3010
0100
0000
0000
0100
0000
0010
0000
,  // measure 30
2000
0010
0000
0001
0000
0001
0000
3001
0010
0100
0000
0000
0200
0000
0000
0000
,  // measure 31
2300
0000
0000
0000
3002
0000
0000
0000
0103
0010
0000
0000
0010
0000
0100
0000
,  // measure 32
0102
0000
0000
0100
0000
0000
1000
0000
0000
1000
0000
0000
0013
0000
0100
0000
,  // measure 33
2100
0000
0000
0000
,  // measure 34
3MM1
0000
0000
0001
0000
0000
0001
0000
0000
0000
0000
1000
0010
0100
0001
0000
,  // measure 35
1000
0000
0000
0000
0000
0000
1000
0000
0000
0000
0000
0000
1000
0000
0000
0000
0001
0000
0010
0100
1000
0000
0010
0000
0000
0000
0010
0000
0000
0000
0010
0000
,  // measure 36
0100
0000
0000
0100
0000
0000
0100
0000
0010
0000
1000
0100
0000
0010
0000
0000
,  // measure 37
0100
0010
0100
0000
0010
0001
0010
0000
0001
1000
0001
1000
0001
1000
0001
1000
0001
0000
0010
0100
1000
0000
0001
0000
1000
0000
1000
0000
0001
0000
0000
0000
,  // measure 38
1MM1
0000
0000
0000
1001
0000
0000
0000
1001
0000
0000
0101
0000
0000
0010
0000
,  // measure 39
0110
0000
0000
0000
0110
0000
0000
0000
0110
0000
0000
1010
0000
0000
0001
0000
,  // measure 40
1001
0000
0000
0000
1001
0000
0000
0000
1001
0000
0000
1100
0000
0000
0010
0000
,  // measure 41
0110
0000
0000
0000
0110
0000
0000
0000
0110
0000
0000
0011
0000
0000
1000
0000
,  // measure 42
1010
0000
0000
0000
1010
0000
0000
0000
1010
0000
0000
0110
0000
0000
0001
0000
,  // measure 43
0011
0000
0000
0000
0011
0000
0000
0000
0011
0000
0000
0110
0000
0000
2000
0000
,  // measure 44
0000
0002
0000
0000
0000
0000
3003
0000
,  // measure 45
1000
0000
0100
0000
0010
0000
0001
0000
1000
0000
0010
0000
0100
0000
0001
0000
1000
0000
0100
0000
0010
0000
0001
1000
,  // measure 46
0001
0000
0001
0000
0001
0000
0001
0100
,  // measure 47
1000
0000
0100
0000
0001
0010
0100
1000
,  // measure 48
0010
0000
0010
0100
0001
0000
0001
0000
,  // measure 49
1000
0000
0100
0000
0010
0001
1000
0000
0001
0000
0000
0000
MMMM
0000
0000
0000
,  // measure 50
0001
0010
0100
1000
0001
0010
0100
1000
0010
0000
0000
0010
0000
0000
0010
0000
,  // measure 51
1010
0000
0000
0000
1010
0000
0000
0000
1010
0000
0000
0110
0000
0000
0001
0000
,  // measure 52
1000
0010
0100
0001
1000
0010
0100
0001
0010
0000
0000
0010
0000
0000
0010
0000
,  // measure 53
0011
0000
0000
0000
0011
0000
0000
0000
0011
0000
0000
0110
0000
0000
1000
0000
,  // measure 54
0010
0000
0000
0000
0100
0000
0000
0000
0001
0000
0000
0000
0010
0000
0000
0000
0100
0000
0000
0000
1000
0000
0000
0000
0010
0000
0000
0000
0000
0000
0100
0000
0000
1000
0000
0000
0100
0000
0000
0000
0000
0000
0010
0000
0000
0000
0000
0000
,  // measure 55
1000
0000
0100
0000
0010
0000
0001
0000
0100
0000
0010
0001
0010
0000
0100
0000
,  // measure 56
0001
0000
1000
0100
0010
0000
0001
0000
1000
0000
0001
0100
0010
0000
1000
0000
,  // measure 57
0001
0000
1000
0100
0010
0000
0001
0100
0000
0100
0000
0100
0020
0000
0000
0000
,  // measure 58
0000
0000
0000
0000
0000
0000
0000
0000
0130
0010
1000
0001
0000
0000
0000
0000
,  // measure 59
0001
1000
0010
0100
0001
0010
0100
1000
0001
0100
1000
0000
1000
0100
0001
0000
,  // measure 60
1000
0000
0000
0000
0010
0000
0010
0000
1000
0001
1000
0100
0020
0000
0000
0000
,  // measure 61
0100
0000
0000
0100
0000
0000
0000
0000
0000
0001
0000
0000
0031
0000
0000
0001
0000
0000
1000
0001
1000
0001
0000
0000
,  // measure 62
0100
0010
1000
0001
0010
0100
1000
0010
0100
0000
0100
0000
0002
0000
0000
0000
,  // measure 63
1003
0001
0010
0100
1000
0010
0100
0001
1000
0100
0001
0000
0001
0100
1000
0000
,  // measure 64
1001
1001
1010
0110
,  // measure 65
1000
0000
0000
0100
0000
0000
0010
0000
0000
0000
0001
0000
0000
0000
0000
0000
2002
0000
0000
0000
3003
0000
0000
0000
0000
0000
0000
0000
0000
0000
0000
0000
,  // measure 66
0001
0000
0000
0000
0000
0100
0000
0000
0000
0000
0010
0000
0000
0000
0000
0000
0100
0000
0000
0000
0000
0010
0000
0000
0000
0000
1000
0000
0000
0000
0000
0000
,  // measure 67
0000
0000
0000
0000
0000
0010
0000
0000
0000
0000
0100
0000
0000
0000
0000
0000
0001
0000
0000
0000
0000
0000
1000
0000
0000
0000
0100
0000
0000
0000
0000
0000
,  // measure 68
0120
0000
0000
0000
,  // measure 69
0000
0000
0000
0130
0000
0010
0000
0001
0000
2000
0000
0000
0000
0000
0000
0000
0000
0000
0000
0000
0000
0000
0000
0000
,  // measure 70
0000
0000
0000
0000
0000
0000
0000
0000
0000
0000
0000
0000
3000
0000
0000
0000
0000
0000
0000
2002
0000
0000
0000
0000
0000
0000
0000
0000
0000
0000
0000
0000
,  // measure 71
0000
0000
0000
0000
,  // measure 72
0000
0000
0000
0000
,  // measure 73
3003
0000
0000
0000
;

//---------------dance-single - ----------------
#NOTEDATA:;
#CHARTNAME:;
#STEPSTYPE:dance-single;
#DESCRIPTION:;
#CHARTSTYLE:;
#DIFFICULTY:Hard;
#METER:13;
#RADARVALUES:0.468380,0.612950,0.279886,0.247899,0.347858,410.000000,375.000000,35.000000,31.000000,6.000000,0.000000,0.000000,0.000000,0.000000,0.468380,0.612950,0.279886,0.247899,0.347858,410.000000,375.000000,35.000000,31.000000,6.000000,0.000000,0.000000,0.000000,0.000000;
#CREDIT:hdm300;
#NOTES:
0000
0000
0000
0000
,
0000
0000
0000
0000
,
0000
0000
0000
0000
,
0000
0000
0000
0000
,
0001
0000
0000
0000
0001
0000
0000
0000
0001
0000
0000
0100
0000
0000
0010
0000
,
0010
1000
0010
0100
0010
1000
0001
0000
,
1000
0000
0000
0000
1000
0000
0000
0000
1000
0000
0000
0100
0000
0000
0010
0000
,
0010
0000
0100
0000
0000
0010
0000
0010
0002
0000
0000
0000
1003
0000
1000
0000
,
0010
0000
0000
0000
0010
0000
0000
0000
0010
0000
0000
0100
0000
0000
0001
0000
,
0001
1000
0100
0010
0001
0100
0010
0000
,
0100
0010
1000
0100
0001
0000
0001
0000
,
0001
0100
1000
0010
0100
0000
0010
0010
,
1000
0000
0010
0100
0000
0000
0010
1000
0001
0000
0001
1000
0000
0000
1000
0000
,
0001
0000
0010
0000
0100
0000
1000
0000
0010
0100
0010
0100
0000
0000
0100
0000
,
0001
0010
0100
0000
1000
0010
0100
1000
,
0100
0000
0010
0000
0000
0100
0000
0100
0020
0000
0000
0000
2030
0000
0000
0000
,
3001
0000
0010
0100
0000
0000
0010
0001
1000
0000
1000
0001
0000
0000
0001
0000
,
1000
0000
0010
0000
0100
0000
0001
0000
0010
0100
0010
0100
0020
0000
0000
0000
,
0130
0010
0001
0100
1000
0000
1000
0000
,
1000
0100
0001
0010
0200
0000
2300
0000
,
3001
0000
0100
0010
0000
0100
0001
0000
0010
0100
0000
0000
,
1000
0000
1000
0100
0000
0100
0010
0000
0010
0001
0000
0001
,
1000
0000
0000
0000
0000
0000
0000
0000
0100
0000
0000
0000
0010
0000
0000
0000
0000
0000
0000
0000
0100
0000
0000
0000
1000
0000
0000
0000
0000
0000
0000
0000
0010
0000
0000
0000
0100
0000
0000
0000
0000
0000
0010
0000
0000
0100
0000
0000
,
0010
0000
0010
1000
0010
0000
0010
0000
1000
0000
1000
0000
0001
0000
0001
0000
,
1000
0100
0011
1000
,
0100
0010
1100
0011
,
0001
0001
0100
0000
1010
0000
0001
0000
,
0100
0010
0101
1010
,
0001
1000
0000
0001
0000
1000
0000
0001
1000
0000
0000
0000
0200
0000
0000
0000
,
0320
0032
0103
0100
,
0001
1000
0000
0001
0000
1000
0000
0001
1000
0000
0000
0000
0020
0000
0000
0000
,
0230
0000
0302
0000
1003
0000
0100
0100
,
1100
0000
0000
0000
,
0120
0000
0000
0000
,
M031
0000
0000
0001
0000
0000
0001
0000
0000
0000
0000
0000
0000
0000
0000
0000
,
1000
0000
0000
1000
0000
0000
1000
0000
0010
0100
0001
0010
0000
0100
0000
1000
,
0001
0000
0000
0001
0000
0000
0001
0000
0000
0000
0000
0000
0000
0000
0000
0000
,
1000
0100
0010
0001
1000
0100
0010
0001
0100
0010
1000
0000
0001
0000
1000
0000
,
0M01
0000
0000
0000
0001
0000
0000
0000
0001
0000
0000
0010
0000
0000
0100
0000
,
0100
0000
0000
0000
0100
0000
0000
0000
0100
0000
0000
1000
0000
0000
0001
0000
,
0001
0000
0000
0000
0001
0000
0000
0000
0001
0000
0000
0100
0000
0000
0010
0000
,
0010
0000
0000
0000
0010
0000
0000
0000
0010
0000
0000
1000
0000
0000
0001
0000
,
0001
0000
0000
0000
0010
0000
0000
0000
1000
0000
0000
0010
0000
0000
0001
0000
,
1000
0000
0000
0000
0010
0000
0000
0000
0001
0000
0000
0010
0000
0000
2000
0000
,
0000
0002
0000
0000
0000
0000
3003
0000
,
2000
3020
0230
0302
,
1003
0000
1000
0000
1000
0000
1000
0100
,
0001
0000
0100
0000
1000
0010
0100
0001
,
0010
0000
0010
0100
1000
0000
1000
0000
,
0001
0000
0100
0000
0010
0100
0010
0000
0100
0000
0000
0000
MMMM
0000
0000
0000
,
1001
0000
0000
0000
1001
0000
0000
0000
1001
0000
0000
1100
0000
0000
0010
0000
,
0110
0000
0000
0000
0110
0000
0000
0000
0110
0000
0000
0011
0000
0000
1000
0000
,
1001
0000
0000
0000
1001
0000
0000
0000
1001
0000
0000
0101
0000
0000
0010
0000
,
0110
0000
0000
0000
0110
0000
0000
0000
0110
0000
0000
1010
0000
0000
0001
0000
,
1000
0000
0100
0000
1000
0000
0100
0000
0010
0000
0100
0000
0010
0000
0000
0011
0000
0000
0000
0000
0000
0011
0000
0000
,
0000
1010
0000
1010
0000
0011
0000
0011
,
0001
0000
1000
0010
1000
0000
0000
0000
0001
0000
0010
0001
0010
0000
0000
0000
,
0001
0000
1000
0010
1000
0000
0010
1000
0000
1000
0000
1000
0002
0000
0000
0000
,
0000
0000
0010
2003
,
0000
0000
0000
0000
0000
0000
0000
0000
3010
1000
0001
0000
1000
0001
1000
0000
,
0001
0000
0010
0010
0100
1000
0002
0000
,
0103
0000
0010
0000
0000
0000
0010
0000
1000
0000
1000
0000
0001
0010
0100
0000
,
2000
0000
0010
3002
,
0000
0000
0000
0000
0000
0000
0000
0000
0013
0001
1000
0000
0001
1000
0001
0000
,
1000
1000
0110
1001
,
1000
0000
0000
0001
0000
0000
1000
0000
0000
0000
0001
0000
0000
0000
0000
0000
2002
0000
0000
0000
3003
0000
0000
0000
0000
0000
0000
0000
0000
0000
0000
0000
,
0001
0000
0000
0000
0000
1000
0000
0000
0000
0000
0001
0000
0000
0000
0000
0000
0010
0000
0000
0000
0000
0001
0000
0000
0000
0000
0010
0000
0000
0000
0000
0000
,
0000
0000
0000
0000
0000
0100
0000
0000
0000
0000
0010
0000
0000
0000
0000
0000
0100
0000
0000
0000
0000
0000
1000
0000
0000
0000
0001
0000
0000
0000
0000
0000
,
2001
0000
0000
0000
,
0000
3020
0000
0200
0000
0000
0000
0000
,
0000
0000
0000
0000
0000
0000
0000
0000
0000
0000
0000
0000
0330
0000
0000
0000
0000
0000
0000
2002
0000
0000
0000
0000
0000
0000
0000
0000
0000
0000
0000
0000
,
0000
0000
0000
0000
,
0000
0000
0000
0000
,
3003
0000
0000
0000
;
