#TITLE:Party Rock Anthem;
#SUBTITLE:;
#ARTIST:LMFAO;
#TITLETRANSLIT:;
#SUBTITLETRANSLIT:;
#ARTISTTRANSLIT:;
#GENRE:;
#CREDIT:;
#MUSIC:Party-Rock-Anthem-Edit-_1_.ogg;
#BANNER:;
#BACKGROUND:;
#CDTITLE:;
#SAMPLESTART:116.337;
#SAMPLELENGTH:11.077;
#SELECTABLE:YES;
#OFFSET:-0.029;
#BPMS:0.000=130.000
,92.000=260.000
,96.000=65.000
,97.000=130.000
,157.000=65.000
,159.000=130.000
,187.000=65.000
,189.000=130.000
,249.000=260.000
,253.000=65.000
,254.000=32.500
,255.000=65.000
,257.000=130.000
;
#STOPS:;
#BGCHANGES:;
#FGCHANGES:;

//--------------- dance-single - Evergreen (choreo) ----------------
#NOTES:
     dance-single:
     Evergreen (choreo):
     Easy:
     12:
     0,0,0,0,0:
0000
0000
0000
0000
,
0000
0000
0000
0000
,
0000
0000
0000
0000
,
0000
0000
0000
0000
,
0000
0000
0000
0000
,
0000
0000
0000
0000
,
0000
0000
0000
0000
,
0000
0000
0000
0000
,
2000
0000
3001
0100
0001
0010
0001
1000
,
0020
0000
0000
0130
0002
0000
0000
0000
,
1003
0000
0100
0010
0001
0010
0100
0000
,
1000
0000
0001
0000
1000
0000
0000
0000
0002
0000
0000
0000
0000
0000
0000
1000
,
0003
0000
0000
0010
0100
0010
1000
0100
,
0020
0000
0000
0031
2000
0000
0000
0000
,
3001
0000
0100
0010
1000
0010
0100
0000
,
0001
0100
0001
0000
2000
0000
3001
0000
,
1000
0100
0010
0001
,
0020
0000
0000
0130
2000
0000
3001
0000
,
0100
0010
1000
0010
,
0100
0001
0100
0000
0001
1000
0001
0000
,
1000
0000
0100
0000
0010
0001
0010
0000
,
0001
0000
0100
0000
0010
1000
0010
0000
,
1000
0000
0001
0000
1000
0001
1000
0000
,
0000
0000
0000
0000
,
0000
0000
002M
0030
M020
0030
002M
0030
,
M020
0030
002M
0000
0030
0000
M020
0000
,
0030
10M0
0001
0001
,
0001
100M
M010
00M1
,
010M
0001
M00M
1000
,
M00M
0001
0001
0001
,
0001
M001
M001
2000
,
3010
0100
0100
0100
,
0100
0000
1000
0000
0001
0000
0010
0001
,
0010
0000
0001
0000
1000
0000
0010
1000
,
0010
0000
0100
0000
0001
0000
1000
0100
,
1000
0000
0001
1000
0001
0000
0100
0001
,
0100
0000
0010
0000
1000
0000
0100
1000
,
0010
0000
1000
0000
0001
0000
0100
0001
,
0010
0001
0001
1000
,
1000
0020
0000
1030
,
0100
0000
0010
0001
0010
0001
0020
0000
,
0000
0000
0130
1000
0100
1000
0001
0000
,
1000
0000
0010
0100
0010
0000
1000
0000
,
0001
0000
0010
0100
0010
0100
2000
0000
,
3001
0000
0002
0000
1003
0000
0010
1000
,
0001
0000
0010
0001
1000
0000
0001
0000
,
0100
0010
1000
0002
,
2003
0000
3010
0100
0001
0000
0010
0100
,
1000
0000
0001
0100
0001
0010
0001
0100
,
0001
0010
0100
1000
0010
0000
0100
0001
,
0010
0000
0100
1000
0010
1000
0100
1000
,
0010
1000
0100
0010
0001
0000
0100
0010
,
1000
0000
0001
0100
0001
1000
0100
1000
,
0001
0100
0001
0000
1000
0000
0010
0000
,
0010
1000
0001
0010
,
0010
0000
0000
0000
0001
0000
0010
0000
0001
0000
1000
0000
0010
0000
0000
0010
,
0000
0000
0100
0100
0001
0000
1000
0001
,
1000
0000
0010
0000
1000
0000
0010
0000
1000
0000
0001
0000
0010
0000
0000
0010
,
0000
0000
0100
0100
1000
0000
0001
1000
,
0001
0000
0000
0000
1000
0000
0100
0000
1000
0000
0001
0000
0010
0000
0000
0010
,
0000
0000
0100
1000
0001
0100
0001
1000
,
0100
0010
0001
1000
0001
0000
1000
0001
,
1000
0000
0000
0000
,
0000
0000
0000
2002
,
3003
M010
001M
M010
,
M010
001M
M010
001M
,
001M
0001
0001
0100
,
0100
M002
MMM3
M001
,
M100
0001
0001
0001
,
0001
0010
10M0
0010
,
00M1
001M
M010
001M
,
M010
001M
M010
001M
,
M010
0000
0000
0000
;

//--------------- dance-single - Evergreen ----------------
#NOTES:
     dance-single:
     Evergreen:
     Medium:
     13:
     0,0,0,0,0:
0000
0000
0000
0000
,
0000
0000
0000
0000
,
0000
0000
0000
0000
,
0000
0000
0000
0000
,
1000
0000
0000
1000
0000
0000
1000
0000
0000
0000
0010
0000
0000
0010
0000
0000
,
0100
0000
0000
0100
0000
0000
0001
0000
0000
0000
1000
0000
0000
0001
0000
0000
,
0010
0000
0000
0010
0000
0000
0010
0000
0000
0000
0100
0000
0000
0100
0000
0000
,
1000
0000
0000
1000
0000
0000
0001
0000
0000
0000
1000
0000
0001
0000
1000
0000
,
1001
0000
0001
0010
0001
1000
0010
1000
,
0020
0000
0000
0000
0000
0000
0130
0000
0002
0000
1000
0000
0000
1000
0003
0000
,
1000
0000
0001
0010
0100
1000
0001
0000
,
1000
0010
0200
0000
0302
0000
0003
0000
,
1000
0000
0000
0100
0000
0000
0010
0000
0001
0000
1000
0000
0001
0000
0100
0000
,
0020
0000
0000
0000
0000
0000
1030
0000
0200
0000
0010
0000
0000
0010
0000
0000
,
0310
0000
0100
1000
0001
1000
0100
0000
,
1000
0010
0200
0000
0302
0000
0013
0000
,
0011
0000
0001
0100
1000
0100
0001
0100
,
0020
0000
0000
0000
0030
0000
1000
0000
0002
0000
0000
0000
1000
0003
0000
0000
,
1000
0000
0001
1000
0100
0001
0100
0000
,
1000
0001
0100
0000
0020
0000
1030
0000
,
0100
0000
1000
0001
1000
0100
0001
0100
,
0020
0000
0000
0000
0000
0000
0130
0000
2000
0000
0000
0000
0001
3000
0000
0000
,
0001
0000
1000
0001
0100
1000
0100
0001
,
2000
0000
0000
0000
,
3000
0000
0001
1000
0001
0000
0010
0000
1000
0000
0010
0000
0001
0000
1000
0010
,
0000
0000
0000
0010
0000
1000
0010
0000
0100
0000
0001
0000
0010
0000
0100
1000
,
0000
0000
0001
0000
1000
0000
0010
0000
0001
0000
0010
0000
1000
0000
0001
0010
,
0000
0000
0000
0010
0000
0001
0010
0000
0100
0000
1000
0000
0010
0000
0100
0001
,
0000
0000
1000
0000
0001
0000
0100
0000
1000
0000
0100
0000
0001
0000
1000
0100
,
0000
0000
0000
0100
0000
1000
0100
0000
0010
0000
0001
0000
0100
0000
0010
1000
,
0000
0000
0001
0000
1000
0000
0100
0000
0001
0000
0100
0000
1000
0000
0001
0100
,
0000
0000
0001
0000
1000
0000
0000
1000
0000
0000
0100
0000
0000
0000
0010
0000
,
0000
0010
0000
0000
0001
0000
1000
0010
1000
0000
0001
0000
0100
0000
0001
2000
,
0000
0000
3100
0000
0010
0001
0010
0001
0010
0000
0100
0000
1000
0000
0001
0100
,
0010
0000
1000
0000
0100
0000
0010
0000
0001
0000
1000
0001
1000
0000
0001
0020
,
0000
0000
0130
0000
1000
0100
1000
0001
0100
0000
0001
0100
0010
0000
1000
0001
,
1000
0000
0010
0000
1000
0000
0010
1000
0001
0000
0010
0000
0001
0000
0010
0200
,
0000
0000
1300
0000
1000
0000
0001
0000
0001
0000
1000
0010
1000
0000
0001
0200
,
0000
0000
0301
0000
1000
0000
0100
0000
0001
0000
0100
0000
1000
0000
0001
0100
,
0000
0000
0010
1000
0001
0000
0000
0000
0000
0000
0000
0000
1000
0000
0100
0000
,
0010
0000
0001
0000
1000
0000
0100
0000
0001
0000
1000
0000
0010
0001
0010
0000
,
0001
1000
0100
1000
0001
0100
0001
0100
,
1000
0000
0100
0000
0001
1000
0100
0000
,
1000
0001
0100
0001
1000
1000
0020
0130
,
0002
0103
0001
0010
0100
1000
0100
0010
,
0001
1000
0010
0100
0010
1000
0001
0100
,
0001
0000
1000
0100
1000
0000
0001
0000
1000
0000
0001
0100
0002
0000
1003
0000
,
0000
0000
0100
0010
0001
0100
1000
0100
,
0001
1000
0002
0013
2000
3010
0002
0103
,
2000
0000
3100
0010
0001
0000
1000
0000
0010
0000
0100
0000
0010
0000
1000
0000
,
0001
0010
0100
1000
0100
0000
1000
0010
,
0001
0000
0010
0000
1000
0000
0100
0000
0010
0000
0001
0000
1000
0001
1000
0000
,
0001
1000
0100
0010
0100
0001
0100
0010
,
0100
0000
1000
0000
0001
0100
0001
0000
1000
0000
0100
0000
0010
0001
0010
0000
,
0001
1000
0010
0100
0020
0031
0020
0130
,
0020
0000
1030
0000
0001
0000
0001
0000
1000
0000
1000
0000
0001
0000
0010
0001
,
0000
0000
1000
0100
1000
0000
0010
0000
0100
0000
0001
0000
0100
0000
0010
0000
,
1000
0000
0100
0000
1000
0000
1000
0000
0001
0000
0001
0000
1000
0000
0010
1000
,
0000
0000
0001
0100
0001
0000
0010
0000
0100
0000
1000
0000
0100
0000
0010
0000
,
0001
1000
0001
0000
1000
0000
0010
0000
0100
0000
0001
0000
1000
0000
0001
1000
,
0000
0000
0100
0010
0001
0000
1000
0000
0010
0000
0100
0000
0001
0000
1000
0000
,
0100
0001
0100
1000
0001
0100
1000
0100
,
0001
1000
0002
0000
0000
0000
0000
0000
,
0000
0000
0000
0000
0003
0000
1000
0001
0000
0000
0000
0000
0000
0000
0000
0000
,
0000
0000
0000
0000
1000
0000
0100
0000
0001
0000
0100
0000
1000
0000
0001
0100
,
0000
0000
0000
0100
0000
0001
0100
0000
0010
0000
1000
0000
0100
0000
0010
0001
,
0000
0000
1000
0000
0001
0000
0100
0000
1000
0000
0100
0000
0001
0000
1000
0100
,
0000
0000
0000
0100
0000
1000
0100
0000
0010
0000
0001
0000
0100
0000
0010
1000
,
0001
0000
0000
0000
0010
0000
1000
0000
0010
0000
0001
0000
1000
0000
0001
0100
,
0000
0000
0000
0100
0000
0001
0010
0000
0100
0000
1000
0000
0001
0000
1000
0100
,
1000
0000
0000
0000
0010
0000
0001
0000
0010
0000
1000
0000
0001
0000
0010
0001
,
0000
1000
0001
0100
1000
0001
0010
1000
,
0001
0000
1000
0100
0010
0001
1000
0000
,
0001
0001
0100
0000
0000
0000
0000
0000
;

//--------------- dance-single - Evergreen ----------------
#NOTES:
     dance-single:
     Evergreen:
     Hard:
     15:
     0,0,0,0,0:
0000
0000
0000
0000
,
0000
0000
0000
0000
0000
0000
0010
0001
,
2000
0001
0001
0001
,
3000
0000
0000
0000
0000
0000
0000
0002
,
0100
0003
0000
0000
,
0000
0000
0000
0000
0000
0000
0000
0020
,
0000
0030
0000
0000
,
0000
0000
0000
0000
0000
1000
0001
1000
,
1001
0000
0001
0100
0001
1000
0100
1000
,
0020
0000
0000
0000
0000
0000
1030
0000
0002
0000
0100
0000
0000
0100
0000
0000
,
1003
0000
1000
0001
0010
0100
0001
0000
,
0100
0000
1000
0000
0001
0000
0000
0000
2000
0000
0100
0000
0000
0100
0000
0000
,
3001
0000
0000
0001
0000
0000
1000
0000
0010
0000
1000
0000
0001
0000
0010
0000
,
0002
0000
0000
0000
0000
0000
1003
0000
0020
0000
0100
0000
0000
0130
0000
0000
,
0001
0000
1000
0010
0100
1000
0100
0000
,
0001
1000
0001
0000
0010
0100
1000
0000
,
1001
0000
0001
0100
0010
1000
0001
1000
,
0020
0000
0130
0001
2000
0000
3001
0010
,
0001
0000
1000
0100
0010
0001
1000
0000
,
0001
1000
0200
0000
0001
0000
1300
0001
,
0100
0000
0010
1000
0001
0010
0001
1000
,
0020
0000
0130
0001
2000
0000
3001
0010
,
0100
0000
1000
0001
0100
1000
0100
0001
,
0020
0000
0000
0000
,
0030
0000
0000
0000
0002
0000
0020
0033
0011
0000
0000
0000
1000
0000
0000
0000
1010
0000
0000
0000
0001
0000
0000
0000
0010
0000
0000
0000
001M
0000
1000
0000
,
0000
0001
0000
0010
0000
0001
1000
0000
0100
0000
M100
0000
0001
0000
0010
0100
,
0000
1000
0010
0000
1010
0000
0001
0000
0011
0000
1000
0000
0010
0000
M010
0001
,
0000
1000
0000
0010
0000
1000
0001
0000
0100
0000
010M
0000
1000
0000
0010
0100
,
0000
0000
0001
0000
0101
0000
1000
0000
1100
0000
0001
0000
0100
0000
010M
1000
,
0000
0001
0000
0100
0000
0001
1000
0000
0010
0000
M010
0000
0001
0000
0100
0010
,
0000
1000
0100
0000
1100
0000
0001
0000
0101
0000
1000
0000
0100
0000
M100
0001
,
0000
1000
0000
0010
0100
0000
0000
0100
0000
0000
0001
0000
0000
0000
0010
0000
,
0000
0100
0000
0000
1000
0000
0001
0100
0001
0000
1000
0000
0100
0000
1000
0010
,
0000
M010
0001
0000
1000
0001
0100
010M
1000
0000
0100
0010
0001
0000
0100
0010
,
1000
0000
1010
0000
0010
0000
1000
0001
1000
0000
0001
0010
0001
0000
1000
0010
,
0000
M010
0001
0000
1000
0100
M100
0001
1000
0000
0001
0100
0010
0000
1000
0100
,
0010
0000
0011
0000
0001
0000
1000
0100
1000
0000
0001
0100
0010
0000
1000
0010
,
0000
M010
0001
0000
0010
0000
0001
0000
1000
0000
0010
1000
0100
0010
0001
0020
,
0000
0000
0031
0000
0011
0000
1000
0000
1010
0000
0001
0000
0010
0000
0100
1000
,
0001
0000
0100
0000
0010
0000
1000
0000
0001
0000
0010
0001
0000
0000
0000
0000
1000
0000
0010
1000
0000
0000
0020
0000
0130
0000
0000
0000
0001
0000
0000
0000
,
1000
0000
0000
0000
0000
0000
0010
0000
0000
0100
0000
0000
0010
0000
0000
0000
0000
0000
1000
0000
0000
0000
0000
0000
0100
0000
0000
0000
0000
0000
0010
0000
0000
0000
0000
0000
0100
0000
1000
0000
0100
0000
1000
0000
0000
0000
0000
0000
,
0010
0000
0000
0100
0000
0000
0001
0000
0000
1000
0000
0000
0001
0000
0000
0100
0000
0000
0010
0000
0000
0100
0000
0001
,
1000
0000
0000
0100
0000
0000
0010
0000
0000
0100
0000
1000
0001
0000
0000
0100
0000
0000
0001
0000
0000
0010
0000
0001
,
1000
0000
0000
0010
0000
0000
1000
0000
0000
0001
0000
1000
0001
0000
0000
0100
0000
0000
0020
0000
0000
0031
0000
0000
,
0020
0130
0020
1030
0100
0010
0001
0100
,
0010
0000
0100
0000
0001
0000
1000
0000
0001
0010
0100
1000
0001
0000
1000
0010
,
1000
0000
0001
0000
1000
0000
0001
0010
0001
0000
1000
0000
0100
1000
0001
1000
,
0000
0100
0010
0001
1000
0000
0010
1000
0001
0000
0010
0001
1000
0000
0100
0000
,
0010
0001
0200
1300
0200
0310
0200
0301
,
0200
0000
0310
1000
0001
0000
1000
0100
0010
0000
0001
0100
0010
0000
1000
0000
,
0100
0010
0002
0103
2000
3100
0002
0013
,
2000
0000
3010
0000
0001
0000
0010
0001
1000
0000
0001
0000
1000
0010
0100
0000
,
0001
0000
1000
0100
0020
0000
0031
0000
0020
0000
0130
0000
0020
0000
1030
0000
,
0020
0000
0130
0000
0010
0001
1000
0001
0100
0000
0001
1000
0010
0000
1000
0001
,
0100
0000
0001
0010
0001
0100
0010
1000
0100
1000
0010
0100
0001
0010
0000
001M
,
1000
0000
0001
0000
1000
0000
0001
0010
0001
0000
1000
0000
0010
0000
M010
0001
,
0000
1000
0010
0100
0001
0010
0001
0010
0001
0000
1000
0010
2000
0000
3002
0000
,
0013
0000
001M
1000
0001
0000
1000
0010
1000
0000
0001
0000
0010
0000
001M
1000
,
0000
0001
0010
0100
1000
0010
1000
0010
1000
0000
0001
0010
0002
0000
2003
0000
,
3010
0000
M010
0001
1000
0000
1000
0000
0001
0000
0001
0000
0010
0000
001M
1000
,
0000
0001
0000
1000
0100
0010
0001
1000
0001
0000
0100
0010
1000
0001
1000
0000
,
0010
0000
M010
0000
0001
0000
0010
0100
1000
0000
0010
0000
0100
0000
0001
0000
,
1000
0020
2000
0000
0000
0000
0000
0000
,
0000
0000
0000
0000
3030
0000
1000
0010
0000
0000
0000
0000
1000
0010
0001
1000
,
0100
0001
1000
0000
1100
0000
0001
0000
0101
0000
1000
0000
0100
0000
M100
0001
,
0000
1000
0000
0100
0000
1000
0001
0000
0010
0000
001M
0000
1000
0000
0100
0010
,
0000
0001
0100
0000
0101
0000
1000
0000
1100
0000
0001
0000
0100
0000
010M
1000
,
0000
0001
0000
0100
0000
0001
1000
0000
0010
0000
M010
0000
0001
0000
0100
0010
,
0100
0000
0000
0000
0110
0000
1000
0000
0110
0000
0001
0000
0010
0000
0100
1000
,
0000
0001
0000
0010
0000
0001
1000
0000
0010
0000
0100
0000
0001
0000
1000
0100
,
0010
0000
0000
0000
0110
0000
0001
0000
0110
0000
1000
0000
0010
0000
0100
0001
,
0000
1000
0100
0000
1000
0000
0001
0000
0100
0000
1000
0000
0001
0000
0010
0000
,
1000
0000
0001
0100
0010
1000
0001
0000
,
0010
0010
0100
0000
0000
0000
0000
0000
;

//--------------- dance-single - Evergreen's secret CSP (I don't want to throw this round) ----------------
#NOTES:
     dance-single:
     Evergreen's secret CSP (I don't want to throw this round):
     Edit:
     19:
     0,0,0,0,0:
0000
0000
0000
0000
,
0000
0000
0000
0000
,
0000
0000
0000
0000
,
0000
0000
0000
0000
,
0000
0000
0000
0000
,
0000
0000
0000
0000
,
0000
0000
0000
0000
,
0000
0000
0000
0000
0000
1000
0001
1000
,
1001
0000
0001
0010
0010
1000
0100
0100
,
0020
0000
0000
0000
0000
0000
0130
0000
0002
0000
1000
0000
0000
1000
0003
0000
,
1000
0000
0001
0010
0100
1000
0001
0000
,
1000
0000
0010
0000
0200
0000
0000
0000
0302
0000
0000
0000
1003
0000
0001
0100
,
0001
0000
0000
1000
0000
0000
0001
0000
0100
0000
0100
0000
1000
0000
0001
0000
,
0020
0000
0000
0000
0000
0000
0130
0000
2000
0000
0001
0000
0000
0001
3000
0000
,
0001
0000
1000
0100
0001
0100
1000
0000
,
0001
0100
0001
0000
0020
0000
0130
0000
,
0110
0000
0000
1000
0010
0000
0100
0000
0001
0010
0000
0010
0001
0000
1000
0000
,
0020
0000
0100
0000
0100
0030
0100
0000
0001
0000
1000
0100
1000
0000
0001
0000
,
0110
0000
0000
0001
0010
0000
0100
0000
1000
0010
0000
0010
1000
0000
0001
0000
,
0020
0000
0100
0000
0100
0030
0100
0000
1000
0000
0001
0100
0001
0000
1000
0001
,
1001
0000
0000
1000
0010
0000
0100
0001
0010
0000
0100
0000
1000
0000
0001
0000
,
1000
0010
1000
0010
1000
0000
0001
0000
0010
0001
0010
0001
0010
0000
0001
0000
,
1000
0000
0100
0010
0001
1000
0010
0100
,
0001
0100
0010
1000
0100
0010
0001
0100
0010
1000
0100
0010
,
0001
0000
1000
0001
1000
M100
0001
001M
1000
M100
0001
001M
1000
0001
0100
0100
,
0000
0000
0100
0000
0010
0000
0001
0000
0010
0000
1000
0000
0010
0000
0001
0000
1000
0000
0010
0000
0001
0000
0010
0000
1000
0001
0010
0100
1000
0001
0100
0000
,
0001
1000
0100
1000
0001
010M
1000
M010
0001
010M
1000
M010
0001
1000
0100
0100
,
0000
0000
0100
0000
0010
0000
1000
0000
0010
0000
0001
0000
0010
0000
1000
0000
0001
0000
0010
0000
1000
0000
0010
0000
0001
1000
0010
0100
0001
1000
0100
0000
,
1000
0000
0001
0000
1000
M010
0001
010M
1000
M010
0001
010M
1000
0001
0010
0010
,
0000
0000
0010
0000
0100
0000
0001
0000
0100
0000
1000
0000
0100
0000
0001
0000
1000
0000
0100
0000
0001
0000
0100
0000
1000
0001
0100
0010
1000
0001
0010
0000
,
0001
1000
0010
1000
0001
001M
1000
M100
0001
001M
1000
M100
0001
1000
0010
0010
,
0000
0010
0100
1000
0100
0000
0000
0001
0000
0000
1000
0000
0000
0000
0001
0000
,
0000
0001
0000
0000
1000
0100
0010
0001
0100
0001
1000
0100
0010
1000
0010
0100
,
1000
0000
0000
0001
0000
0000
0010
0000
0001
0000
1000
0000
0001
0000
0000
0100
0000
0000
0010
0000
0000
1000
0000
0000
0100
0000
0000
1000
0000
0000
0001
0000
0000
0100
0000
0000
0010
0000
0000
0001
0000
0000
0010
0000
0000
0100
0000
0000
,
0001
0000
0000
1000
0000
0000
0010
0000
1000
0000
0001
0000
1000
0000
0000
0100
0000
0000
0010
0000
0000
0001
0000
0000
1000
0000
0000
0001
0000
0000
0010
0000
0000
0100
0000
0000
1000
0000
0000
0010
0000
0000
0100
0000
0000
0010
0000
0000
,
0001
0000
0000
1000
0000
0000
0100
0000
0000
0001
0000
0000
1000
0000
0100
0000
0010
0000
0001
0000
0000
1000
0000
0000
0001
0000
0000
0001
0000
0000
1000
0000
0000
0010
0000
0000
0010
0000
0000
0100
0000
0000
0001
0000
0000
0001
0000
0000
,
0010
0000
0000
0100
0000
0000
0100
0000
1000
0000
0001
0000
0100
0000
0000
0010
0000
0000
1000
0000
0000
0001
0000
0000
0010
0000
0000
0010
0000
0000
1000
0000
0000
0100
0000
0000
0010
0000
0001
0000
0010
0000
0001
0000
0000
1000
0000
0000
,
0010
0000
1000
0000
0010
0000
0100
0000
0001
0000
0010
0000
0001
0000
0000
1000
0000
0000
0010
0000
0000
0010
0000
0000
1000
0000
0000
0001
0000
0000
0010
0000
0000
0010
0000
0000
0001
0000
0000
0100
0000
0000
0010
0000
0000
1000
0000
0000
,
0100
0000
0001
0000
0100
0000
1000
0000
0010
0100
0010
0000
1000
0001
1000
0000
0010
0100
0010
0000
1000
0001
1000
0000
0001
0010
0100
1000
0010
0100
0001
1000
,
0100
0000
0010
0000
0001
0000
1000
0000
0001
0000
0000
0000
0000
0000
0000
0000
0000
0000
0000
0000
0000
0000
1000
0001
1000
0000
0100
0000
0010
0000
0001
0000
,
1000
0000
0000
0000
0000
0000
0010
0000
0000
0000
0000
0000
0100
0000
0000
0000
0000
0000
0001
0000
0000
0000
0000
0000
0010
0000
0000
0000
0001
0000
0000
0000
0010
0000
0000
0000
0001
0000
0000
0000
1000
0000
0000
0000
0010
0000
0000
0000
1000
0000
0000
0000
0010
0000
0000
0000
0100
0000
0000
0000
0001
0000
0000
0000
0100
0000
0000
0000
0001
0000
0000
0000
1000
0000
0000
0100
0000
0000
0010
0000
0000
0001
0000
0000
1000
0000
0000
0010
0000
0000
0100
0000
0000
0001
0000
0000
,
1000
0100
0001
0100
1000
0010
0001
0010
1000
0001
0100
0100
1000
0100
0100
0001
,
0010
0100
1000
0010
0100
0001
1000
0100
0010
1000
0010
0001
1000
0001
0100
0010
,
0001
0000
0010
0000
0100
0000
0001
0000
1000
0000
0100
0000
0010
0000
0001
0000
1000
0001
1000
0000
0001
0010
0001
0000
1000
0010
1000
0000
0001
0000
0100
0000
,
0010
0100
1000
0100
0010
0100
0001
1000
0100
0010
0001
1000
0100
0010
0100
0001
,
0100
0010
0100
1000
0100
0010
0001
1000
0001
0010
0001
1000
0010
0000
0000
0000
,
1000
0001
1000
0000
0001
0000
1000
0001
1000
0000
0100
0000
0020
0000
0031
0000
,
0000
0000
0000
0000
0001
0100
0010
0100
1000
0100
0010
1000
0100
0010
0100
1000
,
0010
0000
0000
0100
0000
0000
0001
0000
0000
1000
0000
0000
0001
0000
0010
0000
0001
0000
0010
0000
0001
0000
0010
0000
0001
0000
0000
1000
0000
0000
0010
0000
0000
1000
0000
0000
0010
0000
1000
0000
0010
0000
1000
0000
0010
0000
1000
0000
,
0010
0100
0001
1000
0100
0001
0100
1000
0001
0100
0010
0100
0001
0010
0100
0010
,
0001
0000
0000
0100
0000
0000
1000
0000
0000
0100
0000
0000
0001
0000
0000
0010
0000
0000
0100
0000
0000
1000
0000
0000
0001
0000
0000
1000
0000
0000
0100
0000
0000
0010
0000
0000
0001
0000
1000
0000
0010
0000
0100
0000
0001
0000
1000
0000
,
0100
0000
0010
0000
0001
0000
1000
0000
0010
0000
0100
0000
0001
0000
0000
1000
0000
0000
0100
0000
0000
0010
0000
0000
0001
0000
0000
1000
0000
0000
0010
0000
0000
0001
0000
0000
0010
0000
0000
1000
0000
0000
0010
0000
0000
0001
0000
0000
,
1000
0000
0000
0100
0000
0000
0001
0000
0000
0100
0000
0000
1000
0000
0100
0000
1000
0000
0100
0000
1000
0000
0100
0000
1000
0000
0000
0001
0000
0000
0100
0000
0000
0001
0000
0000
0100
0000
0001
0000
0100
0000
0001
0000
0100
0000
0001
0000
,
0100
0001
1000
0100
0001
0100
1000
0001
0100
1000
0100
0001
1000
0100
0010
0100
,
1000
0001
0100
0010
0100
0001
1000
0100
1000
0001
0100
0001
1000
0100
0010
0001
,
0010
0100
0010
0001
0010
0100
1000
0010
0001
1000
0100
0001
1000
0100
0010
0100
,
0001
0000
0000
0100
0000
0000
0010
0000
0000
0010
0000
0000
0100
0000
0001
0000
1000
0000
0100
0000
0010
0000
0001
0000
1000
0000
0100
0000
1000
0000
0001
0000
0100
0000
0010
0000
2000
0000
0000
0000
0000
0000
0200
0000
0000
0000
0000
0000
,
0011
0000
3311
0000
1000
0100
0001
1000
0010
0001
1000
0010
0100
1000
0100
0010
,
1000
0000
0000
0100
0000
0000
0010
0000
0000
0010
0000
0000
1000
0000
0010
0000
0100
0000
0001
0000
1000
0000
0100
0000
1000
0000
0001
0000
0100
0000
0010
0000
1000
0000
0001
0000
1000
0000
0000
0010
0000
0000
0010
0000
0000
0001
0000
0000
,
1000
0100
1000
0000
0010
0100
0001
0010
1000
0001
0100
1000
0001
0100
0010
0100
,
1000
0000
0000
0100
0000
0000
0010
0000
0000
0010
0000
0000
0100
0000
1000
0000
0001
0000
0100
0000
0010
0000
1000
0000
0001
0000
0100
0000
0001
0000
1000
0000
0100
0000
0010
0000
0002
0000
0000
0000
0000
0000
0200
0000
0000
0000
0000
0000
,
1010
0000
1313
0000
0001
0100
0010
1000
0100
0010
0001
1000
0100
1000
0001
0100
,
0010
0000
0000
1000
0000
0000
0100
0000
0000
0010
0000
0000
0001
0000
0000
0000
0100
0000
0000
0000
0010
0000
0000
0000
1000
0000
0000
0000
0100
0000
0000
0000
0010
0000
0000
0000
0001
0000
0000
0000
0100
0000
0000
0000
0010
0000
0000
0000
,
1000
0000
0000
0000
0000
0000
0000
0000
0100
0000
0000
0000
0000
0000
0000
0000
0010
0000
0000
0000
0000
0000
0000
0000
0001
0000
0000
0000
0000
0000
0000
0000
0000
0000
0000
0000
1000
0000
0000
0001
0000
0000
1000
0000
0000
0000
0000
0000
0000
0000
0000
0000
0000
0000
0000
0000
0000
0000
0000
0000
0000
0000
0000
0000
0000
0000
0000
0000
0000
0000
0000
0000
0000
0000
0000
0000
0000
0000
0000
0000
0000
0000
0000
0000
0000
0000
0000
0000
0000
0000
0000
0000
0000
0000
0000
0000
,
0000
0000
0000
0000
0001
001M
1000
M100
0001
001M
1000
M100
0001
1000
0010
0010
,
0000
0000
0010
0000
0100
0000
1000
0000
0100
0000
0001
0000
0100
0000
1000
0000
0001
0000
0100
0000
1000
0000
0100
0000
0001
1000
0100
0010
0001
1000
0010
0000
,
1000
0001
0010
0001
1000
M010
0001
010M
1000
M010
0001
010M
1000
0001
0010
0010
,
0000
0000
0010
0000
0100
0000
0001
0000
0100
0000
1000
0000
0100
0000
0001
0000
1000
0000
0100
0000
0001
0000
0100
0000
1000
0001
0100
0010
1000
0001
0010
0000
,
0001
0000
0000
1000
0000
0000
0010
0000
0000
0000
0000
0000
0010
0000
0000
10M0
0000
0000
0001
0000
0000
010M
0000
0000
0010
0000
0000
10M0
0000
0000
0001
0000
0000
010M
0000
0000
0010
0000
0001
0000
1000
0000
0001
0000
0000
0010
0000
0000
,
0010
0000
1000
0000
0001
0000
0100
0000
0010
0000
0100
0000
1000
0000
0100
0000
0010
0000
0100
0000
0001
0000
1000
0000
0100
0010
0100
1000
0001
0100
0010
0000
,
0100
0000
0000
0001
0000
0000
1000
0000
0000
0001
0000
0000
0010
0000
0000
00M1
0000
0000
1000
0000
0000
M100
0000
0000
0010
0000
0000
00M1
0000
0000
1000
0000
0000
M100
0000
0000
0010
0000
1000
0000
0001
0000
1000
0000
0000
0010
0000
0000
,
0010
0001
1000
0100
0001
1000
0010
0001
0010
1000
0001
0100
1000
0010
0100
0001
,
1000
0000
0001
1000
0001
0000
0001
0000
0010
0000
0100
0000
1000
0000
0000
0000
,
0001
1000
0001
0000
0000
0000
0000
0000
;
