#TITLE:Party, Join Us;
#SUBTITLE:;
#ARTIST:Brina Palencia;
#TITLETRANSLIT:;
#SUBTITLETRANSLIT:;
#ARTISTTRANSLIT:;
#GENRE:;
#CREDIT:;
#MUSIC:Party Join Us.ogg;
#BANNER:Party Join Us.png;
#BACKGROUND:Party Join Us-bg.png;
#CDTITLE:;
#SAMPLESTART:31.048;
#SAMPLELENGTH:13.115;
#SELECTABLE:YES;
#OFFSET:-0.864;
#BPMS:0.000=150.975
,44.000=142.090
,45.500=150.000
,48.000=146.630
,52.000=140.000
,53.500=150.770
,57.000=152.000
,59.000=155.000
,60.000=147.000
,61.500=151.890
,68.000=171.920
,70.500=150.975
;
#STOPS:;
#DISPLAYBPM:150.975;
#ORIGIN:;
#TAGS:;
#PREVIEWVID:;
#JACKET:Party Join Us-jacket.png;
#CDIMAGE:;
#DISCIMAGE:;
#BGCHANGES:1.125=Party Join Us.mp4=1.000=1=0=1===CrossFade==,
99999.000=-nosongbg-=1.000=0=0=0=StretchNoLoop====
;
#FGCHANGES:;

//--------------- dance-single - OrangeRight ----------------
#NOTES:
     dance-single:
     OrangeRight:
     Beginner:
     2:
     0,0,0,0,0,0,0,0,0,0,0,0,0,0,0,0,0,0,0,0,0,0,0,0,0,0,0,0:
0000
0000
0000
0000
,
0000
0000
0000
0000
,
0000
0000
0000
0000
,
1000
0000
0000
0000
,
1000
0000
0000
0000
,
0001
0000
0000
0000
,
0010
0000
0000
0000
,
0001
0000
0000
0000
,
0001
0000
0000
0000
,
1000
0000
0000
0000
,
0100
0000
0000
0000
,
1000
0000
0000
0000
,
0000
0000
0000
0000
,
0001
0000
0000
0000
,
0000
0000
0000
0000
,
1000
0000
0000
0000
,
0000
0000
0000
0000
,
0001
0000
0000
0000
,
1001
0000
0000
0000
,
1000
0000
0000
0000
,
0001
0000
0000
0000
,
0100
0000
0000
0000
,
0001
0000
1000
0000
,
0001
0000
0000
0000
,
1000
0000
0000
0000
,
0010
0000
0000
0000
,
1000
0000
0001
0000
,
2002
0000
0000
0000
,
3003
0000
0000
0000
,
0000
0000
0000
0000
,
0000
0000
0000
0000
,
1000
0000
0000
0000
,
0001
0000
0000
0000
,
0100
0000
0000
0000
,
0010
0000
0000
0000
,
1000
0000
0000
0000
,
0100
0000
0000
0000
,
0010
0000
0000
0000
,
0001
0000
0000
0000
,
1000
0000
0001
0000
,
1000
0000
0000
0000
,
0001
0000
0000
0000
,
0100
0000
0000
0000
,
0001
0000
1000
0000
,
0001
0000
0000
0000
,
0010
0000
0000
0000
,
0100
0000
0000
0000
,
1000
0000
0001
0000
,
1001
0000
0000
0000
,
1001
0000
0000
0000
;

//--------------- dance-single - OrangeRight ----------------
#NOTES:
     dance-single:
     OrangeRight:
     Easy:
     5:
     0,0,0,0,0,0,0,0,0,0,0,0,0,0,0,0,0,0,0,0,0,0,0,0,0,0,0,0:
0000
0000
0000
0000
,
0000
0000
0000
0000
,
0000
0000
0000
0000
,
1000
0000
0100
1000
,
0001
0100
0001
0100
,
0001
0000
0100
0001
,
1000
0001
2002
3003
,
0001
0000
0010
0001
,
1000
0000
0010
1000
,
0100
0000
1000
0001
,
1001
1001
2002
3003
,
0002
0000
0000
0003
,
0200
0000
0000
0300
,
0020
0000
0000
0030
,
2000
3000
0002
0003
,
2000
0000
0000
3000
,
0200
0000
0000
0300
,
0020
0000
0000
0030
,
0001
1000
0001
1000
,
0001
0001
1000
0100
,
1000
1000
0001
0100
,
0001
0001
0010
0100
,
1000
0010
0001
0010
,
1000
1000
0001
0010
,
0001
0001
1000
0010
,
1000
1000
0100
0010
,
0001
0100
1000
0100
,
2002
0000
0000
0000
,
3003
0000
0000
0000
,
1000
0000
0001
0000
,
1000
0000
2002
3003
,
1000
0100
0010
0100
,
1000
0001
2002
3003
,
0001
0100
0010
1000
,
0001
1000
2002
3003
,
1000
0010
0100
0001
,
0010
0100
2200
3300
,
1000
0001
0100
0010
,
0220
0000
0000
0330
,
0010
0100
0010
0100
,
0001
0001
0010
0100
,
1000
1000
0010
0100
,
0001
0001
1000
0100
,
0001
0100
1000
0001
,
1001
2002
0000
3003
,
1000
0001
0010
0100
,
0110
0220
0000
0330
,
0100
1000
0010
0100
,
0001
1000
0001
1000
,
2002
0000
3003
0000
;

//--------------- dance-single - OrangeRight ----------------
#NOTES:
     dance-single:
     OrangeRight:
     Medium:
     9:
     0,0,0,0,0,0,0,0,0,0,0,0,0,0,0,0,0,0,0,0,0,0,0,0,0,0,0,0:
0000
0000
0000
0000
,
0000
0000
0000
0000
,
0000
0000
0000
0000
,
1000
0100
0000
0100
1000
0000
0001
0000
,
0100
0001
0100
0000
0010
1000
0010
0000
,
1000
0001
0000
0001
0010
0000
0100
0000
,
1000
0000
0001
0100
0000
0010
1000
0000
,
0001
0100
0001
0000
1000
0000
0010
0000
,
1000
0100
1000
0000
0001
0000
0010
0000
,
0001
0100
0001
0000
1000
0100
1000
0000
,
1001
0110
2002
3003
,
2000
0000
0010
0000
,
3002
0000
0010
0010
,
0203
0000
0010
0000
,
0302
0023
0230
2300
,
3002
0000
0100
0000
,
2003
0000
0100
0100
,
3020
0000
0000
0000
,
1030
0001
1000
0001
,
1000
0000
1100
0000
0100
1000
0001
0000
,
0100
0000
0110
0000
0010
1000
0001
0000
,
0010
0000
0011
0000
0001
0100
0010
0000
,
1000
0001
0100
0001
1000
0000
0001
1000
,
0001
0000
0101
0000
0100
0001
1000
0000
,
0100
0000
0110
0000
0010
0001
1000
0000
,
0010
0000
1010
0000
1000
0010
0100
0000
,
0101
0101
1100
1100
,
2002
0000
0000
0000
,
0000
0000
0000
3003
,
1000
0000
0001
0100
,
0010
1000
2002
3003
,
1000
0000
1000
0100
0000
0000
0010
0000
0000
0001
0000
0000
,
0100
0000
0100
0001
0000
0000
2000
0000
0000
3000
0000
0000
,
0001
0000
0001
0010
0000
0000
0100
0000
0000
1000
0000
0000
,
0001
1000
2002
3003
,
1000
0000
1000
0100
0000
0000
0010
0000
0000
0001
0000
0000
,
1000
0000
1000
0001
0000
0000
0200
0000
0000
0300
0000
0000
,
0001
0000
0001
1000
0000
1000
0001
0000
0000
0101
0000
0000
,
2020
0000
0000
3030
,
0020
2030
3200
0320
,
0031
0000
0011
0000
0001
0100
0010
0000
,
1000
0000
1010
0000
1000
0100
0010
0000
,
0001
0000
1001
0000
1000
0100
0010
0000
,
0001
0100
0010
1000
0001
0000
1000
0001
,
1000
0100
1000
0100
0010
0001
0010
0000
,
0001
1000
0000
1000
0001
0000
1000
0000
,
0001
0100
0001
0100
0010
1000
0010
0000
,
1000
0100
0010
0000
0001
0100
0010
0000
,
1010
1010
0011
0011
,
2002
0000
3003
0000
;

//--------------- dance-single - OrangeRight ----------------
#NOTES:
     dance-single:
     OrangeRight:
     Hard:
     12:
     0.536266,0.567606,0.555234,0.337968,0.132773,311,265,46,28,0,0,0,0,0,0.536266,0.567606,0.555234,0.337968,0.132773,311,265,46,28,0,0,0,0,0:
0000
0000
0000
0000
,
0000
0000
0000
0000
,
0000
0000
0000
0000
,
1000
0001
0000
0001
0100
0010
1000
0100
,
0000
0100
0010
0001
1000
0010
0100
0001
,
0000
1001
0000
1000
0100
0010
0001
0100
,
0002
0000
0013
0200
0000
1300
0020
0000
,
1030
0010
1000
0001
0010
0010
0001
0100
,
0000
0100
0001
1000
0100
0100
1000
0010
,
0000
0010
1000
0001
0010
0100
1000
0010
,
1010
0101
0011
1100
,
1002
0000
0000
0013
0001
1000
0001
0100
,
0020
0000
1030
0200
0000
0320
0000
0031
,
0200
0000
0000
0301
0010
0001
1000
0020
,
0000
1030
0100
1000
0002
0200
0000
0303
,
0210
0000
0000
0310
1000
0100
0010
0001
,
0200
0000
0301
2000
0000
3200
0000
0310
,
0200
0000
0000
0000
0300
1000
0010
0100
,
0101
1010
1100
0011
,
0001
0010
0001
0010
0100
1000
0001
0100
,
0010
1000
0010
1000
0001
0010
0100
1000
,
0001
1000
0001
1000
0001
0100
0010
1000
,
1100
0000
0101
0000
1100
0000
1000
0001
,
1000
0100
1000
0100
0010
0001
1000
0010
,
0100
0001
0100
0001
1000
0001
0100
0010
,
1000
0001
1000
0001
1000
0100
0010
0001
,
0101
0011
1010
1100
,
2002
0000
0000
0000
,
0000
0000
0000
3003
,
0000
0000
0000
1000
0000
0000
0000
0000
0001
0000
0100
0000
,
0010
0000
1000
0000
0001
0000
2002
0000
0000
3003
0000
0000
,
1000
0000
1000
0010
0000
0010
0100
0000
0100
1000
0000
1000
,
0100
0000
0100
0001
0000
0001
2000
0000
0000
3001
0000
0000
,
0001
0000
0001
0010
0000
0010
0100
0000
0100
1000
0000
1000
,
0001
0110
2002
3003
,
1000
0000
1000
0010
0000
0010
0001
0000
0001
0010
0000
0010
,
0100
0000
0100
0001
0000
0001
0020
0000
0000
0130
0000
0000
,
0100
0000
1000
0001
0000
0100
0010
0000
0000
0110
0000
0000
,
2002
0000
0000
3003
,
0011
0101
1100
1010
,
1000
0100
1000
0100
0010
0001
0100
0010
,
1000
0010
1000
0010
0100
0001
0010
0100
,
1000
0001
1000
0001
1000
0010
0100
0001
,
0101
0000
1100
0000
0101
0000
0001
1000
,
1001
0000
1010
0000
0010
1000
0100
0110
,
0000
0011
0000
0101
0100
0010
1000
0001
,
1001
0000
0011
0000
0010
0001
0100
0110
,
0000
1010
0000
1100
0100
0010
0001
0100
,
0101
1010
1100
0011
,
2002
0000
3003
0000
;

//--------------- dance-single - OrangeRight ----------------
#NOTES:
     dance-single:
     OrangeRight:
     Challenge:
     14:
     0,0,0,0,0:
0000
0000
0000
0000
,
0000
0000
0000
0000
,
0000
0000
0000
0000
,
1000
0010
1000
0001
1000
0100
0010
0001
,
1000
0010
0100
0001
0100
1000
0100
0001
,
1000
0020
0000
0130
0001
0010
0100
1000
,
0200
0000
0000
0000
0301
0000
0200
0000
0000
0000
1300
0001
0100
0000
0010
0000
,
1000
0100
1000
0001
1000
0010
0100
0100
,
0001
0010
0001
1000
0001
0100
0010
0010
,
1000
0100
0001
0100
0010
0100
1000
0010
,
1010
0000
0000
0000
0101
0000
0000
0000
0001
1000
0001
1000
0001
0000
0000
0000
,
2001
0000
0000
3100
1000
0010
0100
0001
,
0020
0000
1030
0020
0000
0032
0000
0103
,
0020
0000
0000
1030
0001
0010
1000
0010
,
0001
0100
0010
2000
0002
0000
0000
3003
,
1200
0000
0000
0310
0001
1000
0010
0001
,
0020
0000
1030
0200
0000
0302
0000
0103
,
2000
0000
0000
0000
0000
3001
0100
0010
,
1010
1000
1001
0001
0011
0010
0110
0100
,
1000
0000
0100
1000
0001
0000
0100
0000
0001
0000
0010
0000
0100
0000
0010
0000
,
0001
0000
0100
0001
1000
0000
0100
0000
1000
0000
0010
0000
0100
0000
0010
0000
,
1000
0000
0100
0010
0001
0000
1000
0000
0001
0000
0100
0000
0010
0000
1000
0000
,
0100
0001
0100
1000
1001
0000
0001
0010
,
0001
0000
1000
0001
0100
0000
0010
0000
0100
0000
0001
0000
1000
0000
0100
0000
,
1000
0000
0001
1000
0100
0000
0010
0000
0100
0000
1000
0000
0001
0000
0100
0000
,
0001
0000
0010
0100
1000
0000
0001
0000
1000
0000
0010
0000
0100
0000
0001
0000
,
0011
0010
0110
0100
1100
1000
1010
0000
,
0202
0000
0000
0000
,
0000
0000
0000
0303
,
0000
0000
0000
1001
0000
0000
0000
0000
1000
0000
0100
0000
,
0001
0000
0100
0000
1000
0000
0020
0000
0000
0030
0000
0000
,
1000
0000
1000
0100
0000
0100
0010
0000
0010
0001
0000
0001
,
1000
0000
0010
0100
0000
0001
1000
0000
0000
1001
0000
0000
,
0001
0000
0001
0010
0000
0010
1000
0000
1000
0010
0000
0010
,
0001
1010
0022
0033
,
0001
0000
0001
0100
0000
0100
0010
0000
0010
1000
0000
1000
,
0001
0000
0010
0100
0000
1000
0010
0000
0000
0110
0000
0000
,
0100
0000
0001
0010
0000
0100
1000
0000
0000
0110
0000
0000
,
2002
0000
0000
3003
,
0011
0000
0000
0000
1010
0000
0000
0000
1000
0001
1000
0001
1000
0000
0000
0000
,
1000
0000
0010
0100
0001
0000
0010
0000
0001
0000
0100
0000
0010
0000
1000
0000
,
0001
0000
0010
0100
1000
0000
0010
0000
1000
0000
0100
0000
0010
0000
0001
0000
,
1000
0000
0001
0100
0010
0000
1000
0000
0001
0000
0010
0000
0100
0000
1000
0000
,
0010
0001
0010
1000
1001
0000
1000
0100
,
1100
0000
0101
0000
0001
0010
0100
1000
,
0010
0001
0010
0100
0001
0010
0100
1000
,
1010
0000
0011
0000
0001
0100
0010
1000
,
0100
0000
0001
0000
0100
0000
0010
0000
0001
1000
0001
1000
0001
0000
0000
0000
,
0101
0000
1000
0000
1100
0000
0001
0000
1000
0010
1000
0010
0100
0001
0100
0001
,
2000
0000
3000
0000
;
