#TITLE:Paris City Jazz;
#SUBTITLE:;
#ARTIST:Bellaire;
#TITLETRANSLIT:;
#SUBTITLETRANSLIT:;
#ARTISTTRANSLIT:;
#GENRE:;
#CREDIT:;
#MUSIC:Paris-City-Jazz-Edit.ogg;
#BANNER:paris-banner.png;
#BACKGROUND:paris-bg.png;
#CDTITLE:;
#SAMPLESTART:0.000;
#SAMPLELENGTH:0.000;
#SELECTABLE:YES;
#OFFSET:-0.024;
#BPMS:0.000=125.000;
#STOPS:;
#BGCHANGES:;
#FGCHANGES:;

//--------------- dance-single - Evergreen ----------------
#NOTES:
     dance-single:
     Evergreen:
     Hard:
     12:
     0,0,0,0,0:
0000
0000
0000
0000
,
0000
0000
0000
0000
,
0000
0000
0000
0000
,
0000
0000
0000
0000
,
1000
0000
0000
0010
0000
0000
0100
0000
0000
0000
0001
0000
1000
0000
0001
0000
,
1000
0000
0000
0100
0000
0000
0010
0000
0000
0000
0001
0000
1000
0000
0001
0010
,
0001
0000
0000
0010
0000
0000
0100
0000
0000
0000
1000
0000
0001
0000
1000
0000
,
0001
0000
0000
0100
0000
0000
0010
0000
0000
0000
1000
0000
0001
0000
1000
0010
,
1000
0001
0010
0001
0010
0001
0010
0100
,
1000
0000
0010
1000
0010
1000
0010
0100
,
0001
0000
0100
0001
0100
0001
1000
0010
,
1000
0000
0100
1000
0100
1000
0010
0100
,
0001
0000
0010
0001
1000
0010
1000
0001
,
0100
0000
0001
1000
0100
1000
0001
0010
,
0001
0000
1000
0010
0100
0001
1000
0100
,
0010
0000
0000
0001
0000
0000
1000
0000
0000
0000
0001
0000
0100
0000
0010
0000
,
0100
0000
0000
0001
0010
0000
0001
0000
1000
0010
0000
0000
0010
0000
1000
0000
,
0100
0000
0000
1000
0010
0000
0100
0000
0001
0010
0000
0000
0010
0000
0001
0000
,
0010
0000
0000
0001
0100
0000
0001
0000
1000
0100
0000
0000
0100
0000
1000
0000
,
0010
0000
0000
1000
0100
0000
0010
0000
0001
0100
0000
0000
0100
0000
0001
0000
,
0010
0000
0000
0100
1000
0000
0001
0000
0100
0000
0100
0000
0010
0000
1000
0000
,
0001
0000
0000
1000
0100
0000
0010
0000
0001
0000
0001
0000
1000
0000
0100
0000
,
0010
0000
0000
0100
1000
0000
0001
0000
0010
0000
0010
0000
0100
0000
1000
0000
,
0001
0000
0000
1000
0010
0000
0100
0000
0001
0000
0001
0000
1000
0000
0010
0000
,
0100
0000
0000
0001
0000
0000
1000
0000
0000
0000
0100
0000
0010
0000
0001
0000
,
1000
0000
0000
0001
0000
0000
1000
0000
0000
0000
0001
0000
0010
0000
0100
0000
,
1000
0000
0000
0010
0000
0000
1000
0000
0000
0000
0001
0000
0010
0000
0001
0000
,
1000
0000
0000
0100
0000
0000
1000
0000
0000
0000
0001
0000
0100
0000
0001
0000
,
1000
0010
0100
0000
0001
0010
0100
0000
,
1000
0100
0010
0001
0010
0000
0001
1000
,
0010
0100
0001
0000
0010
0100
1000
0000
,
0001
0100
0001
1000
0100
0000
0010
0001
,
0100
0010
0100
0001
1000
0001
0000
1000
,
0100
0010
0001
0010
0001
0000
0010
0001
,
1000
1000
0001
0100
0001
0000
0000
1000
,
0010
0010
1000
0100
0010
0001
1000
0010
,
0100
0001
0000
0100
0001
1000
0100
0010
,
0001
0010
0001
1000
0100
0010
0100
1000
,
0001
0010
0000
0001
0010
0001
1000
0010
,
0100
0000
0001
0000
1000
0000
0100
0000
0010
0000
0001
0000
1000
0001
1000
0000
,
1001
0000
0000
1001
0000
0000
0001
0000
1000
0000
0010
0000
0100
0000
0001
0000
,
0101
0000
0000
0101
0000
0000
0100
0000
0001
0010
0001
0000
1000
0000
0100
0000
,
1100
0000
0000
1100
0000
0000
1000
0000
0010
0000
0100
0000
0001
0000
0010
0000
,
0011
0000
0000
0011
0000
0000
0001
0000
1000
0100
1000
0000
0010
0000
1000
0000
,
1010
0000
0000
1010
0000
0000
0010
0000
0000
0000
1000
0000
0100
0000
0010
0000
,
0110
0000
0000
0110
0000
0000
0100
0000
0010
0000
0001
0000
1000
0000
0010
0000
,
1010
0000
0000
1010
0000
0000
1000
0000
0001
0000
0010
0000
0001
0000
0100
0000
,
0101
0000
0000
0101
0000
0000
0001
0000
1000
0000
0100
0010
0100
0000
1000
0000
,
0001
1000
0010
1000
0010
1000
0010
0100
,
0001
0000
0010
0001
0010
0001
0010
0100
,
1000
0000
0100
1000
0100
1000
0001
0010
,
0001
0000
0100
0001
0100
0001
0010
0100
,
1000
0000
0010
1000
0001
0010
0001
1000
,
0100
0000
1000
0001
0100
0001
1000
0010
,
1000
0000
0001
0010
0100
1000
0001
0100
,
0010
0000
1000
0000
0001
0010
0001
0000
1000
0010
1000
0000
0001
0000
0100
0000
,
0010
0000
0000
1000
0010
0000
1000
0000
0001
0010
0000
0000
0010
0000
0001
0000
,
0100
0000
0000
0001
0010
0000
0100
1000
0010
0000
1000
0000
0001
0000
0010
0000
,
0100
0000
0000
1000
0100
0000
1000
0000
0001
0100
0000
0000
0100
0000
0001
0000
,
0010
0000
0000
0001
0100
0000
0010
0000
1000
0100
0010
0000
0100
0000
1000
0000
,
0001
0000
0000
0010
0000
0000
0100
0000
0000
0000
1000
0000
0001
0000
1000
0000
,
0001
0000
0000
0100
0000
0000
0010
0000
0000
0000
1000
0000
0001
0000
1000
0010
,
1000
0000
0000
0010
0000
0000
0100
0000
0000
0000
0001
0000
1000
0000
0001
0000
,
1000
0000
0000
0100
0000
0000
0010
0000
0000
0000
0001
0000
1000
0000
0010
0000
,
0100
0000
0000
0000
;

//--------------- dance-single - Evergreen ----------------
#NOTES:
     dance-single:
     Evergreen:
     Challenge:
     15:
     0,0,0,0,0:
0000
0000
0000
0000
,
0000
0000
0000
0000
,
0000
0000
0000
0000
,
0000
0000
0000
0000
,
1000
0000
0010
0000
0000
0100
0001
0000
0000
0000
0000
0010
0001
0000
1000
0000
0000
0000
0100
0000
1000
0000
0000
0001
,
0100
0000
0001
0000
0000
1000
0010
0000
0000
0000
0000
1000
0100
0000
0010
0000
0000
0000
0001
0000
1000
0001
0000
0100
,
0010
0000
0100
0000
0000
0001
1000
0000
0000
0000
0000
0100
0010
0000
0001
0000
0000
0000
1000
0000
0010
0000
0000
0100
,
0001
0000
1000
0000
0000
0100
0010
0000
0000
0000
0000
0001
0010
0000
0001
0000
0000
0000
1000
0000
0010
0000
1000
0000
,
0002
0000
0000
0000
0003
1000
0001
0000
0000
1000
0000
0100
0010
0000
0000
0001
0000
0100
0010
0000
1000
0100
0000
0000
,
2000
0000
0000
0000
3000
0001
1000
0000
0000
0001
0000
0100
0010
0000
0000
1000
0000
0100
0010
0000
0001
1000
0000
0000
,
0002
0000
0000
0000
0003
1000
0010
0000
0000
0100
0000
0001
0010
0000
0000
0100
0000
1000
0010
0000
0100
0001
0000
0000
,
2000
0000
0000
0000
3000
0001
0010
0000
0000
0100
0000
1000
0010
0000
0000
0100
0000
0001
0010
0000
0001
1000
0000
0010
,
2000
0000
0000
0000
3000
0100
0010
0000
0000
0001
0000
0010
0100
0000
0000
1000
0000
0100
0010
0000
0001
0100
0000
0000
,
0002
0000
0000
0000
0003
0100
0010
0000
0000
1000
0000
0010
0100
0000
0000
0001
0000
0100
0010
0000
1000
0100
0000
0000
,
2000
0000
0000
0000
3000
0001
1000
0000
0000
0010
0000
1000
0001
0000
0000
1000
0000
0100
0010
0000
0001
1000
0000
0000
,
0020
0000
0000
0230
0000
0000
0302
0000
0000
0000
2003
0000
3200
0000
0320
0000
,
0130
0000
0000
0000
1000
0000
0001
0000
0000
0000
0100
0000
0010
0000
0000
0000
0000
0000
0100
0000
0000
0001
0000
0000
0000
0000
0000
0010
0000
0000
0001
0000
0000
0000
0000
0000
0011
0000
0000
0000
0000
0000
0010
0000
0000
0000
0001
0000
,
0100
0000
0000
0000
0001
0000
1000
0000
0000
0000
0100
0000
0010
0000
0000
0000
0000
0000
0100
0000
0000
1000
0000
0000
0000
0000
0000
0010
0000
0000
1000
0000
0000
0000
0000
0000
1010
0000
0000
0000
0010
0000
0000
0000
0100
0000
0000
0000
,
0001
0000
0000
0000
0010
0000
0001
0000
0000
0000
1000
0000
0010
0000
0000
0000
0000
0000
0100
0000
0000
0001
0000
0000
0000
0000
0000
1000
0000
0000
0100
0000
0000
0000
0000
0000
1100
0000
0000
0000
0000
0000
1000
0000
0000
0000
0010
0000
,
1000
0000
0000
0000
0001
0000
1000
0000
0000
0000
0001
0000
0010
0000
0000
0000
0000
0000
0100
0000
0000
1000
0000
0000
0000
0000
0000
0001
0000
0000
0100
0000
0000
0000
0000
0000
0101
0000
0000
0000
0001
0000
0000
0000
0010
0000
0000
0000
,
0100
0000
0000
0000
1000
0000
0001
0000
0000
0000
1000
0000
0010
0000
0000
0000
0000
0000
0100
0000
0000
0001
0000
0000
0000
0000
0000
1000
0000
0000
0001
0000
0000
0000
0000
0000
1001
0000
0000
0000
1000
0000
0001
0000
0000
0000
0000
0000
,
1000
0000
0010
0100
0000
0001
0010
0000
0000
0100
0000
1000
0010
0000
0000
1000
0000
0001
0010
0000
0100
1000
0000
0001
,
0100
0000
0000
0000
0001
0000
1000
0000
0000
0000
0001
0000
0010
0000
0000
0000
0000
0000
0100
0000
0000
1000
0000
0000
0000
0000
0000
0001
0000
0000
1000
0000
0000
0000
0000
0000
1001
0000
0000
0000
0001
0000
1000
0000
0000
0000
0000
0000
,
0001
0000
0010
0100
0000
1000
0010
0000
0000
0100
0000
0001
0010
0000
0000
0001
0000
1000
0001
0000
1000
0000
0010
0000
,
0100
0000
0001
0000
1000
0010
0000
0100
0000
0001
0000
0010
0000
0001
0000
0000
,
0100
0010
0000
1000
0000
0100
0000
0010
0000
0000
0001
0010
0001
0000
1000
0000
,
0010
0100
0000
0001
0000
1000
0000
0100
0000
1000
0000
0001
0000
0000
0100
0000
,
0001
1000
0000
0010
0000
0100
0000
0001
0000
0000
1000
0010
1000
0000
0001
0000
,
1000
0000
0100
0010
0000
0000
0001
0000
0000
1000
0000
0001
1000
0000
0010
0100
0000
0000
0001
0000
0000
1000
0000
0100
,
0010
0000
0001
1000
0000
0000
0010
0000
0000
0100
0000
0001
1000
0000
0100
0010
0000
0000
0001
0000
0000
1000
0000
0001
,
0010
0000
0001
1000
0000
0000
0010
0000
1000
0100
0000
1000
0010
0000
1000
0001
0000
0000
0010
0000
0001
1000
0000
0000
,
0100
0000
0000
0010
0000
0000
0000
0000
0000
0001
0000
0000
0000
0000
0000
0100
0000
0000
0000
0000
0000
0010
0000
0000
0000
0000
0000
0000
0000
0000
1000
0000
0000
0000
0000
0000
0001
0000
0000
0000
0100
0000
0000
0000
0010
0000
0000
0000
,
0100
0000
0000
0001
0000
0010
0100
0000
0000
1000
0000
0100
0010
0000
0001
1000
0000
0000
0010
0000
1000
0010
0000
0000
,
0100
0000
0001
0000
0000
1000
0000
0000
0100
0000
0000
0010
0000
0000
0000
0001
0000
1000
0001
0000
1000
0000
0000
0001
,
0010
0000
0000
0010
0000
0000
0100
0000
1000
0000
0000
0010
0000
0000
1000
0001
0000
0000
0010
0000
0001
0000
0000
1000
,
0010
0000
0000
0010
0000
0000
0100
0000
0001
0000
0000
0010
0000
0000
0100
0000
0000
1000
0000
0000
0000
0010
0000
0000
,
1000
0010
0000
0000
0000
0000
0100
0000
0000
0000
0000
0000
0001
0000
0000
0000
0010
0001
0000
0000
0000
0000
1000
0000
0010
0000
0000
0000
0100
0000
0010
0000
0000
0000
0100
0000
0001
0000
0000
0000
0000
0000
1000
0000
0000
0000
0000
0000
,
0010
0000
0000
0010
0000
0010
0000
0000
1000
0000
0000
0100
0000
0000
0010
0000
0000
0001
0000
0000
1000
0000
0000
0000
,
0001
0010
0000
0000
0000
0000
0100
0000
0000
0000
0000
0000
1000
0000
0000
0000
0010
1000
0000
0000
0000
0000
0001
0000
0010
0000
0000
0000
0100
0000
0010
0000
0000
0000
0100
0000
1000
0000
0000
0000
0000
0000
0001
0000
0000
0000
0000
0000
,
0010
0000
0000
0100
0000
1000
0010
0000
0100
0000
0000
0001
0010
0000
0001
1000
0000
0001
0100
0010
1000
0100
0010
0001
,
0100
0000
0000
0000
0001
0000
1000
0000
0000
0000
0001
0000
0010
0000
0000
0000
0000
0000
0100
0000
0000
1000
0000
0000
0000
0000
0000
0001
0000
0000
0100
0000
0000
0000
0101
0000
0000
0000
0000
0000
0001
0000
0010
0000
0000
0000
0000
0000
,
0100
0000
0000
0000
1000
0000
0001
0000
0000
0000
1000
0000
0010
0000
0000
0000
0000
0000
0100
0000
0000
0001
0000
0000
0010
0000
0000
0010
0000
0000
1000
0000
0000
0100
0000
0000
1000
0000
0000
0000
0001
0000
0000
0000
1000
0000
0000
0000
,
0100
0000
0000
0000
1000
0000
0001
0000
0000
0000
1000
0000
0010
0000
0000
0000
0000
0000
0100
0000
0000
0001
0000
0000
0000
0000
0000
1000
0000
0000
0100
0000
0000
0000
1100
0000
0000
0000
0000
0000
1000
0000
0010
0000
0000
0000
0000
0000
,
0100
0000
0000
0000
0001
0000
1000
0000
0000
0000
0001
0000
0010
0000
0000
0000
0000
0000
0100
0000
0000
1000
0000
0000
0010
0000
0000
0010
0000
0000
0001
0000
0000
0100
0000
0000
0001
0000
0000
0000
1000
0000
0000
0000
0001
0000
0000
0000
,
0100
0000
0001
1000
0000
0001
0010
0000
0000
0001
0000
0010
0100
0000
1000
0010
0000
1000
0001
0000
0010
0001
0000
1000
,
0100
0000
0000
0000
1000
0000
0001
0000
0000
0000
1000
0000
0010
0000
0000
0000
0000
0000
1000
0000
0000
0010
0000
0000
0100
0000
0000
0100
0000
0000
0001
0000
0000
1000
0000
0000
0100
0000
0000
0000
0010
0000
0000
0000
0001
0000
0000
0000
,
0011
0000
0000
0011
0000
0000
0020
0000
0000
0000
0230
0000
2300
0000
3010
0000
,
1010
0000
0000
1010
0000
0000
2000
0000
0000
0000
3200
0000
2300
0000
3002
0000
,
0203
0000
0000
0000
0300
0001
1000
0000
0000
0001
0000
0100
0010
0000
0000
1000
0000
0100
0010
0000
0001
1000
0000
0000
,
0200
0000
0000
0000
0300
1000
0001
0000
0000
1000
0000
0100
0010
0000
0000
0001
0000
0100
0010
0000
1000
0001
0000
0000
,
0200
0000
0000
0000
0300
0001
0010
0000
0000
0100
0000
1000
0010
0000
0000
0100
0000
0001
0010
0000
0100
1000
0000
0001
,
0010
0000
0001
1000
0000
0001
0010
0000
0000
0100
0000
1000
0010
0000
0000
0100
0000
0001
0010
0000
0001
1000
0000
0100
,
0020
0000
0000
0000
0030
0100
0010
0000
0000
0001
0000
0010
0100
0000
0000
1000
0000
0100
0010
0000
0001
0100
0000
0000
,
0020
0000
0000
0000
0030
0100
0010
0000
0000
1000
0000
0010
0100
0000
0000
0001
0000
0100
0010
0000
1000
0100
0000
0000
,
0020
0000
0000
0000
0030
0001
1000
0000
0000
0010
0000
1000
0001
0000
0000
1000
0000
0100
0010
0000
0001
1000
0000
0000
,
0010
0000
0000
0000
0000
0000
0100
0000
0000
0000
0001
0000
1000
0000
0000
0000
0100
0000
1000
0000
0000
0001
0000
0000
0010
0000
0000
0010
0000
0000
1000
0000
0000
0001
0000
0000
0200
0000
0000
0300
0001
0000
0000
0000
1000
0000
0000
0000
,
0100
0000
0000
0000
1000
0000
0001
0000
0000
0000
0100
0000
0010
0000
0000
0000
0000
0000
0100
0000
0000
0001
0000
0000
0000
0000
0000
0010
0000
0000
0001
0000
0000
0000
0000
0000
0011
0000
0000
0000
0000
0000
0010
0000
0000
0000
0001
0000
,
0100
0000
0000
0000
0001
0000
1000
0000
0000
0000
0100
0000
0010
0000
0000
0000
0000
0000
0100
0000
0000
1000
0000
0000
0010
0000
0000
0010
0000
0000
0001
0000
0000
1000
0000
0000
0002
0000
0003
0000
1000
0000
0000
0000
0010
0000
0000
0000
,
0100
0000
0000
0000
0001
0000
1000
0000
0000
0000
0100
0000
0010
0000
0000
0000
0000
0000
0100
0000
0000
1000
0000
0000
0000
0000
0000
0010
0000
0000
1000
0000
0000
0000
0000
0000
1010
0000
0000
0000
0000
0000
0010
0000
0000
0000
1000
0000
,
0100
0000
1000
0001
0000
0100
0010
0000
0000
0100
0000
0001
0100
0000
0001
1000
0000
0100
0010
0000
0001
1000
0000
0010
,
0100
0000
0000
0001
0000
0000
1000
0000
0000
0000
0100
0000
0010
0000
0001
0000
,
1000
0000
0000
0001
0000
0000
0100
0000
0000
0000
0010
0000
1000
0000
0100
0000
,
0010
0000
0000
0001
0000
0000
1000
0000
0000
0000
0100
0000
0010
0000
0001
0000
,
1000
0000
0000
0000
0000
0000
0000
0000
0000
0010
0000
0000
0000
0000
0000
0000
0000
0000
0100
0000
0000
0000
0000
0000
0000
0000
0000
0000
0000
0000
0001
0000
0000
0000
0000
0000
0010
0000
0000
0000
0001
0000
0000
0000
1000
0000
0000
0000
;
