#VERSION:0.83;
#TITLE:Over Da Moon;
#SUBTITLE:;
#ARTIST:lapix;
#TITLETRANSLIT:;
#SUBTITLETRANSLIT:;
#ARTISTTRANSLIT:;
#GENRE:;
#CREDIT:chronon;
#MUSIC:Over Da Moon.ogg;
#BANNER:Over Da Moon.png;
#BACKGROUND:Over Da Moon-bg.png;
#CDTITLE:;
#SAMPLESTART:76.056;
#SAMPLELENGTH:27.310;
#SELECTABLE:YES;
#OFFSET:0.910;
#BPMS:0.000=145.000;
#STOPS:;
#BGCHANGES:;
#FGCHANGES:;

//--------------- dance-single - chronon ----------------
#NOTEDATA:;
#STEPSTYPE:dance-single;
#DESCRIPTION:chronon;
#DIFFICULTY:Beginner;
#METER:2;
#RADARVALUES:0,0,0,0,0;
#NOTES:
0000
0000
0000
0000
,
0000
0000
0000
0000
,
0000
0000
0000
0000
,
0000
0000
0000
0000
,
0000
0000
0000
0000
,
1001
0000
0000
0000
,
1001
0000
0000
0000
,
1001
0000
0001
0000
,
1000
0001
1000
0000
,
1001
0000
0000
0000
,
0001
0001
0001
0000
,
1000
0000
0100
0000
,
0100
0000
0000
0000
,
1000
0000
0001
0000
,
0001
0000
0000
0000
,
1000
0000
0010
0000
,
0010
0000
0000
0000
,
1000
0000
0001
0000
,
0001
0000
0000
0000
,
1001
0000
0000
0000
,
0000
0000
0000
0000
,
1000
1000
1000
0000
,
0001
0001
0001
0000
,
1000
0000
0010
0000
,
0100
0000
0001
0000
,
1000
1000
1000
0000
,
0001
0001
0001
0000
,
1000
0000
0001
0000
,
0100
0000
0001
0000
,
1000
0000
0001
0000
,
1000
0000
0000
0000
,
0001
0000
0000
1000
,
0000
0000
0001
1000
,
0001
0000
0000
0000
,
0010
0000
0000
0000
,
0100
0000
0000
0000
,
1000
0000
0000
0001
,
1000
0000
0000
0000
,
0001
0000
0000
0000
,
1000
0000
0000
0000
,
0001
1000
0001
0000
,
1000
0000
1000
0000
,
0100
0000
0100
0000
,
0010
0000
0010
0000
,
0001
0000
0001
0000
,
1000
0000
0000
0000
,
0001
0001
0001
0000
,
1000
0000
0010
0000
,
0001
0000
0010
0000
,
1000
0000
0001
0000
,
1000
0000
0000
0000
,
0001
0000
0010
0000
,
1000
0000
0010
0000
,
0001
0000
1000
0000
,
0001
0000
0000
0000
,
1000
0000
0100
0000
,
0001
0000
0010
0000
,
1000
0000
0001
0000
,
1000
0000
1000
0000
,
0001
0000
0100
0000
,
1000
0000
0010
0000
,
0001
0000
1000
0000
,
0001
0000
1000
0000
,
0001
0000
0000
0000
,
1000
1000
1000
0000
,
1000
0000
0000
0000
,
0001
0001
0001
0000
,
1001
0000
0000
0000
,
1001
0000
0000
0000
,
1001
0000
1000
0000
,
0001
1000
0001
0000
,
1001
0000
0000
0000
,
1000
1000
1000
0000
;

//--------------- dance-single - chronon ----------------
#NOTEDATA:;
#STEPSTYPE:dance-single;
#DESCRIPTION:chronon;
#DIFFICULTY:Easy;
#METER:6;
#RADARVALUES:0,0,0,0,0;
#NOTES:
0000
0000
0000
0000
,
0000
0000
0000
0000
,
0000
0000
0000
0000
,
0000
0000
0000
0000
,
0000
0000
0000
0000
,
1001
0000
0000
0000
,
1001
0000
0000
0000
,
1001
0000
1001
0000
,
1000
0000
0001
0000
1000
0001
1000
0000
,
1001
0000
0000
0000
,
0001
0010
0100
1000
,
0001
0100
0100
0000
,
0010
1000
1000
0000
,
1000
0100
0100
0000
,
0010
0001
0001
1000
,
1000
0010
0010
0000
,
0100
0001
0001
0000
,
0001
0010
0010
0000
,
0100
1000
1000
0001
,
1000
0000
0000
0000
,
0000
0000
0000
0000
,
0001
0100
1000
0100
,
0001
0100
1000
0100
,
0001
0001
0001
0000
,
1000
1000
1000
0000
,
1000
0100
0001
0100
,
1000
0100
0001
0100
,
1000
0100
0010
0000
,
0100
0010
0001
0000
,
1000
1000
0001
0001
,
1000
0000
0000
0000
,
1001
0000
0000
1000
0000
0000
1001
0000
,
0000
0001
0000
0000
1000
0000
0001
0000
,
1000
0000
0100
0000
,
0010
0000
0001
0000
,
1000
0000
0010
0000
,
0100
0000
0000
0100
0000
0000
0100
0000
,
0000
0010
0000
0010
0000
0010
0000
0000
,
0000
1000
0000
1000
0000
1000
0000
0000
,
0000
0001
0000
0001
0000
0001
0000
0000
,
0000
1000
0000
1000
0000
1000
0000
0000
,
0100
0010
0000
0001
,
0000
1000
0001
1000
,
0000
0010
0000
0100
,
0000
0001
1000
0001
,
1000
0000
0000
0000
,
0001
0001
0001
0000
,
1000
0000
0100
0000
,
0001
0100
1000
0000
,
0001
0000
0100
0000
,
1000
0100
0001
0000
,
1000
0000
0010
0000
,
0001
0010
1000
0000
,
0001
0000
0010
0000
,
1000
0010
0001
0000
,
1000
1000
1000
0000
,
0100
0100
0100
0000
,
0001
0001
0001
0000
,
0010
0010
0010
0000
,
1000
1000
1000
0000
,
0010
0010
0010
0000
,
0001
0001
0001
0000
,
0100
0100
0100
0000
,
1000
0000
0000
0100
0000
0000
0010
0000
,
0000
0001
0001
0000
,
0001
0000
0000
0100
0000
0000
0010
0000
,
0000
1000
1000
0000
,
0001
0100
0010
0000
,
1000
0100
0010
0000
,
0001
0010
0100
0000
,
1000
0000
0001
0000
1000
0001
1000
0000
,
1001
0000
0000
0000
,
0001
1000
0001
0000
;

//--------------- dance-single - chronon ----------------
#NOTEDATA:;
#STEPSTYPE:dance-single;
#DESCRIPTION:chronon;
#DIFFICULTY:Medium;
#METER:10;
#RADARVALUES:0,0,0,0,0;
#NOTES:
0000
0000
0000
0000
,
0000
0000
0000
0000
,
0000
0000
0000
0000
,
0000
0000
0000
0000
,
0000
0000
0000
0000
,
1001
0000
0000
0000
0000
0000
0000
1000
,
0001
0000
0000
0000
0000
0000
0000
1000
,
0001
0000
0000
0000
1001
0000
0000
0001
,
1000
0000
0100
0000
0010
0001
0001
0000
,
1001
0000
0000
0000
,
1000
0000
0000
0000
0001
0000
0000
0100
0000
0000
0000
0000
0010
0000
0000
0000
,
1000
0010
1000
0001
1000
0000
0100
0000
,
0010
0100
0010
0001
1000
0000
0001
1000
,
0001
0010
0001
1000
0001
0000
0100
0000
,
0010
1000
0001
0000
0010
0001
1000
0000
,
0001
0010
0001
1000
0001
0000
0100
0000
,
0010
0100
0010
1000
0001
0000
1000
0001
,
1000
0010
1000
0001
1000
0000
0100
0010
,
0001
0010
0100
0100
1000
0000
0001
0000
,
1001
0000
0000
0000
,
0000
0000
0000
0000
,
1000
0000
0000
1000
0010
0000
0000
0000
0100
0000
0000
0100
0001
0000
0000
0000
,
0001
0000
0000
0001
0010
0000
0000
0000
0100
0000
0000
0100
1000
0000
0000
0000
,
0001
0000
1000
0100
0000
0100
0010
0001
,
0000
0001
1000
0000
0001
1000
0001
0000
,
0001
0000
0000
0001
0100
0000
0000
0000
0010
0000
0000
0010
1000
0000
0000
0000
,
1000
0000
0000
1000
0100
0000
0000
0000
0010
0000
0000
0001
0000
0000
1000
0000
,
0001
0000
0100
0001
0100
0000
0101
0000
,
1000
0000
0100
1000
0100
0000
1100
0000
,
1000
0100
0010
0001
,
1000
0000
0001
0000
0100
0010
0100
0000
,
0110
0000
0000
1001
0000
0000
0110
0000
,
0000
1001
0000
0000
1000
0001
1000
0001
,
1000
0000
0000
0100
0010
0000
0000
0000
,
0001
0000
0000
0100
0010
0000
0000
0000
,
1000
0000
0000
0100
0010
0000
0001
0000
,
1000
0001
0000
1000
0001
0000
0110
0000
,
1001
0000
0001
0100
0000
0100
0100
0100
,
0001
0000
1000
0100
0000
0100
0100
0100
,
1000
0000
0001
0100
0000
0100
0100
0100
,
0001
0000
0000
0000
1000
0000
0000
0001
0000
0000
1000
0000
0001
0000
0000
0000
,
1000
0000
0000
0000
0100
0000
0000
0010
0000
0100
0000
0000
0010
0000
0000
0000
,
0001
0000
0000
0000
0100
0000
0000
0010
0000
0000
0100
0000
0010
0000
0000
0000
,
1000
0000
0000
0000
0100
0000
0000
0010
0000
0000
0100
0000
0010
0000
0000
0001
,
0000
1000
0000
0001
0000
1000
0000
0000
0010
0000
0000
0000
0100
0000
0000
0000
,
1001
0000
0000
0000
,
1000
1000
0010
1001
,
0001
0010
0000
0010
0100
1000
0000
1000
,
0010
0100
1000
0100
,
0001
0100
0000
0100
0010
1000
0000
1000
,
0100
0000
0010
0001
0010
0000
0100
0000
,
1000
0100
0000
0100
0010
0001
0000
0001
,
0100
0010
0001
0010
,
1000
0010
0000
0010
0100
0001
0000
0001
,
0010
0000
0100
1000
0100
0000
1000
0000
,
0100
0000
0010
0000
0001
1000
0001
0000
,
0100
0000
0010
0000
1000
0001
1000
0000
,
0100
0000
0010
0000
1000
0000
0010
0010
,
0100
0000
0010
0010
0001
0000
0001
0000
,
0010
0000
0100
0000
1000
0001
1000
0000
,
0010
0000
0100
0000
0001
1000
0001
0000
,
0100
0000
0010
0000
0001
0000
0010
0010
,
0100
0000
0010
0010
1000
0000
0001
0000
,
1000
1000
0000
0100
0100
0000
0010
0000
,
0001
1000
0001
0100
0001
0000
0100
0000
,
0001
0001
0000
0100
0100
0000
0010
0000
,
1000
0001
1000
0100
1000
0000
0100
0000
,
1000
0100
0010
0001
1000
0000
0000
0000
,
0001
0100
0010
1000
0001
0000
0000
0000
,
1000
0100
0010
0001
1000
0000
0000
0001
,
1000
0000
0010
0000
0100
0001
0001
0000
,
0100
0001
0100
0001
1000
0001
1000
0001
,
1000
0000
0000
0000
0001
0000
0000
1000
0000
0000
0000
0000
0000
0000
0000
0000
;

//--------------- dance-single - chronon ----------------
#NOTEDATA:;
#STEPSTYPE:dance-single;
#DESCRIPTION:chronon;
#DIFFICULTY:Hard;
#METER:14;
#RADARVALUES:0,0,0,0,0;
#NOTES:
0000
0000
0000
0000
,
0000
0000
0000
0000
,
0000
0000
0000
0000
,
0000
0000
0000
0000
,
0000
0000
0000
0000
,
1001
0000
0000
0000
0000
0000
0000
0101
,
1001
0000
0000
0000
0000
0000
0000
1100
,
1001
0000
0000
0000
0101
0000
0000
1010
,
1001
0000
0011
0000
0010
0100
0100
0000
,
1001
0000
0000
0000
,
0001
0000
0000
0000
1000
0001
0000
0100
0000
0000
0010
0000
1000
0000
0001
0000
,
1000
0000
0100
1000
0100
0000
0010
0001
0010
0000
0001
0000
0100
0000
0000
0000
,
0001
0000
0100
0001
0100
0000
0010
1000
0010
0000
1000
0000
0100
0000
0010
0000
,
0001
0000
0010
0001
0010
0000
0100
1000
0100
0000
1000
0000
0010
0000
0000
0000
,
1000
0000
0010
0100
0001
0000
1000
0000
0001
0000
0010
0100
1000
0100
0010
0000
,
0001
0000
0010
0001
0010
0000
0100
1000
0100
0000
1000
0000
0010
0000
0000
0000
,
1000
0000
0010
1000
0010
0000
0100
0001
0100
0000
0001
0000
0010
0000
0100
0000
,
1000
0000
0100
1000
0100
0000
0010
0001
0010
0000
0001
0000
0100
0000
0010
0000
,
1000
0000
0001
0000
1000
0100
0010
0001
1000
0000
0000
0000
0001
0000
0000
0000
,
1001
0000
0000
0000
,
0000
0000
0000
0000
,
0101
0000
0000
0100
0010
0000
1000
0000
1100
0000
0000
0100
0010
0000
0001
0000
,
0011
0000
0000
0010
0100
0000
1000
0000
1010
0000
0000
0010
0100
0000
0001
0000
,
1001
0000
1000
0100
0010
0000
0001
0100
,
0010
0000
1000
0001
0010
0100
1000
0100
,
1100
0000
0000
0100
0010
0000
0001
0000
0101
0000
0000
0100
0010
0000
1000
0000
,
1010
0000
0000
0010
0100
0000
0001
0000
0011
0000
0000
0110
0000
0000
1100
0000
,
1001
0000
0001
0100
1000
0100
0001
0000
,
1001
0000
1000
0100
0001
0100
0010
0001
,
0100
0000
0000
0010
0000
0000
1000
0000
0000
0001
1000
0100
,
0010
0000
0100
0000
1000
0100
0010
0100
,
0110
0000
0000
1001
0000
0000
0110
0000
,
0000
0000
1001
0000
0000
0000
0000
0000
0001
0000
1000
0000
0001
1000
0001
1000
,
0100
0000
0000
0010
0001
0000
0000
0000
,
0100
0000
0000
0010
1000
0000
0000
0000
,
0100
0000
0000
0010
0001
0000
1000
0000
,
0001
1000
0001
0000
0000
0000
1000
0001
1000
0000
0000
0000
0110
0000
0000
0000
,
1001
0000
0000
0000
0001
0010
0000
0100
0000
1000
0000
0100
0010
0000
0001
0000
,
1001
0000
0000
0000
1000
0010
0000
0100
0001
0000
0100
0010
1000
0000
0001
0000
,
1001
0000
0000
0000
0001
0010
0000
0100
0000
1000
0000
0100
0010
0001
1000
0000
,
1001
0000
0000
0000
1100
0000
0000
1001
0000
0000
1010
0000
0010
0000
0100
0000
,
0101
0000
0001
0000
0100
0010
0000
1000
0000
0001
0000
1000
0100
0000
1000
0000
,
1100
0000
0100
0000
0010
0100
0000
1000
0001
0000
1000
0010
0100
0000
0001
0000
,
0101
0000
0100
0000
0010
1000
0000
0100
0000
0010
0100
0000
0010
0000
0001
0100
,
0000
0010
0000
0010
0000
1000
0000
1000
0001
0010
0001
0010
0100
1000
0100
1000
,
0001
0000
0000
0000
,
1000
0000
0001
0000
0100
0000
0001
0000
1000
0000
0100
0000
0010
0000
0000
0000
0000
0000
1100
0000
0000
0100
0000
0000
,
1000
0010
0000
0100
0001
0010
0001
1000
,
0001
0000
0100
0000
1000
0000
0100
0001
,
0010
1000
0000
0001
0100
1000
0001
1000
,
0010
0000
1000
0001
0100
0000
0010
0100
,
0001
0010
0000
0100
1000
0010
1000
0001
,
1000
0000
0100
0000
0001
0000
0100
1000
,
0010
0001
0000
1000
0100
0001
1000
0001
,
0010
0000
0000
0000
0001
0010
0001
0000
1000
0000
0000
0000
0001
0000
1000
0000
,
0100
0000
0000
0000
0001
0000
0000
0000
0100
0000
0010
0100
1000
0000
0001
0000
,
0100
0000
0000
0000
1000
0000
0000
0000
0100
0000
0010
0100
0001
1000
0001
0000
,
0010
0000
0000
0000
1000
0000
0000
0000
0001
0000
0000
0000
0100
0010
0100
0010
,
0001
0000
0000
0000
0100
0010
0100
0010
1000
0000
0000
0000
0001
0000
0001
0000
,
0010
0000
0000
0000
1000
0000
0000
0000
0010
0000
0100
0010
0001
0000
1000
0000
,
0010
0000
0000
0000
0001
0000
0000
0000
0010
0000
0100
0010
1000
0001
1000
0000
,
0100
0000
0000
0000
0001
0000
0000
0000
1000
0000
0000
0000
0010
0100
0010
0100
,
1000
0000
0000
0000
0010
0100
0010
0100
0001
0000
0000
0000
1000
0000
0001
0000
,
1001
1001
0000
0011
0011
0000
1100
0000
,
1000
0100
0001
0100
1000
0001
1000
0000
,
1001
1001
0000
1010
1010
0000
0101
0000
,
0001
0100
1000
0100
0001
1000
0001
0100
,
0001
0000
0100
0000
0010
1000
0010
1000
0001
0000
1000
0100
1000
0000
0100
0000
,
1000
0000
0100
0000
0010
0001
0010
0001
1000
0000
0001
0100
0001
0000
0100
0000
,
0001
0000
0100
0000
0010
1000
0010
1000
0001
0000
1000
0100
1000
0000
0100
0010
,
0001
0000
0010
0000
0100
1000
0001
1000
0010
0000
0100
0000
0100
0000
0000
0000
,
0001
0100
0001
0100
0010
1000
0010
1000
0001
0010
0001
0010
0100
1000
0100
1000
,
0001
0000
0000
0000
1000
0001
0000
1000
0000
0000
0000
0000
0000
0000
0000
0000
;
