#TITLE:Onion Ninja;
#SUBTITLE:;
#ARTIST:BEMANI Sound Team "Coyaan";
#TITLETRANSLIT:;
#SUBTITLETRANSLIT:;
#ARTISTTRANSLIT:;
#GENRE:;
#CREDIT:;
#MUSIC:Onion Ninja.ogg;
#BANNER:;
#BACKGROUND:;
#CDTITLE:;
#SAMPLESTART:72.048;
#SAMPLELENGTH:15.000;
#SELECTABLE:YES;
#OFFSET:-0.234;
#BPMS:0.000=128.000
,224.500=121.000
,225.250=112.000
,226.000=104.000
,226.750=96.000
,227.500=88.000
;
#STOPS:;
#ORIGIN:;
#PREVIEWVID:;
#JACKET:;
#CDIMAGE:;
#DISCIMAGE:;
#BGCHANGES:;
#FGCHANGES:;

//--------------- dance-single - ----------------
#NOTES:
     dance-single:
     :
     Medium:
     1:
     0.548613,0.562557,0.299472,0.30828,0.295068,436,402,34,35,0,0,0,0,2,0.548613,0.562557,0.299472,0.30828,0.295068,436,402,34,35,0,0,0,0,2:
0000
0000
0000
0000
,
0000
0000
0000
0000
,
0000
0000
0000
0000
,
0000
0MM0
0000
0000
,
2001
0000
0100
0000
0100
0000
3100
0000
0010
0000
0011
0000
0000
0001
0000
0000
,
0201
0000
0010
0000
0010
0000
0310
0000
1000
0000
0001
1000
0000
0001
1000
0000
,
1200
0000
0010
0000
0010
0000
0310
0000
0001
0000
0011
0000
0000
0001
0000
0000
,
1002
0000
0100
0000
0100
0000
0103
0000
0010
0000
1000
0002
0000
0000
0013
0000
,
0100
1000
0010
1000
0001
0100
1000
0100
,
0010
0000
1000
0000
0100
0000
0001
0000
0100
0000
0010
0000
0001
1000
0000
0001
,
1000
0010
0100
1000
0001
0010
0100
0001
,
2000
0000
0000
3100
0010
0002
2000
0000
0000
0000
3003
0000
,
0101
0000
1000
1100
0000
0001
0100
0100
,
0010
0000
1000
0000
0100
0000
0010
0001
0010
0000
0000
0000
0011
0000
0000
0000
,
0001
0010
1000
0010
0100
1000
0100
0001
,
0100
0010
0001
0010
0200
0000
1300
0000
,
1100
0000
0001
0101
0000
1000
0100
0100
,
0010
0000
0001
0000
0100
0000
0010
1000
0010
0000
0000
0000
1010
0000
0000
0000
,
1000
0010
0001
0010
0100
0001
0100
1000
,
0100
0010
1000
0010
0200
0000
0000
0000
,
0301
0000
1000
0100
1000
0000
0001
0000
1000
0010
1000
0000
0001
0000
0021
0000
,
0000
0000
0130
0000
1000
0000
0100
0000
1000
0000
0001
0000
0100
0010
0100
0000
,
0001
1000
0000
0001
0010
0000
0001
0100
0000
0000
0010
0000
1000
0100
1000
0000
,
0001
0000
0100
0000
0010
0000
1000
0000
0100
0000
1000
0000
0001
0000
1000
0100
,
1000
0000
0001
0100
0001
0000
1000
0000
0001
0010
0001
0000
1000
0000
1020
0000
,
0000
0000
0130
0000
0001
0000
0100
0000
0001
0000
1000
0000
0100
0010
0100
0000
,
1000
0001
0000
1000
0010
0000
1000
0100
1000
0000
0001
0000
0100
0000
0010
0000
,
2000
0000
0000
0000
3100
0000
0010
0001
0010
0000
0100
0000
1000
0000
0000
0000
,
1001
0000
0000
0001
0000
0000
0100
0000
0000
1000
0000
0000
0001
0000
0000
0010
0000
0000
1000
0000
0010
0000
0100
0000
,
0001
0000
0000
1000
0000
0000
0100
0000
0000
0010
0000
0000
0001
0000
0000
0000
0010
0000
0000
0000
0100
0000
0000
0000
,
2000
0000
0000
0000
0000
0000
3001
0100
0001
0000
0010
0000
0100
0000
1000
0000
,
0002
0000
0000
0000
0000
0000
1003
0010
1000
0000
0100
0000
0002
0000
0000
0000
,
0203
0000
0000
0310
0001
0000
0010
0000
0100
0000
1000
0000
0001
0000
0100
0000
,
0010
0000
0000
1010
0000
0000
0101
0000
0000
1000
0100
0010
,
0002
0000
0000
0000
0000
0000
1003
0100
1000
0000
0010
0000
0100
0000
0001
0000
,
2000
0000
0000
0000
0000
0000
3001
0010
0001
0000
0100
0000
2000
0000
0000
0000
,
3200
0000
0000
0310
1000
0000
0010
0000
0100
0000
0001
0000
1000
0000
0100
0000
,
0010
0000
0000
0000
0011
0000
0000
0000
1100
0000
0000
0000
0001
1000
0001
1000
,
0010
0000
0100
0000
0001
0000
1000
0100
1000
0000
0010
0000
1000
0000
0001
0000
,
0010
0000
0100
0000
1000
0000
0001
0100
0001
0000
0010
0000
2000
0000
0000
0000
,
3020
0000
0000
0130
1000
0000
0100
0000
0010
0000
0001
0000
1000
0000
0001
0000
,
0100
0000
0000
0000
0110
0000
0000
0000
1000
0001
1000
0001
1000
0000
0000
0000
,
1001
0001
0010
0110
0000
0100
1100
0000
,
1000
1001
0000
0001
0101
0000
0110
0000
,
1001
1000
0100
1000
0010
0100
1000
0001
,
0010
0000
0100
0000
0001
0000
1000
0000
0200
0000
0000
0000
0310
0001
0010
0001
,
2000
0000
0000
0000
0000
0000
3010
0100
0010
0000
0000
0000
1000
0001
1000
0001
,
0010
0100
1000
0010
0100
0001
0010
0100
1000
0001
0000
0000
,
1002
0000
0100
0000
0100
0000
0103
0000
0010
0000
1010
0000
0000
1000
0000
0000
,
1200
0000
0010
0000
0010
0000
0310
0000
0001
0000
1000
0001
0000
1000
0001
0000
,
0201
0000
0010
0000
0010
0000
0310
0000
1000
0000
1010
0000
0000
1000
0000
0000
,
2001
0000
0100
0000
0100
0000
3100
0000
0010
0000
0001
2000
0000
0000
3010
0000
,
0100
0001
0010
0001
1000
0100
0001
0100
,
0010
0000
0001
0000
0100
0000
1000
0000
0100
0000
0010
0000
1000
0001
0000
1000
,
0001
0010
0100
0001
1000
0010
0100
1000
,
0002
0000
0000
0103
0010
2000
0002
0000
0000
0000
3003
0000
,
0000
0000
1000
0000
0000
0100
0000
0000
0001
0000
0000
0010
0000
0000
1000
0000
,
0000
2002
0000
0000
,
0000
3003
0000
0000
0000
0000
0000
0000
0000
0000
0000
0000
0000
0000
0000
0000
;

//--------------- dance-single - ----------------
#NOTES:
     dance-single:
     :
     Hard:
     15:
     0.703383,0.767123,0.458017,0.369936,0.766297,559,507,52,42,6,0,0,0,2,0.703383,0.767123,0.458017,0.369936,0.766297,559,507,52,42,6,0,0,0,2:
0000
0000
0000
0000
,
0000
0000
0000
0000
,
0000
0000
0000
0000
,
0000
0MM0
0000
0000
,
1001
0000
0000
0001
0100
0001
0100
0001
1000
0000
1100
0000
0000
0011
0000
0000
,
1001
0000
0000
1000
0010
1000
0010
1000
0001
0000
0010
0100
0000
0010
0100
0000
,
1100
0000
0000
0001
0010
0001
0010
0001
1000
0000
1010
0000
0000
0101
0000
0000
,
0011
0000
0000
1000
0100
1000
0100
1000
0001
0000
0100
0020
0000
0000
1030
0000
,
1001
0000
0001
0000
0010
0000
0100
1000
0100
0000
0010
0001
0010
0000
0001
0100
,
0010
1000
0001
0010
0001
1000
0010
0100
0001
0000
1000
0100
0010
0001
0000
1000
,
0010
0000
0100
0001
0100
0000
0010
1000
0010
0000
1000
0100
1000
0000
0001
0010
,
0002
0000
0000
1003
0010
0100
0002
0000
0000
0003
0000
0000
,
0021
0000
0000
0000
0130
0000
2100
0000
0000
0000
3001
0010
0001
0000
1000
0010
,
1000
0000
0100
0000
0001
0000
0100
0010
0002
0000
0000
0000
1003
0000
0000
0000
,
1002
0000
0000
0000
0103
0010
0100
0000
0001
0000
0010
0100
0010
0000
0001
0000
,
0001
0000
0100
0010
0100
0000
1000
0000
0200
0000
0000
0000
0301
0000
0000
0000
,
1020
0000
0000
0000
0130
0000
0102
0000
0000
0000
1003
0010
1000
0000
0001
0010
,
0001
0000
0100
0000
1000
0000
0100
0010
2000
0000
0000
0000
3001
0000
0000
0000
,
2001
0000
0000
0000
3100
0010
0100
0000
1000
0000
0010
0100
0010
0000
1000
0000
,
1000
0000
0100
0010
0100
0000
0001
0000
0100
0000
1000
0100
0010
0000
0000
0000
,
0011
0000
0001
1000
0100
0000
1010
0000
1000
0001
0100
0000
0110
0000
2002
0000
,
0000
3003
1000
0001
0100
1000
0100
0001
,
1000
0100
0000
0010
0100
0000
0001
0200
0000
0000
0310
0000
0001
0010
0100
0000
,
1000
0001
1000
0001
0100
0010
1000
0100
1000
0001
0100
0010
1000
0000
0000
0000
,
1010
0000
1000
0001
0100
0000
0011
0000
0001
1000
0100
0000
0110
0000
2002
0000
,
0000
3003
0001
1000
0100
0001
0100
1000
,
0001
0100
0000
0010
0100
0000
1000
0100
0010
0000
1000
0000
0001
0010
0100
1000
,
0020
0000
0030
0010
0100
0001
1000
0100
0010
0001
0010
0100
2000
0000
0000
0000
,
3001
0000
0000
0000
0000
0000
1000
0000
0000
0010
0000
0000
1000
0000
0000
0000
0000
0000
0001
0000
0000
0100
0000
0000
0001
0000
0000
0000
0000
0000
1000
0000
0000
0100
0000
0000
0010
0000
0000
0000
0001
0000
0000
0000
1000
0000
0000
0000
,
0001
0000
0000
0100
0000
0000
0010
0000
0000
1000
0000
0000
0001
0000
0000
0000
1000
0000
0000
0000
0100
0000
0000
0000
,
0120
0000
0000
0031
1000
0001
1000
0001
0100
0000
0010
0000
1000
0000
0100
0000
,
0120
0000
0000
0031
1000
0001
1000
0001
0100
0000
0010
0000
0002
0000
0000
0000
,
0023
0000
0000
0130
0001
0000
1000
0100
1000
0000
0010
0000
0100
0001
0100
0001
,
1000
0000
0000
0011
0000
0000
0110
0000
0000
1000
0001
1000
,
0020
0000
0000
1030
0001
1000
0001
1000
0100
0000
0010
0000
0001
0000
0100
0000
,
0120
0000
0000
1030
0001
1000
0001
1000
0100
0000
0010
0000
2000
0000
0000
0000
,
3020
0000
0000
0130
1000
0100
0010
0001
2000
0000
0000
0000
3010
0100
0001
0010
,
0002
0000
0000
0000
0013
0100
1000
0010
1000
0000
0001
0010
0200
0000
0000
0000
,
1300
0000
0001
0000
0100
0000
0010
1000
0100
0000
1000
0000
0001
0100
0001
0100
,
0010
0000
1000
0000
0100
0000
0010
0001
0100
0000
0001
0000
2001
0000
0000
0000
,
3200
0000
0000
0310
0001
0000
1000
0010
1000
0000
0001
0000
0010
0100
0010
0100
,
1000
0000
0000
0000
1100
0000
0000
0000
0101
0000
0000
0000
1000
0100
0010
0001
,
1000
0000
0001
0100
0001
0000
0101
0000
1000
0100
1000
0000
1100
0000
0001
0010
,
0001
0000
0011
0000
1000
0010
1000
0000
1010
0000
0000
0000
0110
0000
0000
0000
,
1001
0000
1000
0100
1000
0100
0010
0001
0100
0001
0100
0001
1000
0010
0100
0001
,
0010
0100
1000
0001
0100
0001
1000
0010
1000
0000
0000
0000
0001
0010
0100
1000
,
0020
0000
0000
0000
0000
0000
0130
0001
1000
0000
0000
0000
0001
0010
0100
1000
,
0001
0100
0001
1000
0010
1000
0100
0010
0001
1000
0000
0000
,
2001
0000
0000
3100
1000
0100
1000
0100
0001
0000
0101
0000
0000
0110
0000
0000
,
1002
0000
0000
0103
0001
0100
0001
0100
1000
0000
0100
0010
0000
0100
0001
0000
,
1002
0000
0000
0013
0001
0010
0001
0010
1000
0000
1010
0000
0000
0110
0000
0000
,
2001
0000
0000
3010
1000
0010
1000
0010
0001
0000
0010
0200
0000
0000
0301
0000
,
1001
0000
1000
0000
0010
0000
0100
0001
0100
0000
0010
1000
0010
0000
1000
0100
,
0010
0001
1000
0010
1000
0001
0010
0100
1000
0000
0001
0100
0010
1000
0000
0001
,
0010
0000
0100
1000
0001
0000
0100
0001
0100
0000
1000
0000
0100
0010
1000
0010
,
2000
0000
0000
0000
0000
0000
3001
0000
0010
0000
0100
0000
2000
0000
0000
0000
0000
0000
0000
0000
0000
3001
0000
0000
,
0100
0000
M101
0000
0000
110M
0000
0000
M101
0000
0000
110M
0000
0000
M11M
0000
,
0000
2002
0000
0000
,
0000
3003
0000
0000
0000
0000
0000
0000
0000
0000
0000
0000
0000
0000
0000
0000
;

//--------------- dance-single - FS XO ----------------
#NOTES:
     dance-single:
     FS XO:
     Challenge:
     17:
     0.865702,0.843835,0.396361,0.317088,1.281566,688,643,45,36,30,0,0,0,2,0.865702,0.843835,0.396361,0.317088,1.281566,688,643,45,36,30,0,0,0,2:
0000
0000
0000
0000
,
0000
0000
0000
0000
,
0000
0000
0000
0000
,
0000
0MM0
0000
0000
,
1002
0000
0103
01M0
0100
0001
0100
0010
1000
0000
1010
0000
0000
1100
0000
0000
,
2001
0000
3100
01M0
0100
1000
0100
0010
0001
0000
1000
0010
0M00
0010
0001
0000
,
1002
0000
0103
01M0
0100
0010
1000
0001
0010
0000
0110
0000
0000
1100
0000
0000
,
2001
0000
3100
01M0
0100
0010
0001
1000
0010
0000
1000
0200
0000
0000
0310
0000
,
0012
0000
0000
0000
0000
0000
0000
0000
0000
0000
0000
0000
1003
0000
0000
0000
0000
0000
0010
0000
0100
0000
0001
0000
1000
0000
0000
0000
0000
0000
0100
0000
0000
0010
0000
0000
0001
0000
0000
0100
0000
0000
0001
0000
0000
1000
0000
0000
,
0100
0010
0001
1000
0100
1000
0010
0100
0001
0000
0010
0001
1000
0010
0M00
0010
,
0001
0010
0100
1000
0010
1000
0001
0100
0001
0010
0100
1000
0001
1000
0010
0100
,
0002
0000
0000
1000
1000
1003
0100
0010
0001
1000
0000
0000
,
1001
0000
0000
0000
0000
0000
0000
0000
0000
0000
0000
0000
1100
0000
0000
0000
0000
0000
0101
0000
0000
0000
0000
0000
0000
0000
0000
0000
0000
0000
1000
0000
0000
0010
0000
0000
0100
0000
0001
0000
0100
0000
0001
0000
0000
1000
0000
0000
,
0100
0000
1000
0000
0010
0000
0100
0000
0001
0000
0000
0000
0100
00M0
0100
0000
1000
0000
0000
0000
0000
0000
0000
0000
1100
0000
0000
0000
0000
0000
0000
0000
,
0011
0000
0000
0000
0000
0000
1000
0000
0010
0000
1000
0000
0010
0000
0000
0100
0000
0000
0001
0000
0000
1000
0000
0000
0100
0000
0000
0000
0000
0000
0010
0000
0000
0001
0000
0000
0100
0000
0000
0001
0000
0000
0010
0000
0000
0100
0000
0000
,
1000
0000
0000
0000
0000
0000
0001
0000
0100
0000
0001
0000
0100
0000
0000
0010
0000
0000
1000
0000
0000
0001
0000
0000
0010
0000
0000
0000
0000
0000
0100
0000
0000
1000
0000
0000
0001
0000
0000
0000
0000
0000
0000
0000
0000
0000
0000
0000
,
1001
0000
0000
0000
0000
0000
0000
0000
0000
0000
0000
0000
0101
0000
0000
0000
0000
0000
1100
0000
0000
0000
0000
0000
0000
0000
0000
0000
0000
0000
0001
0000
0000
0010
0000
0000
0100
0000
1000
0000
0100
0000
1000
0000
0000
0001
0000
0000
,
0100
0000
0001
0000
0010
0000
0100
0000
1000
0000
0000
0000
0100
00M0
0100
0000
0001
0000
0000
0000
0000
0000
0000
0000
0101
0000
0000
0000
0000
0000
0000
0000
,
1010
0000
0000
0000
0000
0000
0001
0000
0010
0000
0001
0000
0010
0000
0000
0100
0000
0000
1000
0000
0000
0001
0000
0000
0100
0000
0000
0000
0000
0000
0010
0000
0000
1000
0000
0000
0100
0000
0000
1000
0000
0000
0010
0000
0000
0100
0000
0000
,
0001
0000
0000
0000
0000
0000
0000
0000
0000
0000
0000
0000
1000
0000
0000
0000
0100
0000
0000
0000
1000
0000
0000
0000
0100
0000
0000
0000
0000
0000
0010
0000
0000
0000
0000
0000
0001
0000
0000
0000
0000
0000
1000
0000
0000
0000
0000
0000
0001
0000
0000
0000
0000
0000
0000
0000
0000
0000
0000
0000
0100
0000
0000
00M0
0000
0000
0100
0000
0000
0000
0000
0000
1000
0000
0000
0000
0000
0000
0100
0000
0000
0000
0000
0000
0010
0000
0000
0000
0000
0000
0001
0000
0000
0000
0000
0000
,
1000
0000
0000
0000
0000
0000
0000
0000
0000
0000
0000
0000
0100
0000
0000
00M0
0000
0000
0100
0000
0000
0000
0000
0000
0001
0000
0000
0000
0000
0000
0000
0000
0000
0000
0000
0000
1001
0000
0000
0000
0000
0000
0000
0000
0000
0000
0000
0000
0001
0000
0000
0000
0100
0000
0000
0000
0001
0000
0000
0000
0100
0000
0000
0000
0000
0000
0000
0000
0000
0000
0000
0000
1010
0000
0000
0000
0000
0000
0000
0000
0000
0000
0000
0000
0012
0000
0000
0000
0000
0000
0000
0000
0000
0000
0000
0000
,
0000
0000
0000
0000
0000
0000
1003
0000
0000
0100
0000
0000
0010
0000
0000
0000
0000
0000
0001
0000
0000
0000
0000
0000
1000
0000
0000
0000
0000
0000
0010
0000
0000
0000
0000
0000
0100
0000
0001
0000
0100
0000
0001
0000
0000
0000
0000
0000
,
1000
0100
0000
0010
0100
0000
0001
0200
0000
0000
0310
0000
0001
0010
0100
0000
,
1000
0100
0010
0001
1000
0001
0100
0010
1000
0100
1000
0001
0100
0000
0000
0000
,
1002
0000
0000
0000
0000
0000
0000
0000
0000
0000
0000
0000
0103
0000
0000
00M0
0000
0000
0100
0000
0000
0000
0000
0000
1000
0000
0000
0000
0000
0000
0000
0000
0000
0000
0000
0000
1001
0000
0000
0000
0000
0000
0000
0000
0000
0000
0000
0000
1000
0000
0000
0000
0100
0000
0000
0000
1000
0000
0000
0000
0100
0000
0000
0000
0000
0000
0000
0000
0000
0000
0000
0000
0011
0000
0000
0000
0000
0000
0000
0000
0000
0000
0000
0000
2010
0000
0000
0000
0000
0000
0000
0000
0000
0000
0000
0000
,
0000
0000
0000
0000
0000
0000
3001
0000
0000
0100
0000
0000
0010
0000
0000
0000
0000
0000
1000
0000
0000
0000
0000
0000
0001
0000
0000
0000
0000
0000
0010
0000
0000
0000
0000
0000
0100
0000
1000
0000
0100
0000
1000
0000
0000
0000
0000
0000
,
0001
0000
0000
0100
0000
0000
0001
0000
0000
0010
0000
0000
0100
0000
0000
1000
0000
0000
0001
0000
0000
0100
0000
0000
0010
0000
1000
0000
0010
0000
1000
0000
0000
0001
0000
0000
1000
0000
0000
0100
0000
0000
0010
0000
0000
0200
0000
0000
,
0001
0000
0000
0310
0001
0010
0100
1000
0001
0100
0010
1000
0002
0000
0000
0000
,
1003
0000
0000
0100
0000
0000
0010
0000
0000
0100
0000
0000
1000
0000
0000
0010
0000
0000
1000
0000
0000
0001
0000
0000
0100
0000
0000
0010
0000
0000
0100
0000
0000
0001
0000
0000
0010
0000
0000
0000
0100
0000
0000
0000
1000
0000
0000
0000
,
0010
0000
0000
1000
0000
0000
0001
0000
0000
0100
0000
0000
0010
0000
0000
0000
1000
0000
0000
0000
0001
0000
0000
0000
,
0020
0000
0000
0000
0000
0000
0130
0000
0000
010M
0000
0000
0100
0000
0000
1000
0000
0000
0100
0000
0010
0000
0001
0000
1000
0000
0000
0000
0000
0000
1001
0000
0000
0000
0000
0000
0001
0000
0000
1000
0000
0000
0100
0000
0000
1000
0000
0000
,
0020
0000
0000
0000
0000
0000
0000
0000
0000
0000
0000
0000
0130
0000
0000
0000
0000
0000
M100
0000
0000
0000
0000
0000
0100
0000
0000
0000
0000
0000
0001
0000
0000
0000
0000
0000
0100
0000
0000
0000
0010
0000
0000
0000
1000
0000
0000
0000
0001
0000
0000
0000
0000
0000
0000
0000
0000
0000
0000
0000
0100
0000
0000
00M0
0000
0000
0100
0000
0000
0000
0000
0000
2000
0000
0000
0000
0000
0000
0000
0000
0000
0000
0000
0000
0000
0000
0000
0000
0000
0000
0000
0000
0000
0000
0000
0000
,
3200
0000
0000
0000
0000
0000
0000
0000
0000
0310
0000
0000
0001
0000
0000
0000
0000
0000
1000
0000
0000
0010
0000
0000
1000
0000
0000
0100
0000
0000
0010
0000
0000
0001
0000
0000
1000
0000
0010
0000
1000
0000
0001
0000
0100
0000
0001
0000
,
1000
0000
0000
0000
0000
0000
0100
0000
0000
0000
0000
0000
1100
0000
0000
0000
0000
0000
0001
0000
0000
0100
0000
0000
0001
0000
0000
0000
0000
0000
0000
0000
1000
0000
0010
0000
1000
0000
0000
0000
0001
0000
0000
0000
0010
0000
0000
0000
,
0002
0000
0000
0000
0000
0000
0103
0000
0000
M100
0000
0000
0100
0000
0000
0010
0000
0000
1000
0000
0010
0000
0100
0000
0001
0000
0000
0000
0000
0000
1000
0000
0000
0100
0000
0000
0010
0000
0000
0100
0000
0000
1000
0000
0000
0001
0000
0000
,
2000
0000
0000
0000
0000
0000
3100
0000
0000
010M
0000
0000
0100
0000
0000
0010
0000
0000
0001
0000
0010
0000
0100
0000
1000
0000
0000
0000
0000
0000
0001
0000
0100
0000
0010
0000
2000
0000
0000
0000
0000
0000
0000
0000
0000
0000
0000
0000
,
3200
0000
0000
0310
0001
0000
1000
0010
1000
0000
0100
1000
0010
0100
0001
0100
,
2000
0000
0000
0000
3100
0010
1000
0010
0001
0000
0010
0100
0001
0100
0010
1000
,
0001
0000
0000
0010
0000
0000
0000
0000
0000
0001
0000
0000
0010
0000
0000
0000
0000
0000
0100
0000
1000
0000
0100
0000
1000
0000
0000
0000
0000
0000
0001
0000
0000
0100
0000
0000
0010
0000
0000
0100
0000
0000
0001
0000
0000
0100
0000
0000
,
0010
0000
0000
0000
0000
0000
1000
0000
0000
0000
0000
0000
0000
0000
0000
0000
0000
0000
0010
0000
0000
0000
0000
0000
1000
0000
0000
0000
0000
0000
0000
0000
0000
0000
0000
0000
0001
0000
0000
0000
0100
0000
0000
0000
0001
0000
0000
0000
0100
0000
0000
00M0
0000
0000
0100
0000
0000
0000
0000
0000
1000
0000
0000
0000
0000
0000
0000
0000
0000
0000
0000
0000
1001
0000
0000
0000
0000
0000
0000
0000
0000
0000
0000
0000
0000
0000
0000
0000
0000
0000
0000
0000
0000
0000
0000
0000
,
0002
0000
0000
0000
0000
0000
0000
0000
0003
1000
0000
0000
0100
0000
0000
0010
0000
0000
0100
0000
0000
1000
0000
0000
0010
0000
0000
1000
0000
0000
0001
0000
0000
0010
0000
0000
0100
0000
1000
0000
0100
0000
0010
0000
0001
0000
1000
0000
,
0020
0000
0000
0000
0000
0000
0000
0000
0030
0000
0000
0000
0110
0000
0000
0000
0000
0000
1000
0000
0000
0010
0000
0000
1000
0000
0000
0000
0000
0000
0001
0000
0000
0010
0000
0000
0100
0000
0000
1000
0000
0000
0010
0000
0000
1000
0000
0000
,
0001
0000
0010
0100
1000
0010
1000
0001
0010
0100
1000
0100
0001
0100
0010
0001
,
1000
0001
0100
0010
1000
0100
1000
0001
0100
0001
1000
0100
0010
0001
1000
0010
,
1000
0000
0000
0000
0000
0000
0001
0000
0100
0000
0001
0000
0100
0000
0000
0010
0000
0000
1000
0000
0000
0100
0000
0000
1000
0000
0000
0001
0000
0000
0200
0000
0000
0000
0000
0000
1300
0000
0000
0100
0000
0000
0010
0000
0000
0100
0000
0000
,
0001
0000
0000
1000
0000
0000
0100
0000
0000
1000
0000
0000
0010
0000
0000
0100
0000
0000
0001
0000
0000
1000
0000
0000
0100
0000
0000
0000
0000
0000
0010
0000
0001
0000
0010
0000
0001
0000
0000
1000
0000
0000
0010
0000
0000
0100
0000
0000
,
0002
0000
0000
0000
0000
0000
0000
0000
0000
0000
0000
0000
0000
0000
0000
0000
0000
0000
1003
0000
0100
0000
0010
0000
0001
0000
0000
0000
0000
0000
0100
0000
0000
0001
0000
0000
1000
0000
0000
0100
0000
0000
1000
0000
0000
0010
0000
0000
,
0100
0001
1000
0100
0010
0001
0100
0010
1000
0001
0000
0000
,
2001
0000
3100
01M0
0100
1000
0100
0010
0001
0000
0011
0000
0000
0101
0000
0000
,
1002
0000
0103
01M0
0100
0001
0100
0010
1000
0000
0001
0010
0M00
0010
1000
0000
,
2001
0000
3100
01M0
0100
0010
0001
1000
0010
0000
0110
0000
0000
0101
0000
0000
,
1002
0000
0103
01M0
0100
0010
1000
0001
0010
0000
0001
0200
0000
0000
0310
0000
,
2010
0000
0000
0000
0000
0000
0000
0000
0000
0000
0000
0000
3001
0000
0000
0000
0000
0000
0010
0000
0100
0000
1000
0000
0001
0000
0000
0000
0000
0000
0100
0000
0000
0010
0000
0000
1000
0000
0000
0100
0000
0000
1000
0000
0000
0001
0000
0000
,
0100
0010
1000
0001
0100
0001
0010
0100
1000
0000
0010
1000
0001
0010
0M00
0010
,
1000
0010
0100
0001
0010
0001
1000
0001
0010
0100
0002
0000
0103
1000
0100
0010
,
0002
0000
0000
0000
0000
0000
0000
0000
0000
0000
0000
0000
0000
0000
0000
0000
0000
0000
0000
0000
0000
0000
0000
0000
1000
0000
0000
0000
0000
0000
0000
0000
1000
0000
0000
0000
0000
0000
0000
0000
1003
0000
0000
0000
0000
0000
0000
0000
0010
0000
0000
0000
0000
0000
0000
0000
0100
0000
0000
0000
0000
0000
0000
0000
0001
0000
0000
0000
0000
0000
0000
0000
1000
0000
0000
0000
0000
0000
0000
0000
0000
0000
0000
0000
0100
0000
0000
00M0
0000
0000
0100
0000
0000
0000
0000
0000
,
0001
0000
01M1
0000
0000
0M11
0000
0000
1M10
0000
0000
11M0
0000
0000
M11M
0000
,
0000
2002
0000
0000
,
0000
3003
0000
0000
0000
0000
0000
0000
0000
0000
0000
0000
0000
0000
0000
0000
;
