#VERSION:0.83;
#TITLE:鬼KYOKAN;
#SUBTITLE:;
#ARTIST:じーざすP (ワンダフル☆オポチュニティ!) feat. kradness×れをる;
#TITLETRANSLIT:Oni KYOKAN;
#SUBTITLETRANSLIT:;
#ARTISTTRANSLIT:Jesus-P (Wonderful☆Opportunity!) feat. kradnessxReol;
#GENRE:;
#CREDIT:chronon x pentaxel;
#MUSIC:Oni KYOKAN.ogg;
#BANNER:Oni KYOKAN.png;
#BACKGROUND:Oni KYOKAN-bg.png;
#CDTITLE:;
#SAMPLESTART:53.326;
#SAMPLELENGTH:24.231;
#SELECTABLE:YES;
#OFFSET:-0.002;
#BPMS:0.000=160.000
,140.000=182.000
;
#STOPS:;
#SPEEDS:0.000=1.000=0.000=0;
#SCROLLS:0.000=1.000;
#TICKCOUNTS:0.000=4;
#TIMESIGNATURES:0.000=4=4;
#LABELS:0.000=Song Start;
#COMBOS:0.000=1;
#ORIGIN:;
#PREVIEWVID:;
#JACKET:;
#CDIMAGE:;
#DISCIMAGE:;
#BGCHANGES:;
#FGCHANGES:;

//--------------- dance-single - chronon ----------------
#NOTEDATA:;
#STEPSTYPE:dance-single;
#DESCRIPTION:chronon;
#DIFFICULTY:Beginner;
#METER:4;
#RADARVALUES:0,0,0,0,0;
#NOTES:
0000
0000
0000
0000
,
0000
0000
0000
0000
,
0000
0000
0000
0000
,
0000
0000
0000
0000
,
1000
0000
0010
0010
,
0010
0000
1000
0000
,
0001
0000
1000
0000
,
0100
0000
0010
0000
,
0100
0100
0100
0000
,
1000
0000
0001
0000
,
1000
0000
0010
0000
,
0100
0000
0001
0000
,
1000
1000
1000
0000
,
0001
0000
0000
0000
,
0000
0000
0000
0000
,
1000
0000
0100
0000
,
0010
0000
0001
0000
,
0010
0000
0100
0000
,
1000
0000
0001
0000
,
1000
0000
0010
0000
,
0100
0000
0001
0000
,
0100
0000
0010
0000
,
1000
0000
0001
0000
,
1000
0000
1000
0000
,
1000
1000
1000
0000
,
0001
0001
0001
0000
,
0001
0001
0001
0000
,
0010
0000
0010
0000
,
0010
0010
0010
0000
,
0100
0100
0100
0000
,
0100
0100
0100
0000
,
1000
0000
0000
0000
,
0001
0000
0100
0000
,
0001
0000
0000
0000
,
1000
0000
0100
0000
,
2000
0000
0000
3000
,
0001
0000
0100
0000
,
0010
0000
1000
0000
,
0100
0000
0100
0000
,
1000
0000
0100
0000
,
0010
0000
0010
0000
,
0001
0000
0001
0000
,
1000
0000
0010
0000
,
0100
0100
0100
0000
,
0001
0000
0010
0000
,
0100
0000
1000
0000
,
0010
0000
0010
0000
,
1000
0000
0010
0000
,
1000
1000
1000
0000
,
0001
0001
0001
0000
,
1000
0000
0100
0000
,
0010
0010
0010
0000
,
0001
0000
1000
0000
,
0001
1000
0001
0000
,
1000
0000
0010
0000
,
0100
0000
0100
0100
,
0001
0000
0010
0000
,
0100
0000
0100
0100
,
1000
0000
0010
0000
,
0100
0000
0100
0100
,
0002
0000
0000
0000
,
0003
0000
0000
0000
,
1000
0000
0100
0000
,
0010
0000
0001
0000
,
0100
0000
0100
0000
,
0001
0000
0100
0000
,
0010
0000
0010
0000
,
1000
0000
1000
0000
,
0001
0000
0010
0000
,
0100
0100
0100
0000
,
1000
0000
0010
0000
,
0100
0000
0001
0000
,
0010
0000
0010
0000
,
0001
0000
0010
0000
,
0001
0001
0001
0000
,
1000
1000
1000
0000
,
0001
0000
0100
0000
,
0010
0010
0010
0000
,
1001
0000
0000
0000
,
0000
0000
0000
0000
,
0001
0000
1000
0000
,
0001
1000
0001
0000
;

//--------------- dance-single - chronon ----------------
#NOTEDATA:;
#STEPSTYPE:dance-single;
#DESCRIPTION:chronon;
#DIFFICULTY:Easy;
#METER:8;
#RADARVALUES:0,0,0,0,0;
#NOTES:
0000
0000
0000
0000
,
0000
0000
0000
0000
,
0000
0000
0000
0000
,
0000
0000
0000
0000
,
0001
0000
0000
0000
0010
0000
0000
0000
0100
0000
0000
0100
0000
0000
0200
0000
,
0000
1300
0100
0010
,
0001
1000
0010
0100
,
0001
1000
0100
0010
,
0001
0000
0000
0000
1000
0000
0000
0000
0001
0000
0000
0001
0000
0000
0002
0000
,
0000
0103
0010
1000
,
0001
0010
0100
1000
,
0001
0100
0010
1000
,
0001
0000
0000
0000
0100
0000
0000
0000
0010
0000
0000
0010
0000
0000
0020
0000
,
0000
1030
0000
0001
,
0000
1000
0000
0100
,
1000
0100
0010
0010
,
0001
0100
0010
0010
,
1000
0010
0100
0100
,
0000
0001
1000
1001
,
0001
0010
0100
0100
,
1000
0010
0100
0100
,
0001
0100
0001
0000
1000
0100
1000
0000
,
0100
0000
0010
0000
0001
1000
0001
0000
,
1000
0010
1000
0000
0010
1000
0000
0002
,
0000
0000
0013
0000
0100
0000
0000
2000
,
0000
0000
3010
0000
0100
0000
0000
0002
,
0000
0013
0100
0010
,
0001
0010
0001
0000
0010
0001
0000
2000
,
0000
0000
3010
0000
0100
0000
0000
0002
,
0000
0000
0013
0000
0100
0000
0000
2000
,
0000
3010
0100
0100
,
0001
1000
0001
0000
0000
1000
0001
1000
,
0000
0100
0100
0100
,
1000
0001
1000
0000
0000
0001
1000
0001
,
0000
0100
0100
0100
,
0002
0000
0000
0003
,
1000
0100
0010
0001
,
1000
0010
0100
0001
,
0100
2000
3100
0002
,
1003
0100
0010
0001
,
1000
1000
0001
0001
,
0010
0100
1000
0001
,
1000
0001
1000
0000
0100
0010
0100
0000
,
1000
0001
1000
0000
,
0001
0100
0010
1000
,
0001
0010
0100
1000
,
0100
0002
0103
2000
,
3001
0100
0010
1000
,
0001
0000
0000
0001
0000
0000
0001
0000
0000
0000
0000
0000
0000
0000
0000
0000
,
1000
0000
0000
1000
0000
0000
1000
0000
0000
0000
0000
0000
0000
0000
0000
0000
,
0001
1000
0001
0000
0010
0100
0010
0000
,
0100
1000
0100
0000
1000
0000
0001
0000
,
1001
0000
1001
0000
,
1001
1001
1001
0000
,
0001
0000
0010
0000
,
0100
0000
0001
0100
,
1000
0000
0010
0000
,
0100
0000
1000
0100
,
0001
0000
0010
0000
,
0100
0000
0001
0100
,
2000
0000
0002
0000
,
3003
0000
0000
0000
,
1001
0000
0110
0000
,
1001
0000
0000
0000
,
1000
0100
0010
0001
,
1000
0001
0100
0100
,
0001
0001
1000
1000
,
0100
0010
0001
1000
,
0001
1000
0001
0000
0010
0100
0010
0000
,
0001
1000
0001
0000
,
1000
0010
0100
0001
,
1000
0100
0010
0001
,
0010
2000
3010
0002
,
1003
0010
0100
0001
,
1000
0000
0000
1000
0000
0000
1000
0000
0000
0000
0000
0000
0000
0000
0000
0000
,
0001
0000
0000
0001
0000
0000
0001
0000
0000
0000
0000
0000
0000
0000
0000
0000
,
1000
0001
1000
0000
0100
0010
0100
0000
,
0010
0001
0010
0000
0001
0000
1000
0000
,
1001
0000
0000
0000
,
0000
0000
0000
0000
,
1001
0000
1001
0000
,
1001
1001
0110
0000
;

//--------------- dance-single - chronon x pentaxel ----------------
#NOTEDATA:;
#STEPSTYPE:dance-single;
#DESCRIPTION:chronon x pentaxel;
#DIFFICULTY:Medium;
#METER:12;
#RADARVALUES:0,0,0,0,0;
#NOTES:
0000
0000
0000
0000
,
0000
0000
0000
0000
,
0000
0000
0000
0000
,
0000
0000
0000
0000
,
1000
0000
0001
0000
0100
0000
0000
0000
0001
0000
0000
1000
0000
0000
1002
0000
,
0000
0000
0013
0000
0100
0000
2000
0000
0001
0000
0000
3010
0000
0000
2000
0000
,
0000
0000
3010
0000
0100
0000
0002
0000
1000
0000
0000
0013
0000
0000
0002
0000
,
0000
0013
0100
1000
0001
1000
0010
0200
,
1000
0000
0000
0000
1300
0000
0000
0000
0100
0000
0000
0001
0000
0000
2000
0000
,
0000
0000
3100
0000
0010
0000
0002
0000
1000
0000
0000
0103
0000
0000
0002
0000
,
0000
0000
0103
0000
0010
0000
2000
0000
0001
0000
0000
3100
0000
0000
2000
0000
,
0000
3100
0010
0001
1000
0001
0100
0010
,
0001
0000
0010
0000
0100
0000
0010
0000
1000
0000
0000
0001
0000
0000
0020
0000
,
0000
0000
0031
0010
0000
0000
0100
0000
0000
0000
1000
0000
0000
0000
0100
0010
,
0000
0000
0001
0000
0000
0000
0100
0010
0000
0000
1000
0000
0001
0000
0000
0000
,
1000
0000
0010
0000
0100
0000
0010
0000
1000
0000
0000
0001
0000
0000
1000
0000
,
0001
0000
0010
0000
0100
0000
0010
0000
0001
0000
0000
1000
0000
0000
0001
0000
,
1000
0000
0010
0000
0100
0000
0010
0000
1000
0000
0000
0100
0000
0000
0010
0000
,
0001
0000
0010
0100
1000
0001
0220
0330
,
0001
0000
0100
0000
0010
0000
0100
0000
0001
0000
0000
1000
0000
0000
0001
0000
,
1000
0000
0100
0000
0010
0000
0100
0000
1000
0000
0000
0001
0000
0000
1000
0000
,
0001
2000
0010
3000
0002
0010
0003
0021
,
0000
0031
0010
0100
1000
0010
0100
0001
,
1000
0002
0010
1003
0001
0010
0000
2100
,
0000
3001
1000
0010
1000
0010
0000
0102
,
0000
1003
0001
0010
0001
0010
0000
2100
,
0000
3001
1000
0010
1000
0001
1000
0000
,
0001
2000
0010
3001
1000
0010
0000
0102
,
0000
1003
0001
0010
0001
0010
0000
2100
,
0000
3001
1000
0010
1000
0010
0000
0102
,
0000
1003
0001
0010
0100
1000
0010
0000
,
1000
0010
0100
0001
0020
0000
0000
0130
,
1000
0020
1030
0010
0100
0001
1000
0000
,
0001
0100
0010
1000
0200
0000
0000
0310
,
0001
1000
0001
0100
0101
0000
0110
0000
,
2002
0000
0000
3003
,
0001
1000
0001
0010
0100
1000
0001
0000
,
1000
0001
1000
0010
0100
0001
1000
0000
,
0001
0010
2000
0000
3001
0100
2000
0000
,
3001
1000
0001
0100
0010
0000
1000
0000
,
0001
0001
1000
1000
0100
0010
0001
0000
,
1000
0010
0100
0001
0000
1000
0001
0000
,
1001
1100
0110
0011
,
1001
0000
1000
0000
0001
0000
0100
0001
,
1000
0001
1000
0010
0100
0001
1000
0000
,
0001
1000
0001
0010
0100
1000
0001
0000
,
1000
0010
0002
0000
1003
0100
0002
0000
,
1003
0001
1000
0100
0010
0000
0001
0000
,
1000
0000
0000
1000
0000
0000
1000
0000
0000
0000
0001
0000
1000
0000
0000
0000
,
0001
0000
0000
0001
0000
0000
0001
0000
0000
0000
1000
0000
0001
0000
0000
0000
,
2000
0000
3100
0010
0002
0000
0103
0010
,
2000
0001
0001
3001
,
1001
0000
0000
0100
0010
0100
0000
0010
,
0100
0010
0100
0000
1001
0000
0000
0000
,
1000
0000
0100
0010
0000
0001
1000
0000
,
0010
0200
0000
0000
1000
0000
0301
0000
,
1000
0001
0010
0100
,
0020
0001
1000
0031
,
0001
0000
0010
0100
0000
1000
0001
0000
,
0100
0020
0000
0000
0001
0000
1030
0000
,
2000
0002
0000
0000
,
3003
0000
0000
0000
,
0002
0000
0023
0000
,
0230
1000
1000
1300
,
0001
0000
1000
0010
1000
0001
0000
1001
,
0000
1000
0100
0010
0001
1000
0001
0000
,
1000
1000
0001
0001
0100
0010
1000
0000
,
0001
0010
0100
1000
0000
0001
1000
0000
,
1001
0101
0110
1010
,
1000
0001
1000
0001
1000
0001
1000
0001
,
1000
0100
0010
0001
1000
0001
0100
0010
,
1000
0010
0100
0001
1000
0001
0010
0100
,
1000
0100
0002
0000
1003
0010
0002
0000
,
1003
0001
1000
0010
0100
0001
1000
0000
,
0001
0000
0000
0001
0000
0000
0001
0000
0000
0000
1000
0000
0001
0000
0000
0000
,
1000
0000
0000
1000
0000
0000
1000
0000
0000
0000
0001
0000
1000
0000
0000
0000
,
0002
0000
0013
0100
2000
0000
3010
0100
,
0002
1000
1000
1003
,
1001
0000
0000
0000
0000
0000
0000
0000
0000
0000
0000
0000
0000
0000
0000
0000
0000
0000
0000
0000
0000
0000
0000
0000
0002
0003
0000
0000
0000
0000
0000
0000
0000
0000
0000
0000
2000
0000
3000
0000
0000
0000
0000
0000
0000
0000
0000
0000
0002
0000
0000
0003
0000
0000
0000
0000
0000
0000
0000
0000
2000
0000
0000
0000
3000
0000
0000
0000
0000
0000
0000
0000
0002
0000
0000
0000
0000
0003
0000
0000
0000
0000
0000
0000
2000
0000
0000
0000
0000
0000
3000
0000
0000
0000
0000
0000
,
0002
0000
0000
0000
0000
0000
0000
0003
0000
0000
0000
0000
2000
0000
0000
0000
0000
0000
0000
0000
3000
0000
0000
0000
0002
0000
0000
0000
0000
0000
0000
0000
0000
0003
0000
0000
2000
0000
0000
0000
0000
0000
0000
0000
0000
0000
3000
0000
0002
0000
0000
0000
0000
0000
0000
0000
0000
0000
0000
0003
2000
0000
0000
0000
0000
0000
0000
0000
0000
0000
0000
0000
3001
0000
0000
0000
0000
0000
0000
0000
0000
0000
0000
0000
0000
0000
0000
0000
0000
0000
0000
0000
0000
0000
0000
0000
,
1001
0000
0000
0010
0100
0010
0000
0100
,
0010
0100
0010
0000
1001
0000
0000
0000
;

//--------------- dance-single - chronon x pentaxel ----------------
#NOTEDATA:;
#STEPSTYPE:dance-single;
#DESCRIPTION:chronon x pentaxel;
#DIFFICULTY:Hard;
#METER:15;
#RADARVALUES:0.779329,0.881081,0.465696,0.731809,0.490644,656,600,56,88,0,0,0,0,0,0.779329,0.881081,0.465696,0.731809,0.490644,656,600,56,88,0,0,0,0,0;
#CHARTNAME:;
#CHARTSTYLE:;
#CREDIT:;
#NOTES:
0000
0000
0000
0000
,
0000
0000
0000
0000
,
0000
0000
0000
0000
,
0000
0000
0000
0000
,
0001
0000
1000
0000
0010
0000
1000
0000
1100
0000
0000
0110
0000
0000
0021
0000
,
0000
0000
0031
0010
0100
1000
0001
0000
2000
0000
0000
0001
0000
0000
3020
0000
,
0000
0000
1030
0010
0100
0001
1000
0000
0002
0000
0000
1000
0000
0000
0023
0000
,
0000
0000
0031
0010
0100
1000
0001
0000
1000
0000
0010
0000
0100
0000
0001
0000
,
0102
0000
1003
0000
0102
0000
1003
0000
1001
0000
0000
0011
0000
0000
1200
0000
,
0000
0000
1300
0100
0010
0001
1000
0000
0002
0000
0000
1000
0000
0000
0203
0000
,
0000
0000
0301
0100
0010
1000
0001
0000
2000
0000
0000
0001
0000
0000
3200
0000
,
0000
0000
1300
0100
0010
0001
1000
0000
0001
0000
0100
0000
0010
0000
1000
0000
,
1010
0000
0010
0000
0100
0000
0001
0000
0011
0000
0000
0110
0000
0000
1100
0000
,
0000
0000
1000
0000
0100
0000
0010
0001
0000
0001
1000
0000
0010
0000
0100
0001
,
0000
0001
1000
0000
0001
1000
0001
0010
0000
0010
0100
0000
1000
0000
0100
0010
,
0001
0000
0010
0000
0100
0000
1000
0000
0001
0000
0100
0001
0000
0100
0010
0000
,
1000
0000
0010
0000
0100
0000
0001
0000
1000
0000
0100
1000
0000
0100
0010
0000
,
0001
0000
0010
0100
0010
0000
0001
0000
0100
0000
0001
0100
0000
0000
0020
0000
,
1030
0000
0000
0000
0010
1000
0001
1000
0000
0000
0001
0000
0220
0000
0330
0000
,
1000
0000
0100
0000
0010
0000
0001
0000
1000
0000
0010
1000
0000
0010
0100
0000
,
0010
0000
0100
0000
0001
0000
1000
0000
0001
0000
0000
0010
0000
0000
0001
0000
,
1000
0002
0010
0003
2000
0010
3000
0012
,
0000
1003
0100
0001
1000
0010
0001
0100
,
0001
0200
1000
0301
0100
1000
0000
1020
,
0000
1030
0001
1000
0100
0001
0000
0021
,
0000
0031
1000
0001
0100
1000
0000
1020
,
0000
1030
0010
0100
0001
0010
0100
0100
,
1000
0200
0001
1300
0100
0001
0100
0021
,
0000
0031
1000
0001
0100
1000
0100
1020
,
0000
1030
0001
1000
0100
0001
0100
0021
,
0000
0031
1000
0010
0001
0010
0100
0010
,
1000
0010
1000
0010
0100
0001
0100
0001
0010
0000
0100
1000
0000
0000
0100
1000
,
0100
1000
0010
0000
1000
0010
0100
0001
1000
0000
0001
0000
1000
0000
0100
0000
,
1000
0100
1000
0100
0010
0001
0010
0001
0100
0000
0010
1000
0000
0000
0010
1000
,
0001
1000
0100
1000
2200
3300
0022
0033
,
2002
0000
0000
0000
3003
1000
0010
0100
,
0001
0001
1000
1000
0100
0010
0001
0200
,
0000
0301
0100
0010
1000
0100
0010
0100
,
1000
0200
0001
0000
1300
0020
0001
0000
,
1030
0001
0100
0202
0303
0100
0001
1000
,
0001
0000
1000
0002
0010
0000
1003
0001
0100
0000
0001
0000
1000
0000
0001
0000
,
0010
0001
1000
0010
1000
0001
0100
0001
,
0101
1010
1100
0011
,
0001
0000
1000
0001
1000
0000
0001
1000
0001
0000
1000
0001
1000
0100
0010
0001
,
1000
1000
0001
0001
0100
0010
1000
0200
,
0000
1300
0100
0010
0001
0100
0010
0100
,
0001
0200
1000
0000
0301
0020
1000
0000
,
0031
1000
0100
2200
3300
1000
0100
0010
,
0001
1000
0000
0001
1000
0000
0120
0000
0000
0000
0130
0010
0100
0000
0001
0000
,
0010
0100
0000
0010
0100
0000
2001
0000
0000
3000
0001
1000
0001
0000
1000
0000
,
0100
0100
0010
0001
0100
0100
0010
0100
,
0001
0000
0100
0010
0100
0000
0010
0100
0010
0000
0100
0010
0100
0001
1000
0000
,
1001
0000
0000
1000
0001
0110
0000
0001
,
1000
0001
0110
0000
1001
0000
0000
0000
,
0001
0000
0010
0200
0000
1300
0001
1000
,
0010
0200
0000
0000
1000
0000
0301
0000
,
1000
0010
0100
0001
1000
0100
0010
0100
,
1000
0200
1000
0000
0001
0000
1300
0000
,
0001
0000
0010
0200
0000
1300
0001
1000
,
0010
0200
0000
0000
1000
0000
0301
0000
,
2000
0002
0000
0000
,
3003
0000
0000
0000
,
0202
0000
0000
0303
2020
0000
0000
3030
,
1002
1000
1000
1003
,
0001
0000
0010
0000
0100
0010
0100
0000
1000
0001
1000
0000
0000
0000
1001
0000
,
0000
0000
1000
0000
0010
0100
0010
0100
0000
0001
1000
0000
0001
0000
0010
0100
,
1000
0000
0001
2000
0010
0000
3001
1000
0100
0000
0010
0000
0100
0000
1000
0000
,
0010
0000
0100
0000
0001
0000
1000
0001
0010
0000
0100
0000
1000
0000
0100
0000
,
1100
0011
0101
1010
,
1000
0000
0001
0100
0001
0000
0100
0001
0100
0000
0001
0100
0001
1000
0010
1000
,
0001
0000
0100
0000
0010
0000
1000
0001
0000
0010
0100
0000
1000
0000
0020
0000
,
1030
0000
0010
0000
0100
0000
0001
1000
0000
0100
0010
0000
0001
0000
0100
0000
,
0001
0200
1000
0000
0301
0020
1000
0000
,
0031
0010
0100
0010
0001
1000
0001
0100
,
0101
0000
0000
1010
0000
0000
1001
0000
0000
0000
1000
0001
1000
0000
0100
0000
,
1100
0000
0000
0011
0000
0000
1001
0000
0000
0000
0001
1000
0001
0000
1000
0000
,
0010
0010
0100
0001
0010
0010
0100
0010
,
0001
0000
1000
0100
1000
0000
0100
1000
0100
0000
1000
0100
1000
0001
0010
0001
,
1000
0000
0000
0000
0000
0000
0000
0000
0000
0000
0000
0000
0000
0000
0000
0000
0000
0000
0000
0000
0000
0000
0000
0000
0002
0003
0000
0000
0000
0000
0000
0000
0000
0000
0000
0000
2000
0000
3000
0000
0000
0000
0000
0000
0000
0000
0000
0000
0002
0000
0000
0003
0000
0000
0000
0000
0000
0000
0000
0000
2000
0000
0000
0000
3000
0000
0000
0000
0000
0000
0000
0000
0002
0000
0000
0000
0000
0003
0000
0000
0000
0000
0000
0000
2000
0000
0000
0000
0000
0000
3000
0000
0000
0000
0000
0000
,
0002
0000
0000
0000
0000
0000
0000
0003
0000
0000
0000
0000
2000
0000
0000
0000
0000
0000
0000
0000
3000
0000
0000
0000
0002
0000
0000
0000
0000
0000
0000
0000
0000
0003
0000
0000
2000
0000
0000
0000
0000
0000
0000
0000
0000
0000
3000
0000
0002
0000
0000
0000
0000
0000
0000
0000
0000
0000
0000
0003
2000
0000
0000
0000
0000
0000
0000
0000
0000
0000
0000
0000
3010
0000
0000
0000
0000
0000
0000
0000
0000
0000
0000
0000
0100
0000
0000
0000
0000
0000
0000
0000
0000
0000
0000
0000
,
1001
0000
0000
0001
1000
0110
0000
1000
,
0001
0000
1000
0000
0110
0000
0000
0000
2002
3003
0000
0000
0000
0000
0000
0000
;
