#VERSION:0.83;
#TITLE:オトナブルー;
#SUBTITLE:;
#ARTIST:新しい学校のリーダーズ;
#TITLETRANSLIT:OTONABLUE;
#SUBTITLETRANSLIT:;
#ARTISTTRANSLIT:ATARASHII GAKKO!;
#GENRE:REIWA ERA POP;
#ORIGIN:;
#CREDIT:;
#BANNER:OTONABLUE.png;
#BACKGROUND:OTONABLUE-bg.png;
#PREVIEWVID:;
#JACKET:OTONABLUE-jacket.png;
#CDIMAGE:;
#DISCIMAGE:OTONABLUE-EN.png;
#LYRICSPATH:OTONABLUE.lrc;
#CDTITLE:;
#MUSIC:OTONABLUE.ogg;
#OFFSET:0.084000;
#SAMPLESTART:33.146397;
#SAMPLELENGTH:11.999998;
#SELECTABLE:YES;
#BPMS:0.000=130.000;
#STOPS:;
#DELAYS:;
#WARPS:;
#TIMESIGNATURES:0.000=4=4;
#TICKCOUNTS:0.000=4;
#COMBOS:0.000=1;
#SPEEDS:0.000=1.000=0.000=0;
#SCROLLS:0.000=1.000;
#FAKES:;
#LABELS:0.000=Song Start;
#BGCHANGES:0.167=OTONABLUE.mp4=1.000=0=0=1=====,
99999=-nosongbg-=1.000=0=0=0 // don't automatically add -songbackground-
;
#KEYSOUNDS:;
#ATTACKS:
;

//---------------dance-single - ----------------
#NOTEDATA:;
#CHARTNAME:;
#STEPSTYPE:dance-single;
#DESCRIPTION:;
#CHARTSTYLE:;
#DIFFICULTY:Hard;
#METER:12;
#RADARVALUES:0.525273,0.566070,0.397504,0.377629,0.332909,370.000000,330.000000,40.000000,38.000000,0.000000,0.000000,0.000000,0.000000,0.000000,0.525273,0.566070,0.397504,0.377629,0.332909,370.000000,330.000000,40.000000,38.000000,0.000000,0.000000,0.000000,0.000000,0.000000;
#CREDIT:Ben Speirs;
#NOTES:
0000
0000
0000
0000
,
0000
0000
0000
0000
,
0000
0000
0000
0000
,
0000
0000
0000
1001
,
1000
0000
0001
0000
0100
0000
0001
0000
0010
0000
0000
0010
0000
0000
0200
0000
,
0000
0000
1300
0000
0001
0100
0000
0000
0010
1000
0010
2000
0000
0000
3001
0000
,
0000
0000
1000
0000
0010
0000
1000
0000
0100
0000
0000
0100
0000
0000
0010
0000
,
0000
0000
0030
0000
0110
0000
0000
0000
0001
0000
1000
0001
1000
0001
0000
0000
,
1000
0000
0010
0000
1000
0100
0000
0100
0000
0000
0010
0000
0001
0000
0000
0000
,
1000
0000
0010
0000
0100
0020
0000
0000
0130
0000
0001
0000
1000
0000
0000
0000
,
0001
0000
0100
0000
0001
0010
0000
0010
0000
0000
0100
0000
1000
0000
0001
0000
,
0001
0000
0100
0000
0010
0200
0000
0000
0310
0000
1000
0000
0001
0000
1000
0000
,
2100
0000
3001
0100
0102
0000
1003
0100
,
0010
0000
0010
0000
0001
1000
0000
1000
0001
0000
0100
0000
1000
0000
0100
0000
,
0102
0000
0000
0000
1003
0000
0100
0000
1000
0000
0001
0000
3100
0010
0100
0000
,
0001
0000
1000
0000
0000
0001
0000
0000
0100
0000
0100
0000
2001
0003
0000
0000
,
3313
0000
1000
0000
0001
0000
1000
0000
0100
0000
0000
0100
0000
0000
0010
0000
,
0002
0000
0000
0000
1003
0000
0000
0000
0001
0000
0100
0000
0010
0100
0010
0000
,
1000
0000
1000
0000
0001
0010
0000
0000
0001
0000
0001
0000
1000
0010
0000
0000
,
1000
0000
1000
0000
0001
0100
0000
0000
0001
0000
0001
0000
1000
0100
0000
0000
,
1000
0000
0001
0010
0000
0100
1000
0000
0010
0000
0001
0000
0010
0030
1000
0000
,
0002
0100
2003
0100
3001
0000
1001
0000
,
1000
0000
1000
0000
0100
1000
0000
0000
0001
0000
0001
0000
0100
0001
0000
0000
,
2000
0000
0010
0000
3002
0000
0010
0000
1003
0010
0000
0100
0001
0000
1000
0000
,
2010
0000
0000
0000
3001
0000
0010
0000
0001
1000
0000
1000
0100
0000
0010
0000
,
0012
0000
0000
0000
1003
0000
0010
0000
1000
0001
0000
0001
0100
0000
0000
0001
,
1000
0000
0100
0000
0001
0000
1000
0000
0010
0000
0001
0000
0100
0010
0100
0000
,
0020
0000
0130
0110
,
2001
0000
3001
0100
0010
0010
1000
0000
,
0001
0000
1000
0100
1000
0000
0001
0000
0100
0000
0101
0000
0000
0110
0000
0000
,
2001
0000
0000
0000
3100
0000
1000
0000
0010
0100
0010
0000
0100
0000
0000
0000
,
0001
0000
0001
0000
1000
0000
0000
0000
0100
0000
1100
0000
0000
0110
0000
0000
,
1002
0000
0103
0020
0000
0331
0010
1000
,
0000
0001
0000
0000
0010
0000
0100
0000
1000
0000
1100
0000
0000
0011
0000
0000
,
2001
0000
0000
0000
3010
0000
0100
0001
0000
0000
0101
0000
0000
1010
0000
0000
,
1001
0000
0000
0001
0010
0000
0220
0000
0000
0000
0330
0000
1000
0001
0000
0000
,
1100
0000
0000
0011
,
1001
0000
0000
0000
0000
0000
0000
0201
0000
0000
0000
0000
0310
0000
0000
0000
,
1001
0000
0000
0000
0000
0000
0000
0000
1010
0000
0000
0000
1000
0001
1000
0000
,
1100
0000
0000
0000
0011
0000
0000
0000
1001
0000
1000
0000
0010
0100
0010
0000
,
1000
0000
0100
0000
1000
0001
0000
0000
0001
0000
0100
0000
0001
1000
0000
0000
,
0002
0000
0010
0000
2003
0000
0010
0000
3001
0010
0000
0100
1000
0000
0001
0000
,
0102
0000
0000
0000
1003
0000
0100
0000
0001
0100
0000
0100
1000
0000
0010
0000
,
2010
0000
0000
0000
3001
0000
0100
0000
1000
0100
0000
0100
0001
0000
0000
1000
,
0001
0000
0010
0000
1000
0000
0001
0000
0100
0000
1000
0000
0010
0100
0010
0000
,
0200
0000
0320
2030
,
3200
0000
0320
0031
,
0011
0000
0001
0000
1000
0000
1000
0000
1010
0000
0010
0000
0100
0010
0100
0000
,
1001
0000
0000
0000
,
0000
0000
0000
0000
,
0000
0000
0000
0000
0101
0001
1000
0100
,
0002
0000
0000
0203
0000
0000
1300
0000
0000
0000
0001
0000
1000
0010
0000
0000
,
1000
0100
1000
0200
0000
0000
0310
0000
0001
0000
1000
0000
0001
0000
0100
0000
,
2000
0000
0000
3200
0000
0000
0331
1000
0000
0000
0000
0000
1001
0000
0000
0000
,
1000
0100
0001
0000
0000
0000
0000
0000
;

//---------------dance-single - ----------------
#NOTEDATA:;
#CHARTNAME:;
#STEPSTYPE:dance-single;
#DESCRIPTION:;
#CHARTSTYLE:;
#DIFFICULTY:Medium;
#METER:8;
#RADARVALUES:0.337878,0.350424,0.298128,0.427316,0.049688,238.000000,208.000000,30.000000,43.000000,0.000000,0.000000,0.000000,0.000000,0.000000,0.337878,0.350424,0.298128,0.427316,0.049688,238.000000,208.000000,30.000000,43.000000,0.000000,0.000000,0.000000,0.000000,0.000000;
#CREDIT:Ben Speirs;
#NOTES:
0000
0000
0000
0000
,
0000
0000
0000
0000
,
0000
0000
0000
0000
,
0000
0000
0000
1001
,
1000
0000
0100
0000
1000
0000
0000
0000
0001
0000
0000
0001
0000
0000
0000
0000
,
0100
0000
0110
0000
0010
1000
0001
0000
,
0001
0000
0010
0000
0001
0000
0000
0000
1000
0000
0000
1000
0000
0000
0000
0000
,
0010
0000
0000
0000
0100
0100
0100
0000
,
0001
0010
0200
0000
1300
0000
0000
0000
,
2000
3010
1010
0000
,
1000
0100
0020
0000
0031
0000
0000
0000
,
0002
0000
0013
0000
0011
0000
1000
0001
,
2000
0000
3000
0000
0001
0100
0010
0000
,
1000
0100
0010
0000
0001
1000
0001
0000
,
0202
0000
0303
0000
1000
0100
3320
0000
,
0031
0100
1001
0000
,
0001
0000
0100
0000
0001
0000
0000
0000
1000
0000
0000
1000
0000
0000
0000
0000
,
2200
3300
0022
0033
,
1000
0001
1000
0000
0100
0000
0100
0000
,
1000
0001
1000
0000
0010
0000
0010
0000
,
1000
0010
0100
0000
0001
0010
0100
0000
,
1200
0310
2002
3003
,
0001
0100
0001
0000
1000
0100
1000
0000
,
0002
0000
0023
0000
0130
1000
0001
0000
,
0202
0000
0303
0000
1000
0001
1000
0000
,
2200
0000
3300
0000
0001
1000
0001
0000
,
1000
0010
0100
0000
0001
0010
0100
0000
,
0020
0000
0130
0110
,
2002
0000
3003
0000
0001
1000
0100
0000
,
1000
0000
0000
0000
0010
0000
0010
0000
0000
0000
0100
0000
0000
0100
0000
0000
,
0200
0000
0300
0000
0001
0010
0100
0000
,
1000
0000
0001
0000
1000
0000
0001
0000
0000
0000
0100
0000
0000
0100
0000
0000
,
0200
0000
0000
0302
0000
0000
2003
0000
,
3100
0000
0000
0000
1000
0000
1000
0000
0000
0000
0010
0000
0000
0010
0000
0000
,
0010
0000
0000
0000
0110
0000
0000
0000
0000
0000
0100
0000
0000
0100
0000
0000
,
0100
0000
0001
2002
0000
0000
3003
0000
,
1100
0000
0000
0001
,
0101
0000
0000
0000
0000
0000
0000
0210
0000
0000
0000
0000
0310
0000
0000
0000
,
1001
0000
1100
0000
,
0110
0110
2002
3003
,
1000
0100
0010
0000
0001
0100
0010
0000
,
2000
0000
3002
0000
0013
0100
1030
0000
,
2200
0000
3300
0000
1000
0001
0100
0000
,
0202
0000
0303
0000
0001
1000
0010
0000
,
1000
1000
1000
0000
0001
0001
0001
0000
,
1002
0000
0203
0000
,
0320
0000
2030
0000
,
3001
1000
0001
1000
0001
1000
0001
1000
,
0100
0000
0000
0000
,
0000
0000
0000
0000
,
0000
0000
0000
0000
0001
0100
0001
0000
,
1000
0000
0000
1000
0000
0000
0000
0000
0001
0000
0010
0000
0100
0000
0000
0000
,
0110
0000
1001
0000
1000
0010
1000
0000
,
0001
0000
0000
0001
0000
0000
0000
0000
0000
0000
0000
0000
1001
0000
0000
0000
,
0100
0100
0100
0000
0000
0000
0000
0000
;

//---------------dance-single - ----------------
#NOTEDATA:;
#CHARTNAME:;
#STEPSTYPE:dance-single;
#DESCRIPTION:;
#CHARTSTYLE:;
#DIFFICULTY:Easy;
#METER:5;
#RADARVALUES:0.190234,0.242601,0.139126,0.357753,0.000000,134.000000,120.000000,14.000000,36.000000,0.000000,0.000000,0.000000,0.000000,0.000000,0.190234,0.242601,0.139126,0.357753,0.000000,134.000000,120.000000,14.000000,36.000000,0.000000,0.000000,0.000000,0.000000,0.000000;
#CREDIT:Ben Speirs;
#NOTES:
0000
0000
0000
0000
,
0000
0000
0000
0000
,
0000
0000
0000
0000
,
0000
0000
0000
0000
,
1000
0100
0020
0030
,
0001
1000
0001
0000
,
0001
0100
0020
0030
,
1000
0000
0000
0000
,
0001
0001
0010
0000
,
0100
0100
0010
0000
,
0100
0100
1000
0000
,
1000
1000
0010
0000
,
2000
3000
0002
0003
,
1000
0100
0010
0000
,
0002
0003
2000
3000
,
0010
0010
0000
1001
,
0001
1000
0100
0000
,
2000
3000
0002
0003
,
0200
0300
0010
0010
,
2000
3000
0100
0100
,
0020
0030
0002
0003
,
1000
0001
0200
0300
,
0001
0001
0200
0300
,
0010
0010
2000
3000
,
2002
3003
0010
0000
,
2002
3003
0010
0000
,
1000
0100
0010
0001
,
0200
0000
0300
0110
,
2002
3003
0001
0000
,
1000
0100
0010
0000
,
2002
3003
1000
0000
,
0001
0100
0010
0000
,
0220
0330
1000
0000
,
0001
0001
1000
0000
,
0220
0330
1000
0000
,
0220
0330
0001
0000
,
1001
0000
0000
0000
,
1000
0000
0010
0000
,
0100
0000
0000
0000
,
0010
0010
0010
0000
,
1000
0100
0010
0000
,
0001
0100
0010
0000
,
2002
3003
0100
0000
,
2002
3003
0100
0000
,
1000
0001
1000
0001
,
0200
0000
0300
0000
,
0020
0000
0030
0000
,
1000
0100
0010
0001
,
1001
0000
0000
0000
,
0000
0000
0000
0000
,
0000
0000
0001
0000
,
0100
0000
0010
0010
,
0010
0000
1000
0000
,
0100
0000
0010
0000
,
0000
1001
0000
0000
;

//---------------dance-single - ----------------
#NOTEDATA:;
#CHARTNAME:;
#STEPSTYPE:dance-single;
#DESCRIPTION:;
#CHARTSTYLE:;
#DIFFICULTY:Beginner;
#METER:2;
#RADARVALUES:0.109314,0.188690,0.049688,0.000000,0.000000,77.000000,72.000000,5.000000,0.000000,0.000000,0.000000,0.000000,0.000000,0.000000,0.109314,0.188690,0.049688,0.000000,0.000000,77.000000,72.000000,5.000000,0.000000,0.000000,0.000000,0.000000,0.000000,0.000000;
#CREDIT:Ben Speirs;
#NOTES:
0000
0000
0000
0000
,
0000
0000
0000
0000
,
0000
0000
0000
0000
,
0000
0000
0000
0000
,
0001
0000
0000
0000
,
0100
0000
0000
0000
,
0010
0000
0000
0000
,
1000
0000
0000
0000
,
0001
0001
0000
0000
,
0010
0000
0000
0000
,
0100
0100
0000
0000
,
1000
0000
0000
0000
,
0010
0000
0010
0000
,
0010
0000
0000
0000
,
0100
0000
0100
0000
,
0100
0000
0000
0000
,
0001
0000
0000
0000
,
0010
0000
0010
0000
,
0010
0000
0000
0100
,
0100
0000
0000
1000
,
1000
0000
1000
0000
,
1000
0000
0000
0000
,
0010
0000
0000
0010
,
0010
0000
0000
0000
,
0100
0000
0000
0000
,
0100
0000
0000
0000
,
0001
0000
0001
0000
,
0001
0000
0000
0000
,
1001
0000
0000
0000
,
1000
0000
1000
0000
,
0100
0000
0000
0000
,
0010
0000
0010
0000
,
0001
0000
0000
0000
,
1000
0000
1000
0000
,
0010
0000
0000
0100
,
0100
0000
0000
0000
,
1001
0000
0000
0000
,
0001
0000
0000
0000
,
0010
0000
0010
0000
,
0010
0010
0010
0000
,
1001
0000
0000
0000
,
1000
0000
1000
0000
,
0100
0000
0000
0000
,
0100
0000
0000
0000
,
0010
0000
0010
0000
,
0010
0000
0000
0000
,
0100
0000
0000
0000
,
1000
1000
1000
1000
,
0000
0000
0000
0000
,
0000
0000
0000
0000
,
0000
0000
1001
0000
,
0000
0000
0001
0000
,
0001
0000
0100
0000
,
0000
0000
0010
0000
,
0000
1001
0000
0000
;

//---------------dance-double - ----------------
#NOTEDATA:;
#CHARTNAME:;
#STEPSTYPE:dance-double;
#DESCRIPTION:;
#CHARTSTYLE:;
#DIFFICULTY:Hard;
#METER:12;
#RADARVALUES:0.503978,0.539114,0.387566,0.397504,0.298128,355.000000,316.000000,39.000000,40.000000,0.000000,0.000000,0.000000,0.000000,0.000000,0.503978,0.539114,0.387566,0.397504,0.298128,355.000000,316.000000,39.000000,40.000000,0.000000,0.000000,0.000000,0.000000,0.000000;
#CREDIT:Ben Speirs;
#NOTES:
// measure 0
00000000
00000000
00000000
00000000
,  // measure 1
00000000
00000000
00000000
00000000
,  // measure 2
00000000
00000000
00000000
00000000
,  // measure 3
00000000
00000000
00000000
00011000
,  // measure 4
00001000
00000000
00010000
00000000
00100000
00000000
00010000
00000000
00002000
00000000
00000000
00203000
00000000
00000000
01300000
00000000
,  // measure 5
00000000
00000000
10000000
00000000
00010000
01000000
00000000
00000000
00010000
00100000
00010000
00200000
00000000
00000000
00301000
00000000
,  // measure 6
00010000
00000000
00001000
00000000
00000010
00000000
00001000
00000000
00020000
00000000
00000000
00030020
00000000
00000000
00000130
00000000
,  // measure 7
00000000
00000000
00000000
00000000
00000101
00000000
00000000
00000000
00001000
00000000
00000001
00001000
00000001
00000000
00000000
00000000
,  // measure 8
00001000
00000000
00000010
00000000
00001000
00000001
00000000
00000001
00000000
00000000
00001000
00000000
00000100
00000000
00000000
00000000
,  // measure 9
00010000
00000000
00010000
00000000
00001000
02000000
00000000
00000000
03100000
00000000
10000000
00000000
10100000
00000000
00000000
00000000
,  // measure 10
00010000
00000000
01000000
00000000
00010000
10000000
00000000
10000000
00000000
00000000
00010000
00000000
00100000
00000000
00001000
00000000
,  // measure 11
00010000
00000000
00001000
00000000
00010000
00000020
00000000
00000000
00000130
00000000
00000001
00000000
00001000
00000000
00000100
00000000
,  // measure 12
00002100
00000000
00003001
00000010
00000012
00000000
00001003
00000010
,  // measure 13
00000100
00000000
00001000
00000000
00010000
00200000
00000000
00000000
10300000
00000000
00010000
00000000
10000000
00000000
01000000
00000000
,  // measure 14
21000000
00000000
00000000
00000000
30010000
00030000
01000000
00000000
00010000
00000000
00100000
00000000
00031000
00010000
00001000
00000000
,  // measure 15
00310000
00000000
00000010
00000000
00000000
00000100
00000000
00000000
00001000
00000000
00010000
00000000
00012000
00000000
00000000
00000000
,  // measure 16
00013000
00000000
00001000
00000000
00000100
00000000
00001000
00000000
00020000
00000000
00000000
00030200
00000000
00000000
00000310
00000000
,  // measure 17
00000002
00000000
00000000
00000000
00000103
00000000
00000000
00000000
00000001
00000000
00001000
00000000
00000100
00010000
00000100
00000000
,  // measure 18
00010000
00000000
00010000
00000000
00001000
01000000
00000000
00000000
00001000
00000000
00001000
00000000
00010000
00000100
00000000
00000000
,  // measure 19
00010000
00000000
00010000
00000000
00001000
00100000
00000000
00000000
00001000
00000000
00001000
00000000
00010000
00000010
00000000
00000000
,  // measure 20
00010000
00000000
00001000
00010000
00000000
00001000
00010000
00000000
00100000
00000000
10000000
00000000
01000000
00000000
00100000
00000000
,  // measure 21
00002000
00000000
01000000
00000000
00013000
00001000
00011000
00000000
,  // measure 22
00010000
00000000
00010000
00000000
00001000
00100000
00000000
00000000
00001000
00000000
00001000
00000000
00010000
00000010
00000000
00000000
,  // measure 23
00020000
00000100
00031000
00000000
00002000
01000000
00013000
00000000
,  // measure 24
00102000
00300000
00000000
00000000
00013000
00000000
00000100
00000000
00001000
00000010
00000000
00000010
00001030
00000000
00000000
00000000
,  // measure 25
00020100
00000000
00000000
00000000
00031000
00000000
01000000
00000000
00010000
00100000
00000000
00100000
00010000
00000000
00000000
10000000
,  // measure 26
00100000
00000000
00010000
00000000
00001000
00000000
00000100
00000000
00000001
00000000
00000010
00000000
00000100
00000010
00000100
00000000
,  // measure 27
00020000
00000000
00031000
00011000
,  // measure 28
02001000
00000000
03100000
00100000
10000000
00010000
00100000
00000000
,  // measure 29
00001000
00000000
00010000
00001000
00010000
00000000
00000010
00000000
00010000
00000000
00010100
00000000
00000000
00101000
00000000
00000000
,  // measure 30
00010020
00000000
00000000
00000000
00000130
00000000
00000100
00000000
00000001
00001000
00000001
00000000
00001000
00000000
00000000
00000000
,  // measure 31
00000100
00000000
00000100
00000000
00001000
00000000
00000010
00000000
00010000
00000000
00010010
00000000
00000000
01001000
00000000
00000000
,  // measure 32
00021000
00000000
00130000
00200000
00000000
10300000
10000000
01000000
,  // measure 33
00000000
01000000
00000000
00000000
00100000
00000000
00000000
00000000
00001000
00000000
01001000
00000000
00000000
00010010
00000000
00000000
,  // measure 34
00012000
00000000
00000000
00000000
00103000
00000000
00001000
00000000
00010000
00000000
00010100
00000000
00000000
00101000
00000000
00000000
,  // measure 35
00011000
00000000
00000000
00000010
00000100
00000000
00002002
00000000
00000000
00000000
00000000
00000000
00003003
00000000
00000000
00000000
,  // measure 36
00000101
00000000
00000000
00001010
,  // measure 37
00010100
00000000
00000000
00000000
00000000
00000000
00000000
00012000
00000000
00000000
00000000
00000000
01003000
00000000
00000000
00000000
,  // measure 38
01010000
00000000
00000000
00000000
00000000
00000000
00000000
00000000
10100000
00000000
00000000
00000000
10000000
00010000
10000000
00000000
,  // measure 39
10010000
00101000
00020200
00033300
,  // measure 40
00011000
00000000
00001000
00000000
01000000
00001000
00000000
00000000
00010000
00000000
00010000
00000000
00000100
00010000
00000000
00000000
,  // measure 41
00001000
00000000
00001000
00000000
00100000
00001000
00000000
00000000
00010000
00000000
00010000
00000000
00000010
00001000
00000000
00000000
,  // measure 42
00020100
00000300
00000000
00000000
00031000
00000000
00100000
00000000
00010000
01000000
00000000
01000000
03001000
00000000
00100000
00000000
,  // measure 43
00102000
00000000
00000000
00000000
00013000
00000000
00000010
00000000
00001000
00000100
00000000
00000100
00001000
00000000
00000000
00000001
,  // measure 44
00000100
00000000
00001000
00000000
00010000
00000000
00100000
00000000
10000000
00000000
01000000
00000000
00100000
01000000
00100000
00000000
,  // measure 45
00002000
00000000
00100000
01000000
,  // measure 46
00023000
00000000
00000010
00000100
,  // measure 47
00031000
00001000
00100000
00100000
00010000
01000000
00100000
00010000
,  // measure 48
00011000
00000000
00000000
00000000
,  // measure 49
00000000
00000000
00000000
00000000
,  // measure 50
00000000
00000000
00000000
00000000
00010000
00001000
00000100
00001000
,  // measure 51
00020000
00000000
00000000
00230000
00000000
00000000
10300000
00000000
00000000
00000000
00010000
00000000
00100000
00001000
00000000
00000000
,  // measure 52
00010000
00001000
00010000
00002000
00000000
00000000
01003000
00000000
00001000
00000000
00010000
00000000
01000000
00000000
00010000
00000000
,  // measure 53
00002000
00000000
00000000
00003020
00000000
00000000
00000331
00001000
00000000
00000000
00000000
00000000
00001001
00000000
00000000
00000000
,  // measure 54
00000001
00000100
00010000
00000000
00000000
00000000
00000000
00000000
;

//---------------dance-double - ----------------
#NOTEDATA:;
#CHARTNAME:;
#STEPSTYPE:dance-double;
#DESCRIPTION:;
#CHARTSTYLE:;
#DIFFICULTY:Medium;
#METER:8;
#RADARVALUES:0.327941,0.377380,0.218627,0.427316,0.049688,231.000000,209.000000,22.000000,43.000000,0.000000,0.000000,0.000000,0.000000,0.000000,0.327941,0.377380,0.218627,0.427316,0.049688,231.000000,209.000000,22.000000,43.000000,0.000000,0.000000,0.000000,0.000000,0.000000;
#CREDIT:Ben Speirs;
#NOTES:
// measure 0
00000000
00000000
00000000
00000000
,  // measure 1
00000000
00000000
00000000
00000000
,  // measure 2
00000000
00000000
00000000
00000000
,  // measure 3
00000000
00000000
00000000
00011000
,  // measure 4
00001000
00000000
00010000
00000000
00001000
00000000
00000000
00000000
00100000
00000000
00000000
00100000
00000000
00000000
00000000
00000000
,  // measure 5
00010000
10000000
00200000
00000000
02300000
00000000
03001000
00000000
,  // measure 6
00010000
00000000
00001000
00000000
00010000
00000000
00000000
00000000
00000010
00000000
00000000
00000010
00000000
00000000
00000100
00000000
,  // measure 7
00000000
00000000
00000000
00000000
00000010
00000010
00000010
00000000
,  // measure 8
00001000
00000001
00002000
00000000
00003100
00000000
00000000
00000000
,  // measure 9
00020000
00031000
01001000
00000000
,  // measure 10
01000000
00100000
01000000
00000000
00020000
00000000
00030000
00000000
,  // measure 11
00200000
00000000
00301000
00000000
00011000
00000000
00010000
00000010
,  // measure 12
00000200
00000000
00000300
00000000
00000001
00001000
00000001
00000000
,  // measure 13
00001000
00000100
00010000
00000000
00001000
00000000
00001000
01000000
,  // measure 14
00200000
00000000
00330000
00000000
10000000
00010000
10000000
00000000
,  // measure 15
00010000
00000000
00100000
00000000
00001000
00010000
00011000
00000000
,  // measure 16
00010000
00000000
00000010
00000000
00010000
00000000
00000000
00000000
00001000
00000000
00000000
00001000
00000000
00000000
00000000
00000000
,  // measure 17
00200000
01000000
00302000
00013000
,  // measure 18
00001000
01000000
00001000
00000000
00002000
00000000
00013000
00000000
,  // measure 19
00010000
00000100
00010000
00000000
00020000
00000000
00031000
00000000
,  // measure 20
00001000
00100000
00001000
00000000
00002000
00000000
00013000
00000000
,  // measure 21
00011000
00000110
00002002
00003003
,  // measure 22
00000001
00000100
00000010
00000000
00001000
00000000
00000100
00000000
,  // measure 23
00020000
00032000
02003000
03100000
,  // measure 24
20020000
00000000
30030000
00000000
00010000
00100000
00001000
00000000
,  // measure 25
00022000
00000000
00033000
00000000
00010000
00000010
00000100
00000000
,  // measure 26
00000001
00001000
00000001
00001000
00000001
00001000
00000001
00001000
,  // measure 27
00000200
00000000
00000310
00000000
,  // measure 28
00001001
00000000
00000001
00000000
00000100
00000010
00000100
00000000
,  // measure 29
00000010
00000000
00000000
00000000
00001000
00000000
00000000
00000000
00000000
00000000
00000100
00000000
00000000
00000100
00000000
00000000
,  // measure 30
00000200
00000000
00010300
00000000
00001000
00010000
00001000
00000000
,  // measure 31
00100000
00000000
00000000
00000000
00010000
00000000
00000000
00000000
00000000
00000000
01000000
00000000
00000000
01000000
00000000
00000000
,  // measure 32
02000000
00000000
03100000
00000000
10000000
00010000
10000000
00000000
,  // measure 33
00010000
00000000
00000000
00000000
00100000
00000000
00000000
00000000
00000000
00000000
00001000
00000000
00000000
00001000
00000000
00000000
,  // measure 34
00002000
00000000
00000000
00000000
00013000
00000000
00000000
00000000
00000000
00000000
00010000
00000000
00000000
00010000
00000000
00000000
,  // measure 35
00010000
00000000
00000000
00000220
00003000
00000000
00030330
00000000
,  // measure 36
00001001
00000000
00000000
00001000
,  // measure 37
00001100
00000000
00000000
00000000
00000000
00000000
00000000
00020100
00000000
00000000
00000000
00000000
00031000
00000000
00000000
00000000
,  // measure 38
00011000
00000000
01001000
00000000
,  // measure 39
01010000
01100000
20020000
30030000
,  // measure 40
10000000
01000000
00200000
00000000
00320000
00000000
02030000
00000000
,  // measure 41
03001000
00010000
00002000
00000000
00023000
00000000
00030010
00000000
,  // measure 42
00002002
00000000
00003003
00000000
00000001
00001000
00000100
00000000
,  // measure 43
00020200
00000000
00030300
00000000
00010000
00001000
01000000
00000000
,  // measure 44
00010000
10000000
00010000
10000000
00010000
10000000
00010000
10000000
,  // measure 45
00200000
00000000
00000000
00000000
,  // measure 46
00320000
00000000
00000000
00000000
,  // measure 47
00031000
00010000
00001000
00010000
00001000
00010000
00001000
00010000
,  // measure 48
00000100
00000000
00000000
00000000
,  // measure 49
00000000
00000000
00000000
00000000
,  // measure 50
00000000
00000000
00000000
00000000
00010000
00001000
00010000
00000000
,  // measure 51
00000010
00000000
00000000
00000010
00000000
00000000
00000000
00000000
00002000
00000000
00000000
00000000
00003100
00000000
00000000
00000000
,  // measure 52
00010000
00001000
00010000
00000000
00001000
00010000
00001000
00000000
,  // measure 53
00100000
00000000
00000000
00100000
00000000
00000000
00100000
00000000
00000000
00000000
00000000
00000000
10010000
00000000
00000000
00000000
,  // measure 54
00100000
00100000
00100000
00000000
00000000
00000000
00000000
00000000
;

//---------------dance-double - ----------------
#NOTEDATA:;
#CHARTNAME:;
#STEPSTYPE:dance-double;
#DESCRIPTION:;
#CHARTSTYLE:;
#DIFFICULTY:Easy;
#METER:4;
#RADARVALUES:0.183136,0.215646,0.079501,0.248440,0.000000,129.000000,121.000000,8.000000,25.000000,0.000000,0.000000,0.000000,0.000000,0.000000,0.183136,0.215646,0.079501,0.248440,0.000000,129.000000,121.000000,8.000000,25.000000,0.000000,0.000000,0.000000,0.000000,0.000000;
#CREDIT:Ben Speirs;
#NOTES:
00000000
00000000
00000000
00000000
,
00000000
00000000
00000000
00000000
,
00000000
00000000
00000000
00000000
,
00000000
00000000
00000000
00000000
,
00010000
00010000
00000100
00000000
,
00000010
00000000
00000001
00000000
,
00000100
00000100
00000010
00000000
,
00010000
00000000
00000000
00000000
,
00001000
00010000
00001000
00000000
,
00100000
00100000
00100000
00000000
,
00001000
00010000
00001000
00000000
,
00100000
00100000
00100000
00000000
,
00020000
00030000
20000000
30000000
,
00100000
01000000
00100000
00000000
,
20000000
30000000
00020000
00030000
,
00100000
00100000
00001000
00000000
,
00010000
00001000
00010000
00000000
,
00000020
00000030
00000200
00000300
,
00000001
00001000
00000100
00000000
,
00001000
00000001
00000100
00000000
,
00000010
00000010
00001000
00001000
,
00000100
00010000
00002000
00003000
,
00100000
00100000
00010000
00000000
,
10000000
10000000
00100000
00000000
,
20020000
30030000
00100000
00000000
,
00022000
00033000
00000010
00000000
,
00001000
00000001
00001000
00000001
,
00000200
00000000
00000300
00000000
,
00000002
00000003
00001000
00000000
,
00000100
00000100
00010000
00000000
,
00002000
00003000
01000000
00000000
,
00010000
00010000
10000000
00000000
,
00200000
00300000
10000000
00000000
,
00010000
00010000
00100000
00000000
,
00002000
00003000
00010000
00000000
,
00000020
00000030
00000100
00000000
,
00001001
00000000
00000000
00000000
,
00011000
00000000
00000000
00000000
,
10010000
00000000
00000000
00000000
,
00100000
00100000
00100000
00000000
,
10000000
01000000
00100000
00000000
,
00010000
01000000
00001000
00000000
,
00022000
00033000
00100000
00000000
,
00022000
00033000
00000010
00000000
,
00010000
00001000
00010000
00001000
,
00020000
00000000
00030000
00000000
,
00000200
00000000
00000300
00000000
,
00001000
00000001
00001000
00000001
,
00000100
00000000
00000000
00000000
,
00000000
00000000
00000000
00000000
,
00000000
00000000
00000001
00000100
,
00000010
00000000
00002000
00003000
,
00000200
00000300
00010000
00001000
,
00100000
01000000
10000000
00000000
,
00000000
10010000
00000000
00000000
;
