#TITLE:Oh Nick Please Not So Quick;
#SUBTITLE:;
#ARTIST:E-ROTIC;
#TITLETRANSLIT:;
#SUBTITLETRANSLIT:;
#ARTISTTRANSLIT:;
#GENRE:DANCEMANIA;
#CREDIT:;
#BANNER:Oh Nick Please Not So Quick.png;
#BACKGROUND:Oh Nick Please Not So Quick-bg.png;
#LYRICSPATH:;
#CDTITLE:;
#MUSIC:Oh Nick Please Not So Quick.ogg;
#OFFSET:0.205820;
#SAMPLESTART:46.528000;
#SAMPLELENGTH:15.885000;
#SELECTABLE:YES;
#BPMS:0.000000=130.313004
;
#STOPS:
;
#BGCHANGES:;
#KEYSOUNDS:;
#ATTACKS:;

//---------------dance-single - ----------------
#NOTES:
     dance-single:
     :
     Hard:
     12:
     0.428447,0.497543,0.277532,0.188005,0.152195,335.000000,304.000000,31.000000,21.000000,0.000000,0.000000,0.428447,0.497543,0.277532,0.188005,0.152195,335.000000,304.000000,31.000000,21.000000,0.000000,0.000000:
0000
0000
0000
0000
,
0000
0000
0000
0000
,
0000
0000
0000
0000
,
0000
0000
0000
0000
,
0000
0000
1000
1000
,
2000
0000
0001
0001
,
3002
0000
0103
0010
,
2000
0000
3200
0000
,
0320
0000
0032
0000
,
1003
0010
1000
0000
0101
0000
1001
0000
,
0001
0010
0001
0000
1100
0000
1001
0000
,
1000
0001
1000
0000
0110
0000
1010
0000
,
0002
0010
0010
0013
,
0100
0000
1000
0000
0010
0000
1000
0001
0000
0000
0010
0000
0100
0000
1000
0000
,
0001
0000
0100
0000
1000
0000
0100
0001
0000
0000
1000
0000
0010
0000
1000
0000
,
0001
0000
0010
0000
0100
0000
1000
0001
0000
0000
0100
0000
1000
0000
0100
0000
,
0020
1000
1000
1000
,
1030
0000
0000
0010
0000
0000
1000
0000
0001
0000
0100
0000
0010
0000
0000
0000
,
1000
0000
0000
0001
0000
0000
0010
0000
0100
0000
0001
0000
0100
0000
1000
0000
,
0010
0000
0000
0100
0000
0000
0010
0000
0100
0000
0001
0000
0010
0000
0000
0000
,
0100
0000
0000
1000
0000
0000
0001
0000
0100
0000
1000
0000
0100
0000
0000
0000
,
0001
0100
0001
0000
0010
0000
0001
0100
0010
0000
1000
0000
1000
0000
0001
0000
,
0010
1000
0010
0001
0010
0100
1000
0001
,
0100
0000
0000
0100
0000
0000
0010
0100
0010
0000
1000
0000
0001
0000
0010
0000
,
0100
0000
1000
0000
0100
0000
0010
0000
0100
1000
0010
0000
0000
0000
0220
0000
,
0000
0000
0330
0000
,
1010
0000
0000
1100
0000
0000
0001
0000
0010
0000
0001
0000
0010
0000
0000
0000
,
0011
0000
0000
0101
0000
0000
1000
0000
0100
0000
0010
0000
0001
0000
0200
0000
,
0000
0310
0000
1010
0000
0001
0010
0100
,
0000
1001
0000
0001
0100
0001
0010
0000
,
0011
0000
0000
1100
0000
0000
1000
0000
0100
0000
1000
0000
0010
0000
0000
0000
,
1010
0000
0000
0101
0000
0000
1000
0000
0100
0000
0010
0000
0001
0000
0200
0000
,
0000
0310
0000
2000
0000
3001
0000
0000
,
1000
0010
0100
0010
1000
0010
0100
0001
,
0020
0000
0001
0001
,
0032
0000
1000
0000
,
2003
0000
0010
0010
,
3020
0000
0230
0000
,
0301
0010
0011
1100
,
1000
0010
1010
0101
,
0200
0010
0010
0310
,
1001
0000
0000
1000
0010
1000
0100
0010
,
0001
1000
0000
1000
0000
0000
0001
0000
0010
0000
0001
0000
0100
0000
0010
0000
,
1000
0001
0000
0001
0000
0000
1000
0000
0100
0000
0010
0000
0001
0000
0011
0000
,
0000
1001
0000
0020
0000
0130
1000
0010
,
0000
1010
0000
0100
0001
0010
0100
1000
,
0001
0100
0000
0100
0000
0000
1000
0000
0100
0000
0001
0000
0100
0000
0010
0000
,
1000
0100
0000
0100
0000
0000
0001
0000
0100
0000
1000
0000
0100
0000
0010
0000
,
0000
0011
0000
1000
0000
1001
0000
0000
,
1000
0010
1000
0010
0100
0001
0100
0001
,
0101
1001
0000
0000
0000
0000
0000
0000
,
1100
1001
0000
0000
0000
0000
0000
0000
,
0001
0000
0010
0000
0001
0000
1000
0010
0000
0000
0100
0000
0001
0000
1000
0000
,
0100
0000
1000
0000
0001
0000
0010
0100
0000
0000
1000
0000
0010
0000
0100
0000
,
0001
1000
0001
0000
1000
0000
0100
0010
0000
0000
0001
0000
0100
0000
1000
0000
,
0100
0010
0100
0000
0010
0000
1000
0001
0000
0000
0010
0000
0100
0000
1000
0000
,
0100
0010
0100
0000
0001
0000
0100
1000
0000
0000
0010
0000
0100
0000
0001
0000
,
1000
0100
0010
0000
0001
0000
0100
0010
0000
0000
1000
0000
0001
0000
1000
0000
,
0200
0000
0300
0000
;

//---------------dance-single - ----------------
#NOTES:
     dance-single:
     :
     Challenge:
     16:
     0.576805,0.680848,0.152195,0.232768,0.447632,451.000000,434.000000,17.000000,26.000000,0.000000,0.000000,0.576805,0.680848,0.152195,0.232768,0.447632,451.000000,434.000000,17.000000,26.000000,0.000000,0.000000:
// measure 0
0000
0000
0000
0000
,  // measure 1
0000
0000
0000
0000
,  // measure 2
0000
0000
0000
0000
,  // measure 3
0000
0000
0000
0000
,  // measure 4
0000
0000
0000
0000
1000
0010
1000
0100
,  // measure 5
0020
0000
0000
0030
0010
0001
0100
0010
,  // measure 6
0200
0000
0000
0300
0001
0100
0010
1000
,  // measure 7
0002
0000
0023
0000
,  // measure 8
0230
0000
2300
0000
,  // measure 9
3001
1000
0001
0000
0100
0000
0001
0010
0000
0000
0100
0000
1000
0000
0010
0000
,  // measure 10
0100
0010
0100
0000
0001
0000
1000
0100
0000
0000
0001
0000
0100
0000
1000
0000
,  // measure 11
0001
0100
0001
0000
1000
0000
0010
0100
0000
0000
0001
0000
1000
0000
0100
0000
,  // measure 12
0020
0001
0001
0031
,  // measure 13
1000
0100
1000
0100
1000
0000
0100
0010
0000
0000
0001
1000
0010
1000
0001
0000
,  // measure 14
0100
1000
0100
1000
0100
0000
0001
1000
0000
0000
0100
0010
0001
0100
0001
0000
,  // measure 15
1000
0001
1000
0001
1000
0000
0010
0100
0000
0000
0001
0010
0100
1000
0010
0000
,  // measure 16
0200
0010
0010
0310
,  // measure 17
1000
0000
0100
0000
1000
0000
0010
0000
0100
0001
0000
1000
0010
1000
0001
0000
,  // measure 18
0010
0000
1000
0000
0010
0000
0001
0010
0001
0000
1000
0100
1000
0000
0001
0000
,  // measure 19
0100
0000
0000
0100
0000
0000
0001
0010
0001
0010
0000
0100
1000
0000
0001
0000
,  // measure 20
0100
0000
0001
0000
0010
0000
0100
1000
0001
0000
1000
0000
1001
0000
0000
0000
,  // measure 21
0001
0100
0001
0010
0001
0000
1000
0100
1000
0010
1000
0000
1000
0000
0001
0000
,  // measure 22
0100
0000
1000
0000
0100
0000
0001
0000
0100
0010
0100
0000
0010
0000
1000
0000
,  // measure 23
0001
0000
0000
0001
0000
0000
0010
0100
1000
0000
0001
0000
0100
0000
0010
0000
,  // measure 24
1000
0010
1000
0000
0001
0010
0001
0000
0010
0100
0010
0100
0010
0000
0220
0000
,  // measure 25
0000
0000
0330
1000
0001
0100
0010
1000
,  // measure 26
0001
0010
0000
0010
0001
0000
0010
0000
0100
1000
0001
0000
0100
0000
0010
0000
,  // measure 27
1000
0010
0000
0010
1000
0000
0001
0000
0010
0000
0100
0000
1000
0000
0002
0000
,  // measure 28
0000
0103
0000
1010
1000
0001
1000
0200
,  // measure 29
0000
0310
0000
0001
1000
0100
0010
0001
,  // measure 30
1000
0001
0000
0001
0100
0000
0010
0000
1000
0100
0010
0000
1000
0000
0010
0000
,  // measure 31
0001
1000
0000
1000
0010
0000
0001
0000
0010
0000
1000
0000
0001
0000
0020
0000
,  // measure 32
0000
0130
0000
2000
0000
3001
0100
0001
,  // measure 33
0010
0001
0100
0001
0010
0000
0100
0000
1000
0010
1000
0100
1000
0000
0010
0000
,  // measure 34
0200
0000
0000
0000
0310
1000
0001
0020
,  // measure 35
0000
0100
0100
0100
,  // measure 36
0230
0000
0000
0000
1300
0010
0100
0002
,  // measure 37
0000
2003
0000
3002
0000
0013
0000
0000
,  // measure 38
0100
0000
1000
0000
0001
0000
1000
0010
0100
0000
0001
0000
0010
0000
0001
0000
,  // measure 39
0100
0000
0010
0000
1000
0000
0001
0010
0100
0000
1000
0000
0010
0000
1000
0000
,  // measure 40
0001
0100
1000
0100
0001
0100
1000
0100
,  // measure 41
0220
0000
0330
1000
0001
0010
0001
1000
,  // measure 42
0100
0010
0000
0001
1000
0000
0001
0010
0100
0000
1000
0000
0001
0000
0100
0000
,  // measure 43
0010
1000
0000
0001
1000
0000
0010
0100
0001
0000
0010
0000
0100
0000
1100
0000
,  // measure 44
0000
1001
0000
0001
0100
0010
1000
1010
,  // measure 45
0000
1001
0000
1000
0001
0010
0100
1000
,  // measure 46
0001
0100
0000
1000
0100
0000
0001
1000
0010
0000
1000
0000
0100
0000
1000
0000
,  // measure 47
0001
0010
0000
1000
0010
0000
0001
0010
0001
0000
0100
0000
0001
0000
2000
0000
,  // measure 48
0000
0010
3010
2000
0000
0100
3100
0010
,  // measure 49
0001
1000
0001
1000
0010
0100
0010
0100
0001
0010
0100
1000
0001
0010
0001
0000
,  // measure 50
0011
1001
0000
0000
1010
1001
0000
0000
,  // measure 51
0101
1001
0000
0000
1100
1001
0000
0000
,  // measure 52
1000
0010
1000
0000
0001
0000
0010
0100
0000
0000
1000
0001
0100
0000
1000
0000
,  // measure 53
0100
0001
0100
0000
0010
0000
1000
0001
0000
0000
0010
0100
1000
0000
0010
0000
,  // measure 54
0100
0001
0010
0001
0100
0000
0001
1000
0000
0000
0100
0010
0001
0000
1000
0000
,  // measure 55
0100
1000
0010
1000
0100
0000
1000
0001
0000
0000
0100
0010
1000
0000
0001
0000
,  // measure 56
1000
0100
0001
0100
1000
0000
0100
0010
0000
0000
0001
1000
0010
0000
0100
0000
,  // measure 57
0001
0100
1000
0100
0001
0000
0100
0010
0000
0000
1000
0001
1000
0100
0010
0000
,  // measure 58
0220
0000
0330
0000
;

//---------------dance-single - ----------------
#NOTES:
     dance-single:
     :
     Medium:
     8:
     0.312063,0.415402,0.125337,0.125337,0.000000,244.000000,230.000000,14.000000,14.000000,0.000000,0.000000,0.312063,0.415402,0.125337,0.125337,0.000000,244.000000,230.000000,14.000000,14.000000,0.000000,0.000000:
0000
0000
0000
0000
,
0000
0000
0000
0000
,
0000
0000
0000
0000
,
0000
0000
0000
0000
,
0000
0000
0000
0000
,
2000
0000
0000
0000
,
3002
0000
0000
0000
,
0203
0000
0320
0000
,
2030
0000
3002
0000
,
1003
0010
1000
0000
0001
0000
0001
0000
,
0100
0010
0100
0000
0001
0000
1000
0000
,
0100
0010
0100
0000
0010
0000
0010
0000
,
2002
0000
0000
3003
,
0001
0010
0001
1000
0010
0000
1000
0000
,
0001
0100
1000
0100
0001
0000
1000
0000
,
0010
1000
0001
0010
0001
0000
1000
0000
,
0200
0000
0000
0300
,
1000
0000
0001
0000
1000
0100
0010
0000
,
0001
0000
0100
0000
0001
0010
0001
0000
,
1000
0000
0010
0000
0100
0001
0010
0000
,
0100
0000
1000
0000
0001
0100
0001
0000
,
1000
0010
0001
0010
1000
0010
0100
0000
,
0001
0000
0001
0000
1000
0100
0010
0000
,
0001
0000
1000
0000
0001
0010
0100
0000
,
1000
0000
1000
0000
0010
0100
0010
0100
,
0000
0000
0000
0000
0001
1000
0010
1000
,
0100
0000
0010
0000
0001
0100
1000
0100
,
0001
1000
0100
0010
,
0001
0011
1000
0010
,
1000
0000
1010
0000
0001
0100
1000
0100
,
0001
0000
1000
0000
0100
1000
0100
0010
,
0001
1000
0010
0100
,
0001
0101
1000
1100
,
0001
1000
0001
0010
,
0200
0000
1000
0000
,
2300
0000
0000
0000
,
3002
0000
0100
0000
,
0103
0010
1000
0000
,
0001
0010
0001
0100
,
0001
1000
0010
1000
,
0100
0100
0010
0010
,
2002
0000
0000
3003
,
1000
0001
1000
0000
0001
0100
0010
0000
,
1000
0010
1000
0000
0001
0000
0010
0000
,
0100
1100
1000
0010
,
0100
0101
0001
1000
,
0001
1000
0010
0000
0100
1000
0100
0000
,
0001
0100
0001
0000
1000
0000
0001
0000
,
0010
0011
1000
1010
,
0001
1000
0001
1000
0001
1000
0001
0000
,
0101
0000
1010
0000
,
1100
0000
0011
0000
,
1000
0010
0001
0010
,
1000
0001
0100
0001
,
1000
0100
0010
0100
1000
0100
0010
0000
,
0001
0100
0010
0100
0001
0100
0010
0000
,
1000
0100
1000
0010
1000
0001
0010
0000
,
0001
0100
0001
0010
0100
1000
0010
0100
,
0010
0000
0000
0000
;

//---------------dance-single - ----------------
#NOTES:
     dance-single:
     :
     Easy:
     6:
     0.235326,0.311552,0.071621,0.089526,0.000000,184.000000,176.000000,8.000000,10.000000,0.000000,0.000000,0.235326,0.311552,0.071621,0.089526,0.000000,184.000000,176.000000,8.000000,10.000000,0.000000,0.000000:
0000
0000
0000
0000
,
0000
0000
0000
0000
,
0000
0000
0000
0000
,
0000
0000
0000
0000
,
0000
0000
0000
0000
,
2000
0000
0000
3000
,
0002
0000
0000
0003
,
1000
0000
0100
0000
,
0010
0000
0100
0000
,
1000
0100
1000
0001
,
0100
0010
0100
0001
,
1000
0100
0010
0001
,
0200
0000
0000
0300
,
0001
0010
0001
0000
1000
0000
0100
0000
,
0001
0100
1000
0001
,
1000
0010
1000
0000
0001
0000
0100
0000
,
0020
0000
0000
0030
,
1000
0000
1000
0000
0001
0010
0001
0000
,
0100
0000
0010
0000
0100
0001
0100
0000
,
0001
0000
0001
0000
1000
0010
1000
0000
,
0001
0000
0010
0000
0100
1000
0100
0000
,
1000
0100
0001
0100
,
0010
0000
0010
0000
0001
1000
0001
0000
,
0001
0100
1000
0100
,
0010
0000
0010
0000
1000
0100
0010
0001
,
0000
0000
1000
1000
,
1010
0000
0001
0001
,
0011
0000
1000
0100
,
0010
0000
0001
0000
,
1000
0000
0001
0001
,
0110
0000
1000
1000
,
0110
0000
0001
1000
,
0010
0000
0100
0000
,
0010
1000
0001
0010
,
0200
0000
0000
0300
,
1000
0000
1000
0000
,
0020
0000
0000
0030
,
0100
0000
0100
0000
,
0001
0000
1000
0010
,
1000
0000
0001
0010
,
0100
0000
0000
0000
,
1001
0000
0000
0000
1000
0100
1000
0100
,
1000
0000
0000
0000
0001
0100
0001
0100
,
0001
0000
1000
0001
,
0010
0000
1000
0000
,
0010
0000
0000
0000
0001
0010
0001
0010
,
0001
0000
0000
0000
1000
0010
1000
0010
,
1000
0000
0001
0100
,
0010
0000
1000
0000
,
0001
1000
0001
1000
,
0202
0000
0303
0000
,
2200
0000
3300
0000
,
0001
1000
0010
0001
,
0010
1000
0001
0010
,
0100
1000
0100
0000
1000
0000
0001
0000
,
0100
0010
0100
0000
0001
0000
0010
0000
,
0100
1000
0010
0000
0100
0000
0001
0000
,
1000
0100
0010
0000
0001
0000
1000
0000
,
0110
0000
0000
0000
;

//---------------dance-single - ----------------
#NOTES:
     dance-single:
     :
     Beginner:
     4:
     0.170100,0.259626,0.179053,0.035811,0.000000,133.000000,113.000000,20.000000,4.000000,0.000000,0.000000,0.170100,0.259626,0.179053,0.035811,0.000000,133.000000,113.000000,20.000000,4.000000,0.000000,0.000000:
0000
0000
0000
0000
,
0000
0000
0000
0000
,
0000
0000
0000
0000
,
0000
0000
0000
0000
,
0000
0000
0000
0000
,
1000
0000
0000
0000
,
0001
0000
0000
0000
,
0010
0000
1000
0000
,
0010
0000
0001
0000
,
1000
0000
0010
0000
,
1000
0000
0001
0000
,
0100
0000
0001
0000
,
0110
0000
0000
0000
,
1000
1000
1000
0000
,
0001
0001
0001
0000
,
0010
0100
0010
0000
,
1001
0000
0000
0000
,
1000
0000
0010
0000
,
0001
0000
0010
0000
,
1000
0000
0001
0000
,
0100
0000
0001
0000
,
1000
1000
1000
1000
,
0010
0000
0100
0000
,
0001
0000
1000
0000
,
0001
0001
0001
0001
,
1001
0000
0000
0000
,
1010
0000
0001
0000
,
0011
0000
1000
1000
,
1000
0000
0001
0001
,
0001
0000
0100
0000
,
0101
0000
1000
0000
,
1100
0000
0001
0001
,
0001
0000
1000
0000
,
0010
0010
0010
0010
,
0020
0000
0000
0030
,
0000
0000
0000
0000
,
0200
0000
0000
0300
,
0000
0000
0000
0000
,
0001
0000
0010
0000
,
0001
0000
1000
0000
,
0010
0000
0100
0000
,
1001
0000
0000
0000
,
1010
0000
0101
0000
,
0011
0000
1100
0000
,
1001
0000
1000
0001
,
1000
0000
0010
0000
,
0101
0000
0011
0000
,
1100
0000
1010
0000
,
0110
0000
1001
0000
,
0001
1000
0001
1000
,
0020
0000
0030
0000
,
0200
0000
0300
0000
,
0001
0000
0001
0000
,
1000
0000
1000
0000
,
0001
0010
0001
0000
,
1000
0010
1000
0000
,
0100
0010
0100
0000
,
1000
0100
0010
0001
,
1001
0000
0000
0000
;

//---------------dance-single - ITG Style!----------------
#NOTES:
     dance-single:
     :
     Edit:
     17:
     0.612616,0.707034,0.107432,0.241721,0.581921,479.000000,467.000000,12.000000,27.000000,0.000000,0.000000,0.612616,0.707034,0.107432,0.241721,0.581921,479.000000,467.000000,12.000000,27.000000,0.000000,0.000000:
0000
0000
0000
0000
,
0000
0000
0000
0000
,
0000
0000
0000
0000
,
0000
0000
0000
0000
,
0000
0000
0000
0000
1000
0010
1000
0100
,
0020
0000
0000
0030
0010
0001
0100
0010
,
0200
0000
0000
0300
0001
0100
0010
1000
,
0002
0000
0023
0000
,
0230
0000
2300
0000
,
3001
0010
0001
0000
1000
0000
0010
0100
0000
0000
0001
0100
0010
0100
0001
0000
,
1000
0010
1000
0000
0001
0000
0010
0100
0000
0000
1000
0100
0010
0100
1000
0000
,
0001
0100
0010
1000
0100
0000
0010
0100
0000
0000
1000
0100
0010
0001
0100
0000
,
0020
1000
1000
1030
,
1000
0010
1000
0100
1000
0000
0010
0100
0000
0000
0001
0010
0100
1000
0001
0100
,
1000
0100
0001
0100
0010
0000
1000
0001
0000
0000
0010
0100
1000
0010
0100
0001
,
0010
0001
0100
0001
0010
0000
0100
1000
0000
0000
0001
0100
0010
0100
0001
0000
,
0200
0010
0010
0310
,
1000
0000
0100
0000
1000
0000
0010
0000
0100
0001
0000
1000
0010
1000
0001
0000
,
0010
0000
0100
1000
0000
0000
0001
0100
0001
1000
0010
0100
0001
1000
0010
0000
,
0100
0000
0000
0100
0000
0000
0001
0010
0001
1000
0000
0001
0010
0100
1000
0000
,
0100
0000
1000
0001
0000
0000
1000
0010
0100
0001
1000
0010
1000
0001
0010
0000
,
0100
1000
0010
1000
0100
0000
0010
0001
1000
0010
0100
0000
0100
0000
0001
0000
,
1000
0000
0100
0000
0001
0000
0100
0000
0010
0100
0010
0000
0001
0000
1000
0000
,
0010
0000
0000
0010
0000
0000
0100
0001
1000
0010
1000
0000
0001
0000
0010
0000
,
0100
1000
0001
0010
0001
1000
0010
0100
0001
0010
0100
0010
0100
0000
0220
0000
,
0000
0000
0330
1000
0001
0100
0010
1000
,
0001
0100
0000
0100
0001
0000
0010
0000
0100
1000
0001
0000
0100
0000
0010
0000
,
1000
0100
0000
0100
1000
0000
0001
0000
0100
0000
0010
0000
1000
0000
0002
0000
,
0000
0013
0000
0100
1000
0010
1000
0001
,
0000
1001
0000
0001
1000
0100
0010
0001
,
1000
0001
0000
0001
0010
0000
0100
0000
1000
0010
0100
0000
1000
0000
0100
0000
,
0001
1000
0000
1000
0100
0000
0001
0000
0100
0000
1000
0000
0100
0000
0020
0000
,
0000
0031
0000
2000
0000
3010
0100
0001
,
1000
0010
1000
0001
0100
0010
1000
0001
0010
0001
1000
0100
0010
0001
1000
0001
,
0200
0000
0000
0000
0310
1000
0001
0020
,
0000
0100
0100
0100
,
0230
0000
0000
0000
1300
0010
0100
0002
,
0000
2003
0000
3002
0000
0013
0000
0000
,
0100
0000
1000
0000
0001
0000
0100
0010
1000
0000
0001
0000
0010
0000
0001
0000
,
1000
0000
0100
0000
0001
0000
0100
0010
0001
0000
1000
0000
0010
0000
1000
0000
,
0001
0100
1000
0100
0001
0100
1000
0100
,
0220
0000
0330
1000
0001
0010
0001
1000
,
0100
0010
0000
0001
1000
0000
0010
0100
0010
0000
1000
0000
0001
0000
0010
0000
,
0100
1000
0000
0001
0100
0000
0010
1000
0001
0000
0010
0000
0100
0000
2000
0000
,
0010
3010
0100
0001
0010
0001
0100
0020
,
0100
0130
0010
1000
0001
0010
0100
1000
,
0001
0100
0000
1000
0100
0000
0001
1000
0010
0000
1000
0000
0001
0000
0100
0000
,
0001
0010
0000
1000
0010
0000
0001
1000
0100
0000
0010
0000
0001
0000
0200
0000
,
0000
1000
1300
0200
0000
0010
0310
0100
,
0001
1000
0001
0010
0100
1000
0001
0100
0001
1000
0010
1000
0001
0010
0100
0000
,
1100
1001
0000
0000
0101
1001
0000
0000
,
1010
1001
0000
0000
0011
1001
0000
0000
,
1000
0010
1000
0000
0001
0000
0010
0100
0000
0000
1000
0001
0100
0000
1000
0000
,
0100
0010
0100
0000
0001
0000
1000
0100
0000
0000
0010
0001
1000
0000
0010
0000
,
0100
0001
0010
0001
0100
0000
0001
1000
0000
0000
0100
0010
0001
1000
0010
0100
,
0001
1000
0100
0010
0100
0000
1000
0001
0000
0000
0100
1000
0100
0001
0100
0010
,
1000
0001
0010
0001
1000
0000
0100
0010
0000
0000
0001
1000
0100
0001
0100
1000
,
0100
0010
0001
1000
0001
0000
0100
0010
0000
0000
1000
0100
0010
0001
0100
0000
,
0220
0000
0330
0000
;
