#TITLE:OH NICK PLEASE NOT SO QUICK;
#SUBTITLE:(MOMO MIX);
#ARTIST:E-ROTIC;
#TITLETRANSLIT:;
#SUBTITLETRANSLIT:;
#ARTISTTRANSLIT:;
#GENRE:;
#CREDIT:D0omsdarkanine;
#MUSIC:OH NICK PLEASE NOT SO QUICK (MOMO MIX).ogg;
#BANNER:OH NICK PLEASE NOT SO QUICK (MOMO MIX).png;
#BACKGROUND:OH NICK PLEASE NOT SO QUICK (MOMO MIX)-bg.png;
#CDTITLE:;
#SAMPLESTART:12.178;
#SAMPLELENGTH:15.000;
#SELECTABLE:YES;
#OFFSET:-0.354;
#BPMS:0.000=170.000;
#STOPS:;
#BGCHANGES:;
#FGCHANGES:;

//--------------- dance-single - darkanine ----------------
#NOTES:
     dance-single:
     darkanine:
     Beginner:
     3:
     0,0,0,0,0:
0000
0000
0000
0000
,
0000
0000
0000
0000
,
0000
0000
0000
0000
,
0000
0000
0000
0000
,
0000
0000
0000
0000
,
0001
0001
0001
0000
,
1000
1000
1000
0000
,
0010
0000
0010
0000
,
0100
0100
0100
0000
,
0001
0000
1000
0000
,
0010
0000
0010
0000
,
1000
0000
0001
0000
,
0010
0000
0010
0000
,
0001
0000
0100
0000
,
1000
0000
1000
0000
,
0001
0000
0010
0000
,
1000
0000
1000
0000
,
0100
0000
0001
0000
,
0100
0000
1000
0000
,
0001
0000
0010
0000
,
0100
0100
0100
0000
,
1000
0000
0100
0000
,
0001
0000
0100
0000
,
1000
1000
1000
0000
,
0001
0001
0001
0000
,
1000
0000
0010
0000
,
0100
0000
0001
0000
,
0010
0000
0100
0000
,
1000
0000
0001
0000
,
1000
0000
0010
0000
,
0100
0000
0001
0000
,
0010
0000
0100
0000
,
0001
0000
0100
0000
,
1000
1000
1000
0000
,
0001
0000
0001
0000
,
1000
0000
1000
0000
,
0010
0010
0010
0000
,
0100
0100
0100
0000
,
0001
0000
0001
0000
,
1000
0000
1000
0000
,
0100
0100
0100
0000
,
0010
0000
0010
0000
,
1001
0000
0000
0000
,
0001
0001
0001
0000
,
1000
1000
1000
0000
,
0100
0000
0100
0000
,
0010
0000
0010
0000
,
0100
0100
0100
0000
,
0010
0010
0010
0000
,
0001
0000
0001
0000
,
1000
0000
1000
0000
,
1001
0000
0001
0000
,
1001
0000
1000
0000
,
0100
0100
0100
0000
,
0010
0010
0010
0000
,
0001
0000
0100
0000
,
1000
0000
0100
0000
,
0001
0001
0001
0000
,
1000
1000
1000
0000
,
1001
0000
0000
0000
;

//--------------- dance-single - D0omsday ----------------
#NOTES:
     dance-single:
     D0omsday:
     Easy:
     6:
     0,0,0,0,0:
0000
0000
0000
0000
,
0000
0000
0000
0000
,
0000
0000
0000
0000
,
0000
0000
0000
0000
,
0000
0000
0000
0000
,
0001
0000
0000
0010
0000
0000
0001
0000
,
1000
0000
0000
0010
0000
0000
1000
0000
,
0100
0000
0100
0000
,
0010
0000
0010
0001
,
1000
0000
0001
0100
,
0010
0000
1000
0001
,
0010
0010
0100
0100
,
1000
1000
0001
0001
,
0100
0000
0010
1000
,
0001
0000
0010
0001
,
1000
1000
0010
0010
,
0100
0100
0001
0001
,
0010
0000
0000
0100
0000
0000
1000
0000
,
0001
0000
0000
0100
0000
0000
0010
0000
,
1000
0000
0000
0001
0000
0000
0010
0000
,
0100
0100
1000
1000
,
0001
0000
0000
0100
0000
0000
0010
0000
,
1000
0000
0000
0100
0000
0000
1000
0000
,
0001
0000
0001
0000
,
0010
0000
0010
0000
,
0001
0000
0100
0100
,
0010
0000
1000
1000
,
0001
0000
0010
0010
,
0100
0000
1000
0001
,
1000
0000
0010
0010
,
0100
0000
0001
0001
,
0010
0000
0100
0100
,
1000
1000
0010
0010
,
1001
0000
0000
0000
,
1000
0000
0100
1000
,
0010
0000
0100
0001
,
1000
1000
0100
0100
,
0010
0010
0001
0001
,
1000
0000
0010
1000
,
0001
0000
0010
0001
,
1000
1000
0010
0010
,
0100
0100
0001
0001
,
1001
0000
0000
0000
,
0001
0100
0010
1000
,
0100
0010
0100
1000
,
0001
0001
0100
0100
,
0010
0010
1000
1000
,
0001
0010
0001
1000
,
0010
1000
0100
0010
,
0001
0001
0100
0100
,
0010
0010
1000
1000
,
0100
0000
0000
0010
0000
0000
0001
0000
,
1000
0000
0000
0010
0000
0000
0100
0000
,
0010
0000
0000
1000
0000
0000
0001
0000
,
0100
0100
0010
0000
,
1000
0000
0000
0001
0000
0000
0010
0000
,
0001
0000
0000
1000
0000
0000
0010
0000
,
0100
0000
0100
0000
,
0001
0001
1000
1000
,
1001
0000
0000
0000
;

//--------------- dance-single - D0omsday ----------------
#NOTES:
     dance-single:
     D0omsday:
     Medium:
     9:
     0,0,0,0,0:
0000
0000
0000
0000
,
0000
0000
0000
0000
,
0000
0000
0000
0000
,
0000
0000
0000
0000
,
0000
0000
0000
0000
,
0001
0100
0000
0010
0000
0100
0001
0000
,
1000
0100
0000
0010
0000
0100
1000
0000
,
0001
0000
0001
0000
0100
0010
0100
0000
,
0001
0000
0010
0000
0100
1000
0100
0000
,
0010
0000
0001
0000
0100
0010
0100
0000
,
0001
0000
1000
0000
0100
0010
0100
0000
,
1000
0100
0001
0100
,
1000
0000
0001
0000
0010
0000
1000
0010
,
0100
0000
1000
0000
0001
0100
0001
0000
,
1000
0000
0010
0000
0100
0001
0100
0000
,
0001
0010
1000
0010
,
0001
0000
1000
0000
0010
0000
0100
0001
,
0100
0010
0000
1000
0000
0010
0100
0000
,
0001
0010
0000
0100
0000
0010
0001
0000
,
1000
0010
0000
0100
0000
0010
1000
0000
,
0100
0100
0010
0010
,
0001
0100
0000
0010
0000
0100
0001
0000
,
1000
0100
0000
0010
0000
0100
1000
0000
,
0001
0000
0001
0000
0100
0010
0100
0000
,
0001
0000
0010
0000
0100
1000
0100
0000
,
0010
0010
0001
0001
,
1000
0010
1000
0001
,
0100
0100
0010
0010
,
1000
0001
0010
0100
,
1000
1000
0001
0001
,
0100
0010
1000
0100
,
0010
0010
0001
0001
,
1000
0010
0100
0001
,
1001
0000
0000
0000
,
1000
0000
0001
0000
0100
0010
0100
0000
,
0001
0000
1000
0000
0100
0010
0100
0000
,
1000
0100
0001
0100
,
1000
0000
0001
0000
0010
0000
1000
0010
,
0100
0000
1000
0000
0001
0100
0001
0000
,
1000
0000
0010
0000
0100
0001
0100
0000
,
0001
0100
1000
0100
,
0001
0000
1000
0000
0100
0000
0010
0001
,
0010
0000
0000
0000
,
0001
0000
1000
0000
0001
0100
0010
0000
,
1000
0000
0001
0000
1000
0100
0010
0000
,
0001
0010
1000
0010
,
0001
0000
1000
0000
0100
0000
0001
0100
,
0010
0000
0001
0000
1000
0010
0100
0000
,
0001
0000
0010
0000
0100
1000
0010
0000
,
1000
0010
0001
0010
,
1000
0000
0001
0000
0010
0000
0100
1000
,
0001
0100
0000
0010
0000
1000
0100
0000
,
0010
0001
0000
1000
0000
0010
0100
0000
,
0010
1000
0000
0001
0000
0010
0100
1000
,
0000
0010
0000
1000
0000
0001
0010
0000
,
0100
1000
0000
0010
0000
0100
0001
0000
,
0010
0100
0000
1000
0000
0001
0100
0000
,
0010
0000
0010
0000
1000
0001
1000
0000
,
0100
0000
0100
0000
1000
0001
0100
0000
,
1001
0000
0000
0000
;

//--------------- dance-single - D0omsdarkanine ----------------
#NOTES:
     dance-single:
     D0omsdarkanine:
     Hard:
     13:
     0,0,0,0,0:
0000
0000
0000
0000
,
0000
0000
0000
0000
,
0000
0000
0000
0000
,
0000
0000
0000
0000
,
0000
0000
0000
0000
,
0001
0100
0010
0001
0000
0010
1000
0001
,
1000
0100
0010
1000
0000
0010
0100
1000
,
0001
0000
0000
0001
0000
0000
0001
0000
0010
0000
0100
0000
1000
0000
0100
0000
,
0010
0000
0000
0010
0000
0000
0010
0000
0001
0000
1000
0000
0010
0000
1000
0000
,
0001
0000
0100
1000
0100
0010
0100
0001
,
0010
0000
0100
0001
0100
0010
0100
1000
,
0010
0000
1000
0010
0001
0000
0010
0100
,
1000
0000
0100
0010
1000
0100
0010
0010
,
0001
0000
0010
1000
0010
0100
0010
0001
,
0100
0000
0010
0001
0010
0100
0010
1000
,
0100
0000
0001
0100
1000
0000
0100
0010
,
1000
0000
0000
0000
0010
0000
0100
0000
1000
0000
0000
1000
0100
0000
0010
0000
,
0001
0100
0010
0001
0000
0010
0100
0001
,
1000
0010
0100
1000
0000
0100
0010
1000
,
0001
0100
0010
0001
0000
0010
0100
0001
,
1000
0010
0000
0100
0001
1000
0100
1000
,
0001
0010
0100
0001
0000
0100
0010
0001
,
1000
0100
0010
1000
0000
0010
0100
1000
,
0001
0000
0000
0001
0000
0000
0001
0000
0100
0000
0010
0000
1000
0000
0001
0000
,
0010
0000
0000
0010
0000
0000
0010
0000
0100
0000
0000
0000
1000
0000
0000
0000
,
0100
0000
0000
0010
0000
0000
0100
0000
1000
0000
0001
0000
0010
0000
0100
0000
,
1000
0000
0000
0010
0000
0000
0100
0000
0001
0000
1000
0000
0010
0000
1000
0000
,
0001
0000
0000
0010
0000
0000
0100
0000
1000
0000
0001
0000
0010
0000
0100
0000
,
1000
0000
0000
0010
0000
0000
0100
0000
0010
0000
1000
0000
0001
0000
1000
0000
,
0100
0000
0000
0001
0000
0000
0100
0000
0010
0000
0001
0000
1000
0000
0010
0000
,
0100
0000
0000
1000
0000
0000
0100
0000
0010
0000
0100
0000
0001
0000
1000
0000
,
0100
0000
0000
0001
0000
0000
0100
0000
0010
0000
0001
0000
1000
0000
0001
0000
,
0100
0000
0000
1000
0000
0000
0100
0000
0010
0000
1000
0000
0010
0000
0100
0000
,
0001
0000
0000
0001
0000
0000
0001
0000
1000
0000
0001
1000
0001
0000
1000
0000
,
0100
0000
0001
0100
0010
0100
1000
0001
,
0100
0000
1000
0100
0010
0100
0001
1000
,
0100
0000
1000
0100
0010
0000
0001
0010
,
1000
0000
0001
0100
1000
0001
0100
0100
,
0010
0000
0001
0010
0100
0010
1000
0001
,
0010
0000
1000
0010
0100
0010
0001
1000
,
0010
0000
0100
0010
0001
0000
1000
0100
,
0001
0000
0000
0000
0100
0000
0010
0000
1000
0000
0000
0001
0000
0000
0001
1000
,
0001
0000
0000
0001
0000
0000
0001
0000
1000
0100
0000
0100
1000
0000
1000
0000
,
0001
0000
0100
1000
0100
0001
0100
0010
,
1000
0000
0100
0001
0100
1000
0100
0010
,
0001
0000
1000
0010
0001
0000
0010
0100
,
1000
0000
0100
0001
1000
0010
0100
0100
,
0001
0000
0010
1000
0010
0001
0010
0100
,
1000
0000
0010
0001
0010
1000
0010
0100
,
0001
0000
1000
0100
0001
0000
0100
0010
,
1000
0000
0010
0001
1000
0000
0100
0010
,
0001
0100
0010
0001
0000
0010
0100
0001
,
1000
0010
0100
1000
0000
0100
0010
1000
,
0001
0100
0010
0001
0010
0100
0001
1000
,
0000
0100
0000
0001
0000
0100
0010
0100
,
1000
0001
0010
1000
0000
0010
0100
0010
,
0001
1000
0100
0001
0000
0100
0010
0001
,
1000
0000
0000
1000
0000
0000
1000
0000
0100
0000
0010
0000
0001
0000
0100
0000
,
0010
0000
0000
0010
0000
0000
0010
0000
0001
0000
0010
0000
1000
0000
0001
0000
,
1001
0000
0000
0000
;

//--------------- dance-single - D0omsdarkanine ----------------
#NOTES:
     dance-single:
     D0omsdarkanine:
     Challenge:
     17:
     0,0,0,0,0:
0000
0000
0000
0000
,
0000
0000
0000
0000
,
0000
0000
0000
0000
,
0000
0000
0000
0000
,
0000
0000
0000
0000
,
0001
1000
0010
0110
0001
1000
1000
0010
,
1000
0001
0010
0110
1000
0001
0001
0010
,
0001
0000
0000
0100
0001
0000
1000
0000
0001
0000
0010
0000
0001
0000
1000
0000
,
0001
0010
0001
0010
0001
0010
0100
1000
0001
0100
0001
1000
0100
0010
0100
0010
,
0001
0000
1000
0000
0010
0000
0001
0010
0001
0000
0010
1000
0010
0000
1000
0100
,
1000
0000
0001
0000
0010
0000
1000
0010
1000
0000
0010
0001
0010
0000
0001
0100
,
0001
0100
1000
0100
0001
1000
0010
0001
,
0010
0000
1000
0000
0001
0000
0100
0010
0100
0000
0010
0100
0010
0000
0010
0000
,
1000
0000
0001
0000
0010
0000
1000
0010
1000
0000
0010
0001
0010
0000
0001
0100
,
0001
0000
1000
0000
0010
0000
0001
0010
0001
0000
0010
1000
0010
0000
1000
0100
,
1000
0100
0001
0100
1000
0001
0010
1000
,
0010
0000
0001
0010
0001
0000
1000
0000
0001
0000
0010
0100
0010
0000
0010
0001
,
1000
0000
0010
0000
0001
0000
1000
0000
0100
0000
0010
1000
0001
0000
1000
0000
,
0001
0000
0100
0000
1000
0000
0001
0000
0010
0000
0100
0001
1000
0000
0001
0000
,
1000
0000
0010
0000
0001
0000
1000
0000
0100
0000
0001
1000
0010
0000
0100
0000
,
1000
0000
0100
0000
0010
0000
1000
0000
0001
0000
0001
0010
0100
0000
0010
0100
,
1000
0000
0100
0000
0001
0000
1000
0000
0010
0000
0100
1000
0001
0000
1000
0000
,
0001
0000
0010
0000
1000
0000
0001
0000
0100
0000
0010
0001
1000
0000
0001
0000
,
1000
0000
0000
0100
1000
0000
0001
0000
1000
0000
0010
0000
1000
0000
0001
0000
,
1000
0010
1000
0010
1000
0010
1000
0010
0100
0001
0100
0010
1000
0001
1000
0100
,
0010
0000
0000
0010
0001
0000
0010
0000
0100
1000
0100
0000
0100
0000
1000
0000
,
0001
0000
0000
0001
0100
0000
0001
0000
0010
0100
1000
0000
1000
0000
0010
0000
,
1000
0000
0000
1000
0100
0000
1000
0000
0001
0010
0001
0000
0001
0000
0100
0000
,
0010
0000
0000
0010
1000
0000
0010
0000
0100
0001
0100
0010
1000
0000
1000
0000
,
0001
0000
0010
0001
0010
0000
0001
0000
0010
0100
0010
0100
0010
0000
0100
0000
,
1000
0000
0100
1000
0100
0000
1000
0000
0001
1000
0001
1000
0001
0000
1000
0000
,
0010
0000
0100
0010
0100
0000
0001
0000
0100
0001
0100
0001
0100
0000
0001
0000
,
0010
0000
0000
0010
0100
0000
0000
0100
0010
0001
0010
0001
1000
0001
1000
0010
,
0100
0000
0000
0100
0000
0000
0100
0000
0010
0000
0100
0010
0100
0000
0100
0000
,
0001
0000
1000
0000
0100
0000
0001
0100
0001
0000
0100
1000
0100
0000
1000
0010
,
1000
0000
0010
0000
0100
0000
1000
0100
1000
0000
0100
0001
0100
0000
0001
0010
,
0001
0000
1000
0000
0100
0000
0010
0001
0100
0000
0100
0001
0010
0000
0100
0000
,
1000
0000
0001
0000
0100
0000
0010
1000
0100
0000
0100
1000
0010
0000
0010
0000
,
1000
0000
0001
0000
0100
0000
1000
0100
1000
0000
0100
0001
0100
0000
0001
0010
,
0001
0000
0010
0000
0100
0000
0001
0100
0001
0000
0100
1000
0100
0000
1000
0010
,
1000
0010
0100
0001
1000
0100
0010
0001
,
1000
0000
0000
0100
1000
0000
0001
0000
1000
0010
1000
0010
1000
0010
0100
0001
,
1000
0000
0000
1000
0000
0000
1000
0000
0001
1000
0000
1000
0001
0000
0100
0000
,
0010
0000
0100
0000
1000
0000
0100
0000
0010
1000
0001
1000
0100
0000
0010
0000
,
0010
0000
1000
0000
0010
0000
0100
0000
0010
0001
1000
0001
0100
0000
0100
0000
,
0001
0000
0001
0000
0010
0000
0010
0000
0001
0000
0100
0001
1000
0000
0001
1000
,
0010
0000
0010
0000
0100
0000
0100
0000
0001
0000
0100
0010
1000
0000
0100
0010
,
0001
0000
0010
0000
1000
0000
0010
0000
0100
1000
0001
1000
0010
0000
0100
0000
,
0100
0000
0010
0000
0001
0000
0010
1000
0001
0000
1000
0100
0010
0000
0010
0000
,
0100
0000
0001
0000
0100
0000
0010
0000
0001
0000
0100
0010
1000
0000
1000
0000
,
0001
0000
0000
0001
0100
0000
0010
0000
1000
0000
0000
1000
0100
0000
0100
0010
,
0001
0000
1000
0000
0010
0000
0110
0000
0100
0000
1000
0100
0010
0000
1000
0000
,
0001
0000
0010
0000
0100
0000
0110
0000
0010
0000
1000
0010
0100
0000
1000
0000
,
0010
0000
0100
0000
0010
0000
0110
0000
0100
0000
1000
0100
0010
0000
0001
0000
,
0010
1000
0010
0100
0001
0100
0010
0010
,
1000
0000
0001
0000
0010
0000
0110
0000
0100
0000
0001
0100
0010
0000
0100
0000
,
1000
0000
0010
0000
0100
0000
0110
0000
0010
0000
0001
0010
0100
0000
0001
0000
,
1000
0000
0000
0100
1000
0000
0001
0000
1000
0000
0010
0000
1000
0000
0001
0000
,
1000
0010
1000
0010
1000
0010
1000
0010
1000
0010
0100
0010
1000
0001
0010
0001
,
0100
0000
0000
0000
;
