#TITLE:オッド♡ラヴィ;
#SUBTITLE:;
#ARTIST:lapix feat. PANXI;
#TITLETRANSLIT:ODD♡LOVEY;
#SUBTITLETRANSLIT:;
#ARTISTTRANSLIT:;
#GENRE:LOVELY TECHCORE;
#CREDIT:;
#BANNER:Odd Lovey.png;
#BACKGROUND:Odd Lovey-bg.png;
#LYRICSPATH:Odd Lovey.lrc;
#CDTITLE:;
#MUSIC:Odd Lovey.ogg;
#OFFSET:-0.002000;
#SAMPLESTART:83.702103;
#SAMPLELENGTH:12.000000;
#SELECTABLE:YES;
#BPMS:0.000000=172.000000
;
#STOPS:
;
#BGCHANGES:0.000=ODD LOVEY.mp4=1.000=0=0=0=StretchNoLoop====,
99999=-nosongbg-=1.000=0=0=0 // don't automatically add -songbackground-
;
#KEYSOUNDS:;
#ATTACKS:;

//---------------dance-single - ----------------
#NOTES:
     dance-single:
     :
     Hard:
     14:
     0.712219,0.746229,0.443917,0.614654,0.315864,584.000000,532.000000,52.000000,72.000000,0.000000,0.000000,0.712219,0.746229,0.443917,0.614654,0.315864,584.000000,532.000000,52.000000,72.000000,0.000000,0.000000:
// measure 0
0000
0000
0000
0000
,  // measure 1
0000
0000
0000
0000
,  // measure 2
0000
0000
0000
0000
,  // measure 3
0000
0000
0000
0000
,  // measure 4
0001
0100
0010
1000
0001
0010
0001
0010
,  // measure 5
0100
1000
0010
0200
0000
0302
0000
0000
,  // measure 6
1003
0100
0010
0001
1000
0010
1000
0010
,  // measure 7
0100
0001
0010
0200
0000
2300
0000
0000
,  // measure 8
3001
0100
2000
0000
3100
0010
0100
0010
,  // measure 9
1000
0100
0001
0200
0000
2300
0000
0000
,  // measure 10
3001
0000
0000
0101
0000
0000
0001
0000
1000
0000
0000
1100
0000
0000
1002
0000
,  // measure 11
0000
0103
0010
0100
0002
0000
1003
0000
,  // measure 12
1010
0000
0000
1000
0100
0000
1000
0000
0010
0100
0010
0000
0100
0000
0001
0000
,  // measure 13
1000
0002
0000
1003
0100
0010
0001
0000
,  // measure 14
0011
0000
0000
0001
0010
0000
0001
0000
0100
0010
0100
0000
0010
0000
1000
0000
,  // measure 15
0001
2000
0000
3001
0010
0100
1000
0000
,  // measure 16
0001
0000
1000
0100
0000
0000
1000
0000
1000
0000
0001
0100
0000
0000
0001
0000
,  // measure 17
0001
0010
0100
2100
0000
0001
3001
0000
,  // measure 18
1001
0000
1100
0000
0001
0100
0110
0000
,  // measure 19
1000
0100
0010
0001
2000
0000
3301
0000
,  // measure 20
0202
0000
0000
0300
,  // measure 21
2000
0000
0003
3100
,  // measure 22
1002
0000
0103
0000
0101
0000
1000
0001
,  // measure 23
1000
0001
0010
0100
1000
0000
1100
0000
,  // measure 24
0001
0001
0100
0000
0110
0000
1000
0001
,  // measure 25
1000
0000
0100
0000
0010
0001
0000
0000
1000
0000
0010
0000
0100
0000
0000
0000
,  // measure 26
0002
0000
0000
0000
0023
0000
0000
0000
0130
0000
0000
0100
0000
0000
1000
0000
,  // measure 27
0020
0000
0000
0000
0130
0000
0000
0000
0001
1000
0001
0000
1001
0000
0000
0000
,  // measure 28
1000
0000
0001
0100
0000
0001
0100
0000
0020
0000
0000
2030
0000
0000
3001
0000
,  // measure 29
0010
0000
0100
1000
0000
0100
1000
0000
0001
0000
0100
0000
0010
0000
0000
0000
,  // measure 30
2000
0000
0000
0000
3100
0000
0000
0000
1000
0000
0000
0001
0100
0000
0010
0000
,  // measure 31
1000
0000
0100
0010
0000
0010
0001
0000
0200
0000
0010
0000
0310
0000
0000
0000
,  // measure 32
2010
0000
3001
0010
1000
0010
0001
0000
,  // measure 33
1000
0001
0000
0000
1000
0000
0010
0000
0100
0000
0001
0000
2000
0000
0000
0000
,  // measure 34
3010
0010
0010
1000
0200
0000
0310
0022
,  // measure 35
0000
0000
0033
0000
1000
0000
0001
0100
0000
0100
0010
0000
1000
0000
0000
0000
,  // measure 36
2010
0001
0001
0001
,  // measure 37
0001
0001
0001
3001
,  // measure 38
1002
0000
0023
0000
0230
0000
0331
0100
,  // measure 39
1000
0200
0000
1330
0010
0200
0000
0331
,  // measure 40
1000
0010
1000
0100
0010
0001
0010
0001
,  // measure 41
1000
0010
0100
0001
0010
0100
0010
0100
,  // measure 42
1000
0100
1000
0000
0001
0000
0100
0000
0010
0100
0010
0000
1000
0000
0001
0000
,  // measure 43
1000
0100
0001
0100
2000
0000
3001
0000
,  // measure 44
1001
0000
0000
0000
0000
0000
0202
0000
0303
0303
0000
0000
0220
0000
0333
0303
0000
0000
0202
0000
0303
0303
0000
0000
,  // measure 45
2002
0000
3003
3003
0000
0000
2020
0000
3033
3003
0000
0000
0001
0000
0000
0010
0000
0000
0100
0000
0000
1000
0000
0000
,  // measure 46
0010
0000
0000
0010
0000
0000
2020
0000
3030
3030
0000
0000
2002
0000
3033
3030
0000
0000
2020
0000
3030
3030
0000
0000
,  // measure 47
0001
1003
0001
3103
0010
0010
1000
0000
,  // measure 48
0001
0010
0011
2000
0000
3010
1010
0002
,  // measure 49
0000
0000
1003
0000
0100
0000
0010
0001
0000
1000
0001
0000
0100
0000
0000
0000
,  // measure 50
0001
0000
0100
0000
1000
0000
0100
0010
0000
0100
0010
0000
1000
0000
0100
0000
,  // measure 51
0010
0010
0001
0001
2000
0000
3010
0100
,  // measure 52
0001
0000
1010
1000
0001
1000
0010
0100
,  // measure 53
0001
0000
0101
0001
1000
0001
0010
0100
,  // measure 54
1000
0010
0001
0010
2000
0000
3100
0010
,  // measure 55
0001
0001
0001
0100
0020
0000
1030
0000
,  // measure 56
2001
0000
0000
0000
3010
0000
0100
0000
0001
0010
0000
0100
1000
0000
0001
0100
,  // measure 57
0001
0000
1000
0000
0100
0000
0010
0100
0010
0000
0001
0000
1000
0000
0000
0000
,  // measure 58
0001
0010
0001
0000
1000
0000
0001
0000
1000
0010
1000
0000
0001
0000
1000
0000
,  // measure 59
0001
0010
0100
1000
0010
0000
1001
0000
,  // measure 60
0001
0000
1000
0100
0000
1000
0010
0000
1000
0000
0001
0100
0000
0001
0010
0000
,  // measure 61
0001
0000
1000
0010
0000
0100
0001
0000
0010
0000
0000
0000
1100
0000
0000
0000
,  // measure 62
1000
0000
0001
0010
0000
0001
0100
0000
0001
0000
1000
0010
0000
1000
0100
0000
,  // measure 63
1000
0000
0001
0100
0000
0010
1000
0000
0100
0000
0000
0000
0011
0000
0000
0000
,  // measure 64
2000
0010
3001
0000
0002
0010
1003
0000
,  // measure 65
0001
0000
0100
0000
0010
0100
0000
0010
1000
0000
0001
0000
0010
0000
0000
0000
,  // measure 66
0011
0000
1100
0000
0001
0100
1000
0200
,  // measure 67
0000
0000
0010
0000
0310
0000
1000
0000
0001
1000
0001
0000
0010
0000
0000
0000
,  // measure 68
0001
0000
1000
0010
0000
0100
0001
0000
1000
0000
0001
0010
0000
0100
1000
0000
,  // measure 69
0001
0000
1000
0010
0000
0010
1000
0000
0001
0000
0100
0000
0101
0000
0000
0000
,  // measure 70
1000
0000
0001
0010
0000
0100
1000
0000
0001
0000
1000
0010
0000
0100
0001
0000
,  // measure 71
1000
0000
0001
0010
0000
0010
0001
0000
1000
0000
0100
0000
1100
0000
0000
0000
,  // measure 72
0012
0000
1000
1000
2003
0000
3010
0000
,  // measure 73
1000
0001
0000
0000
1000
0000
0100
0000
0020
0000
0000
0000
0031
0000
1000
0000
,  // measure 74
0010
0010
0010
0000
2010
0000
3001
0021
,  // measure 75
0000
0000
0000
0000
0130
0000
0000
0000
0100
0000
1000
0001
1000
0000
0000
0000
,  // measure 76
0001
0000
0100
0000
1000
0000
0100
0000
0010
0100
0010
0000
1000
0000
0100
0000
,  // measure 77
0010
0100
0001
0100
1000
0010
0100
0001
,  // measure 78
0011
0000
1002
1000
1003
0000
1100
0000
,  // measure 79
1100
0000
2001
0001
3001
0000
0101
0000
,  // measure 80
2010
0000
3001
0010
0012
0000
1003
0010
,  // measure 81
0100
0100
0001
0010
0100
0100
1000
0001
,  // measure 82
1000
0100
1000
0000
0001
0000
0010
0000
0001
0100
0001
0000
0100
0000
2002
0000
,  // measure 83
0000
3333
0000
0000
;

//---------------dance-single - ----------------
#NOTES:
     dance-single:
     :
     Challenge:
     16:
     0.886615,1.066041,0.392696,0.708560,0.742707,727.000000,681.000000,46.000000,83.000000,0.000000,0.000000,0.886615,1.066041,0.392696,0.708560,0.742707,727.000000,681.000000,46.000000,83.000000,0.000000,0.000000:
// measure 0
0000
0000
0000
0000
,  // measure 1
0000
0000
0000
0000
,  // measure 2
0000
0000
0000
0000
,  // measure 3
0000
0000
0000
0000
,  // measure 4
1000
0010
0100
0001
0010
1000
0010
1000
,  // measure 5
0010
0000
0001
0000
0100
0000
0010
0100
0000
0001
2030
0000
0000
0000
0000
0000
,  // measure 6
3001
0100
0010
1000
0100
0001
0100
0001
,  // measure 7
0100
0000
1000
0000
0010
0000
0100
0010
0000
1000
0302
0000
0000
0000
0000
0000
,  // measure 8
1003
0100
0010
0001
0100
0100
0010
0010
,  // measure 9
1000
0000
0001
0000
0010
0000
0100
1000
0000
0001
0100
0000
0010
0000
1000
0000
,  // measure 10
0100
0000
0000
1100
0000
0000
0001
0000
0001
0000
0000
0101
0000
0000
2002
0000
,  // measure 11
0000
0000
0000
0000
3003
0000
0000
0000
0001
0010
0100
1000
0001
0000
0000
0000
,  // measure 12
1000
0000
0010
0100
0000
0010
1000
0000
0001
0000
1000
0100
0000
0010
0001
0000
,  // measure 13
1000
0010
0100
0001
1000
0100
0020
0000
2030
0000
3023
0000
3032
0000
1033
0000
,  // measure 14
0001
0000
0100
0010
0000
0100
0001
0000
1000
0000
0001
0010
0000
0100
1000
0000
,  // measure 15
0001
0100
0010
1000
0001
0010
0200
0000
0302
0000
3203
0000
2303
0000
3301
0000
,  // measure 16
1000
0000
0001
0010
0100
0000
1000
0000
0001
0000
1000
0010
0100
0000
0001
1000
,  // measure 17
0001
0100
0010
1000
0100
0010
0002
0000
0000
0000
0100
0000
0103
0000
0000
0000
,  // measure 18
0101
0000
1010
0000
1001
1001
1001
0000
,  // measure 19
1100
0100
0010
0010
0012
0000
1003
0000
,  // measure 20
2020
0000
0000
0030
,  // measure 21
3002
0000
3000
0000
1003
0100
0010
0000
,  // measure 22
1002
0000
0103
0010
0200
0000
0301
0010
,  // measure 23
1000
0000
0010
0200
0000
0000
1300
0000
0020
0000
0000
0000
0233
0000
0000
0000
,  // measure 24
3301
0001
2000
0000
3100
0000
1100
0000
,  // measure 25
0001
0000
0100
0000
1000
0200
0000
0000
0310
0000
1000
0000
0001
0000
0000
0000
,  // measure 26
0101
0000
0000
0000
1010
0000
0000
0001
0010
0000
0100
0010
0100
0000
1000
0000
,  // measure 27
0020
0000
0000
0000
0130
0000
0001
0000
1000
0100
0010
0001
0100
0000
0000
0000
,  // measure 28
0001
0000
1000
0100
0000
1000
0001
1000
0020
0000
0000
0230
0000
0000
0301
0000
,  // measure 29
1000
0000
0001
0010
0100
0000
1000
0010
1000
0000
0100
0010
0000
0010
0001
0000
,  // measure 30
1000
0000
0001
0000
0010
0001
1000
0001
0200
0000
0000
0320
0000
0000
1030
0000
,  // measure 31
0001
0000
1000
0100
0010
0000
0001
0100
0001
0000
1000
0100
0000
0100
0010
0000
,  // measure 32
0002
0000
0103
0010
2000
0100
3002
0100
,  // measure 33
1003
0010
0000
1000
0001
0000
0010
0100
1000
0000
0010
0100
0010
0000
1000
0001
,  // measure 34
0100
0000
0100
0000
0130
0000
0001
1000
0200
0000
0000
0000
0310
0000
2002
0000
,  // measure 35
3003
0000
1000
0010
1000
0001
0010
0100
0010
0100
1000
0001
0100
0000
0000
0000
,  // measure 36
1002
0100
0100
0100
,  // measure 37
0100
0100
0100
0103
,  // measure 38
2001
0000
3200
0000
0320
0000
1030
0010
,  // measure 39
0001
0000
0200
0000
0000
0000
0310
0000
1000
0000
0031
1000
0001
0100
3310
0000
,  // measure 40
1000
0100
0010
0100
0001
0100
1000
0010
,  // measure 41
0001
0010
0100
0010
1000
0001
0010
0100
,  // measure 42
1000
0010
1000
0010
0100
0001
0100
0001
1000
0100
0010
0001
0100
0010
0100
0010
,  // measure 43
1000
0100
0010
0001
0100
0000
1001
0000
,  // measure 44
0101
0000
2000
3010
0002
0013
2000
3100
,  // measure 45
0002
0103
2300
3010
0200
1300
0200
0301
,  // measure 46
1000
0100
0010
0001
0200
0000
1300
0000
0200
0000
0310
0000
2000
0000
3001
0000
,  // measure 47
0010
0000
0010
0000
0020
0000
0031
0000
1000
0001
1000
0001
0100
0010
1000
0001
,  // measure 48
0010
0000
0001
0000
1000
0000
0010
0100
0000
0010
0100
0000
0001
0000
0010
0100
,  // measure 49
0000
0010
0103
0000
1000
0000
0001
0100
0020
0000
0000
0000
1330
0000
0000
0000
,  // measure 50
1002
0000
0000
0000
1033
0000
0001
0010
0000
0100
1000
0000
0010
0000
0100
0000
,  // measure 51
0001
0000
0001
0000
1000
0000
1000
0000
0001
0010
0100
1000
0310
0000
0000
0000
,  // measure 52
1001
0000
0011
0013
0100
1300
1020
0000
,  // measure 53
0130
0300
0101
0301
2000
0000
3100
0010
,  // measure 54
2000
3010
0002
0103
0210
0000
0302
1033
,  // measure 55
0103
0000
0100
0000
0200
0000
1300
0000
0001
1000
0001
1000
0010
0100
0001
1000
,  // measure 56
0010
0000
0100
0000
0001
0000
1000
0100
0010
0100
1000
0000
0010
0000
0100
0000
,  // measure 57
0001
0000
1000
0000
0100
0000
0010
0001
0100
0001
0010
0100
1000
0010
0100
0001
,  // measure 58
1000
0100
1000
0100
1000
0100
1000
0100
0010
0001
0010
0001
1000
0010
0100
0001
,  // measure 59
1000
0000
0001
0000
1000
0000
0001
0100
0000
0100
0010
0000
1001
0000
0000
0000
,  // measure 60
0001
0000
1000
0020
0000
0130
1000
0100
0020
0000
1030
0100
0000
0010
0001
1000
,  // measure 61
0002
0000
0133
0010
0000
1000
0010
0000
1000
0000
0001
0000
0011
0000
0000
0000
,  // measure 62
1000
0000
0001
0010
0000
0130
0001
0100
0020
0000
0031
0100
0000
0010
1000
0001
,  // measure 63
2000
0000
3130
0010
0000
0001
0010
0000
0001
0000
1000
0000
1010
0000
0000
0000
,  // measure 64
0002
0103
0020
0130
2000
3100
0020
1030
,  // measure 65
0001
0000
0010
0000
0100
1000
0001
0100
0001
1000
0100
0010
0001
1000
0010
0000
,  // measure 66
0200
0000
0301
1000
0301
0000
1000
0100
1000
0000
0001
0000
0100
0000
0020
0000
,  // measure 67
0000
0000
0100
0000
0130
0000
0001
0100
0010
1000
0100
0010
0001
0000
0000
0000
,  // measure 68
1000
0000
0010
0200
0000
1300
0100
1000
0100
0000
0010
0100
0000
0001
0010
0100
,  // measure 69
1000
0000
0001
0100
0000
0010
1000
0000
0100
0000
0010
0000
0011
0000
0000
0000
,  // measure 70
0001
0000
0010
0200
0000
0301
0100
0001
0100
0000
0010
0100
0000
1000
0010
0100
,  // measure 71
0001
0000
1000
0100
0000
0010
0001
0000
0100
0000
0010
0000
1010
0000
0000
0000
,  // measure 72
1000
0000
0001
1000
0001
0000
0010
0000
0002
0000
0100
0000
2003
0000
0000
0000
,  // measure 73
3001
0010
0000
0010
0100
0000
1000
0001
1000
0010
0100
0001
1000
0100
0010
0001
,  // measure 74
0100
0000
0100
0000
0100
0000
0001
0010
0200
0000
0000
0000
1300
0000
2002
0000
,  // measure 75
0000
0000
3303
0000
0001
0000
1000
0010
0100
0001
1000
0100
1000
0000
0001
0000
,  // measure 76
0101
0000
0100
0000
0010
0000
1000
0000
0100
0010
0001
0000
1000
0000
1020
0000
,  // measure 77
0000
0000
0031
0000
0010
0000
0100
0001
1000
0001
0010
0100
1000
0000
0010
0000
,  // measure 78
1010
0000
1001
1001
1001
0000
0011
0000
,  // measure 79
0011
0000
1001
1001
1001
0000
0110
0000
,  // measure 80
2001
0000
3200
0000
0310
0010
1000
0010
,  // measure 81
0001
0000
0100
0000
1000
0000
0100
0010
0100
0000
0001
0010
0100
0000
1000
0000
,  // measure 82
0001
0100
0010
1000
0100
0010
0001
1000
0010
0100
0010
1000
0001
0000
2002
0000
,  // measure 83
0000
3003
0000
0000
;

//---------------dance-single - ----------------
#NOTES:
     dance-single:
     :
     Medium:
     11:
     0.543920,0.604090,0.563433,0.717097,0.081100,446.000000,380.000000,66.000000,84.000000,0.000000,0.000000,0.543920,0.604090,0.563433,0.717097,0.081100,446.000000,380.000000,66.000000,84.000000,0.000000,0.000000:
0000
0000
0000
0000
,
0000
0000
0000
0000
,
0000
0000
0000
0000
,
0000
0000
0000
0000
,
1000
0010
0100
0000
0001
1000
0001
1000
,
0200
0000
0310
0002
0000
2003
0000
0000
,
3001
0100
0010
0000
1000
0001
1000
0001
,
0020
0000
0130
2000
0000
3002
0000
0000
,
1003
0010
2000
0000
3001
0001
0010
0010
,
0002
0000
1003
0020
0000
0230
0000
0000
,
0301
0000
0000
0001
0000
0000
0000
0000
1000
0000
0000
1000
0000
0000
0200
0000
,
0000
0000
0310
0110
,
1002
0000
1003
0010
0200
0000
0301
0010
,
0001
0010
0100
0000
1000
0001
1000
0000
,
2001
0000
3001
0100
0020
0000
1030
0100
,
1000
0100
0010
0000
0001
1000
0001
0000
,
1000
0000
0000
1000
0000
0000
0000
0000
0100
0000
0000
0100
0000
0000
0000
0000
,
0010
0000
0000
0010
0000
0000
0002
0000
0000
0000
1000
0000
1003
0000
0000
0000
,
0101
0000
0101
0000
1000
0001
1000
0000
,
0001
0010
0100
1000
0020
0000
0030
0000
,
2002
0000
0000
0003
,
3200
0000
3000
0310
,
0322
0000
3033
0000
1000
0000
0001
0100
,
0000
0010
0100
0000
0002
0000
2003
0000
,
3100
0100
0010
0000
0002
0000
2003
0000
,
3010
0100
0002
0000
0023
0000
0130
0000
,
1100
0000
0000
0000
1100
0000
0000
0000
0001
0000
0000
0001
0000
0000
0200
0000
,
0000
0301
2000
0000
3010
0000
0110
0000
,
1002
0000
0013
0100
2000
0000
3010
0100
,
0310
0000
0000
0010
0000
0000
1000
0000
0001
0000
0000
0000
0101
0000
0000
0000
,
2000
0000
3100
0010
0002
0000
0103
0010
,
0130
0000
0000
0100
0000
0000
0001
0000
1000
0000
0000
0000
1100
0000
0000
0000
,
0002
0000
0000
0103
0020
0000
1030
0000
,
0001
0010
0100
1000
0020
0000
0130
0000
,
0001
1000
0001
0000
2000
0000
3100
0200
,
0000
0010
0310
0110
,
1002
1000
1000
1000
,
1000
1000
1000
1003
,
1010
0000
0110
0000
0101
0000
1000
0100
,
0000
2100
0000
3001
0000
0012
0000
1003
,
0010
1000
0010
0100
0002
0000
1003
0200
,
0000
0320
0000
0031
1000
0010
0100
0000
,
0001
0100
0001
0100
0010
1000
0010
1000
,
0001
0010
0100
1000
0020
0000
0030
0000
,
1001
0101
0101
0101
,
1010
1010
1010
1010
,
0001
1001
1001
1001
,
0001
0010
0001
0000
0011
0000
0011
0000
,
1000
0001
0100
0002
0000
1303
0100
2000
,
0000
3001
0100
0000
0010
0000
0110
0000
,
0002
0010
2003
0010
,
3001
0010
0100
1000
0020
0000
0030
0000
,
1001
1100
1100
1100
,
0011
0000
1000
0001
0200
0000
0320
0000
,
1030
1010
0110
0101
,
1000
0001
1000
0000
0200
0000
0310
0000
,
0011
2000
0010
3002
,
0100
0000
1003
0000
0001
0010
0100
0000
,
1100
0110
0011
1001
,
0001
0100
0010
1000
0200
0000
0300
0000
,
1000
0000
0000
1000
0000
0000
0010
0000
0100
0000
0000
0100
0000
0000
0001
0000
,
0010
0000
0000
0010
0000
0000
0100
0000
2000
0000
0000
0000
3001
0000
0000
0000
,
0001
0000
0000
0001
0000
0000
0100
0000
0010
0000
0000
0010
0000
0000
1000
0000
,
0100
0000
0000
0100
0000
0000
0010
0000
0002
0000
0000
0000
1003
0000
0000
0000
,
1010
0110
0101
1001
,
0002
0000
0013
0100
2000
0000
3001
0000
,
2000
0000
3020
0000
0230
0000
0301
0010
,
0000
0010
0100
0000
0000
0000
0110
0000
,
1001
0000
0000
0001
0000
0000
0010
0000
0100
0000
0000
1000
0000
0000
0010
0000
,
0100
0000
0000
0100
0000
0000
0001
0000
0010
0000
0000
0000
0011
0000
0000
0000
,
2000
0000
0000
0000
3010
0000
0100
0000
0001
0000
0000
0001
0000
0000
0010
0000
,
0100
0000
0000
0100
0000
0000
1000
0000
0010
0000
0000
0000
1010
0000
0000
0000
,
0002
0000
1003
0100
0020
0000
0031
0000
,
1000
0001
1000
0010
0200
0000
0301
0000
,
1000
0100
1000
0001
0200
0000
0010
0020
,
0000
0000
0330
0110
,
1001
0000
0001
0000
1000
0020
0000
0230
,
0000
0302
0000
1003
0200
0000
0310
0000
,
0012
0000
1003
0010
1000
0000
1010
0000
,
2010
0000
3001
0010
0001
0000
1001
0000
,
2200
3300
0220
0330
,
0022
0033
1001
1001
,
0001
0100
0010
1000
0200
0000
0010
0020
,
0000
0330
0000
0000
;

//---------------dance-single - ----------------
#NOTES:
     dance-single:
     :
     Beginner:
     5:
     0.223178,0.283424,0.008537,0.093906,0.000000,183.000000,182.000000,1.000000,11.000000,0.000000,0.000000,0.223178,0.283424,0.008537,0.093906,0.000000,183.000000,182.000000,1.000000,11.000000,0.000000,0.000000:
0000
0000
0000
0000
,
0000
0000
0000
0000
,
0000
0000
0000
0000
,
0000
0000
0000
0000
,
0001
0000
0100
0000
,
0010
0010
0010
0000
,
1000
0000
0100
0000
,
0010
0010
0010
0000
,
0001
0000
0001
0000
,
1000
1000
1000
0000
,
0010
0000
0010
0000
,
0100
0000
0000
0000
,
0001
0001
0001
0000
,
0200
0000
0300
0000
,
0010
0010
0010
0000
,
2000
0000
3000
0000
,
1000
1000
1000
0000
,
0100
0100
0100
0000
,
1000
0001
1000
0001
,
0200
0000
0000
0300
,
0002
0000
0000
0003
,
2000
0000
0000
3000
,
0100
0000
0100
0000
,
0010
0000
0000
0000
,
0001
0000
0100
0000
,
0010
0000
0010
0000
,
1000
0000
1000
0000
,
0100
0000
0000
0000
,
1000
1000
0000
0000
,
0100
0000
0010
0000
,
0001
0001
0000
0000
,
0100
0000
0010
0000
,
1000
1000
1000
0000
,
0010
0010
0010
0000
,
0100
0100
0100
0000
,
0001
0000
0000
0000
,
2002
0000
0000
0000
,
0000
0000
0000
3003
,
1000
1000
1000
0000
,
0100
0000
0010
0000
,
0001
0001
0001
0000
,
0100
0100
0100
0000
,
0010
0010
0010
0010
,
0010
0000
0000
0000
,
0000
1000
0001
1000
,
0001
1000
0001
1000
,
0000
0100
0010
0100
,
0010
0100
0010
0000
,
0001
0000
0001
0000
,
1000
0000
1000
0000
,
0010
0010
0010
0000
,
0100
0100
0100
0000
,
0000
0001
1000
0001
,
1000
0001
1000
0001
,
0000
0010
0100
0010
,
0100
0010
0100
0000
,
1000
0000
1000
0000
,
0001
0000
0001
0000
,
0100
0100
0100
0000
,
0010
0000
0000
0000
,
1000
0000
0100
0000
,
0010
0001
0010
0000
,
0001
0000
0100
0000
,
0010
1000
0010
0000
,
2000
3000
1000
0000
,
0001
0001
0001
0000
,
1000
0000
0100
0000
,
0010
0010
0000
0000
,
0001
0000
0010
0000
,
0100
1000
0100
0000
,
1000
0000
0010
0000
,
0100
0001
0100
0000
,
0002
0003
0001
0000
,
1000
1000
1000
0000
,
0001
0000
0010
0000
,
0100
0000
0000
0000
,
1000
0000
0001
0000
,
0100
0000
0010
0000
,
1000
1000
1000
0000
,
0001
0001
0001
0000
,
0020
0000
0030
0000
,
0200
0000
0300
0000
,
1000
1000
0001
0001
,
0100
0000
0000
0000
;

//---------------dance-single - ----------------
#NOTES:
     dance-single:
     :
     Easy:
     8:
     0.375622,0.568555,0.298790,0.554896,0.000000,308.000000,273.000000,35.000000,65.000000,0.000000,0.000000,0.375622,0.568555,0.298790,0.554896,0.000000,308.000000,273.000000,35.000000,65.000000,0.000000,0.000000:
0000
0000
0000
0000
,
0000
0000
0000
0000
,
0000
0000
0000
0000
,
0000
0000
0000
0000
,
0001
0100
0010
0010
,
1000
0100
0010
0000
,
0001
0010
0100
0100
,
1000
0010
0100
0000
,
0001
0100
0010
0010
,
1000
0100
0010
0000
,
0001
0000
0000
0000
1000
0000
0000
2002
,
0000
0000
0000
3003
,
1000
0100
0010
0001
,
0100
0200
0300
0000
,
0001
0100
0010
1000
,
0100
0200
0300
0000
,
1000
0010
0100
0001
,
0010
0000
0100
0200
0000
0000
1300
0000
,
0001
0001
0100
0100
,
0001
1000
0001
1000
0001
0000
0000
0000
,
2000
0000
0000
3000
,
0200
0000
0000
0300
,
1001
0000
0001
0000
,
1000
0010
0100
0000
,
0001
0100
0010
0000
,
1000
1000
0001
0000
,
1000
0100
0010
0001
,
0100
0100
0000
0000
,
0001
1000
0001
0100
,
0010
1000
0100
0000
,
1000
0010
0100
0010
,
1000
0001
0010
0000
,
0001
0001
1000
1000
,
0010
0100
0001
0000
,
1000
0000
1000
0000
0001
0000
0010
0020
,
0000
0000
0000
0030
,
2002
0000
0000
0000
,
0000
0000
0000
3003
,
0002
0203
0320
0030
,
2000
3200
0320
0030
,
0002
2003
3020
0130
,
0002
2003
3200
0310
,
0001
0010
0001
0000
1000
0010
1000
0000
,
0001
1000
0020
0130
,
0001
1001
1001
1001
,
1001
1001
1001
1001
,
0000
0110
0110
0110
,
0110
0110
0110
0110
,
0000
0000
0001
0010
0000
0000
0001
0010
,
0000
0200
2300
3001
,
2000
3020
0230
0302
,
1003
0001
1000
0001
1000
0000
0000
0000
,
0000
1001
1001
1001
,
1001
1001
1001
1001
,
0000
0110
0110
0110
,
0110
0110
0110
0110
,
0000
2000
3020
0230
,
0302
0023
0230
1300
,
3002
0203
0320
2030
,
3001
1000
0001
1000
0001
0000
0000
0000
,
1001
1000
0010
0100
,
0001
0000
1000
0100
2000
0000
3000
0000
,
0001
1000
0010
0100
,
0001
0000
0010
0100
0020
0000
0030
0000
,
0002
0000
1003
0010
,
0100
0100
0002
0003
,
2000
3002
0203
0320
,
1030
0001
1000
0000
0000
0000
0110
0000
,
1001
0001
0100
0010
,
1000
0000
0001
0010
0002
0000
0003
0000
,
1000
0001
0100
0010
,
1000
0000
0100
0010
0200
0000
0300
0000
,
2000
0000
3001
0100
,
0010
0010
2000
3000
,
0002
0000
2003
0000
3020
0000
0130
0200
,
0000
0000
0300
1001
,
0000
0002
0103
0001
,
2000
3010
1000
0001
,
2000
0000
3001
0010
0001
0000
1000
0000
,
1000
0000
0001
0010
0002
0000
0003
0000
,
2000
3010
2000
3001
,
2000
3100
2000
3001
,
1000
0100
1000
0000
0001
1000
0002
2000
,
0000
3303
0000
0000
;

//---------------dance-double - ----------------
#NOTES:
     dance-double:
     :
     Challenge:
     16:
     0.858565,1.030506,0.452454,0.665876,0.670144,704.000000,651.000000,53.000000,78.000000,0.000000,0.000000,0.858565,1.030506,0.452454,0.665876,0.670144,704.000000,651.000000,53.000000,78.000000,0.000000,0.000000:
00000000
00000000
00000000
00000000
,
00000000
00000000
00000000
00000000
,
00000000
00000000
00000000
00000000
,
00000000
00000000
00000000
00000000
,
00010000
00001000
00100000
00010000
01000000
10000000
01000000
10000000
,
01000000
00010000
00100000
00002000
00000000
01000000
01003000
00000000
,
00001000
00010000
00000010
00001000
00000100
00000001
00000100
00000001
,
00000100
00001000
00000010
00020000
00000000
00000100
00030100
00000000
,
00010000
00001000
00100000
00010000
01000000
01000000
00100000
00100000
,
10000000
01000000
00010000
02000000
00000000
03100000
00001000
00000000
,
00010000
00000000
00000000
00010010
00000000
00000000
00000010
00000000
00000100
00000000
00000000
00000110
00000000
00000000
00001001
00000000
,
00000000
00000000
00000001
00000000
00000010
00000000
00000100
00000000
00010000
00001000
00010000
00001000
00010000
00000000
00000000
00000000
,
00001000
00000000
00100000
00010000
00000000
00100000
01000000
00000000
10000000
00000000
00010000
01000000
00000000
00100000
01000000
00000000
,
00010000
00100000
01000000
10000000
00010000
01000000
00200000
00000000
00320000
00000000
30230000
00000000
02300000
00000000
03002000
00000000
,
00013000
00000000
00003100
00001000
00000000
00000100
00000010
00000000
00000001
00000000
00001000
00000010
00000000
00000100
00000010
00000000
,
00001000
00000100
00000010
00000001
00001000
00000010
00000200
00000000
00002300
00000000
00003203
00000000
00000320
00000000
00020030
00000000
,
00031000
00000000
00100000
00010000
00000000
00100000
00001000
00000000
00010000
00000000
00000010
00001000
00000000
00000010
00010000
00000000
,
00001000
00100000
00010000
01000000
00100000
10000000
00020000
00000000
00000000
00000000
10000000
00000000
10030000
00000000
00000000
00000000
,
10010000
00000000
00011000
00000000
00001001
00001001
00001001
00000000
,
00000001
00000010
00001000
00010000
02000000
00000000
03100000
00000000
,
20020000
00000000
00000000
00030000
,
30200000
00000000
00000000
00000000
01300000
00010000
10000000
00000000
,
20100000
00000000
30010000
00100000
00001000
00000000
00010000
00001000
,
00010000
00001000
00000100
00000010
00002000
00000000
00003002
00000000
,
00000013
00000010
00000100
00000000
00002100
00000000
00003001
00000000
,
00001000
00000000
00000010
00000000
00010000
00001000
00000000
00000000
00100000
00000000
00100000
00000000
00010000
00000000
00000000
00000000
,
00110000
00000000
00000000
00000000
01100000
00000000
00000000
00000000
11000000
00000000
00000000
00010000
01000000
00000000
10000000
00000000
,
01000000
00000000
00001000
00000000
00010000
00000000
00000100
00000000
00001000
00000010
00000100
00000001
00001000
00000000
00000000
00000000
,
00000001
00000000
00001000
00000100
00000000
00001000
00000001
00001000
00000020
00000000
00000000
00020030
00000000
00000000
00031000
00000000
,
00100000
00000000
00010000
01000000
00100000
00000000
10000000
01000000
00100000
00000000
00010000
01000000
00000000
01000000
00100000
00000000
,
10000000
00000000
00010000
00100000
00000000
00010000
10000000
00010000
02000000
00000000
00000000
03002000
00000000
00000000
00013000
00000000
,
00000100
00000000
00001000
00000010
00000100
00000000
00000001
00000010
00000100
00001000
00000010
00000100
00000001
00000000
00000000
00000000
,
00002001
00000000
00003010
00000100
00002000
00000000
00023000
00000000
,
00031000
00100000
00000000
00001000
00100000
00000000
00010000
01000000
00010000
00000000
10000000
00000000
01000000
00000000
00100000
00000000
,
00001000
00000000
00001000
00000000
00001000
00000000
00010000
00000010
00000200
00000000
00000000
00000000
00000310
00000000
00002002
00000000
,
00003003
00000000
00000001
00000100
00000010
00000000
00001000
00000100
00000010
00000100
00010000
00001000
00100000
00000000
00000000
00000000
,
00022000
00000000
00000000
00000000
,
00000000
00000000
00000000
00033000
,
01001000
00000000
00011000
00000000
00010010
00000000
00010000
00001000
,
00010000
00000000
00000020
00000000
00000000
00000000
00010030
00000000
00001000
00000000
00100000
00010000
00100000
00010000
10300000
00000000
,
00010000
01000000
00100000
01000000
10000000
01000000
00010000
00100000
,
00001000
00100000
01000000
00100000
00001000
00010000
00000010
00000100
,
00000001
00000100
00000001
00000100
00000010
00001000
00000010
00001000
00000100
00000010
00000001
00000100
00000010
00001000
00000100
00010000
,
00001000
00100000
01000000
10000000
00100000
00000000
01100000
00000000
,
10010000
00000000
00020000
01030000
20000000
31000000
00020000
00130000
,
20000000
30100000
00002000
00013000
00000020
00000130
00002000
00003100
,
00000001
00000010
00000100
00001000
00000020
00000000
00000031
00000000
00000020
00000000
00001030
00000000
00000200
00000000
00000301
00000000
,
00000100
00000000
00000100
00000000
00000100
00000000
00001000
00000000
00000001
00000100
00000010
00001000
00000100
00000010
00000001
00001000
,
00000001
00000000
00000100
00000000
00000010
00000000
00001000
00000100
00000000
00001000
00000100
00000000
00010000
00000000
00001000
01000000
,
00000000
00001000
01000000
00000000
00010000
00000000
10000000
01000000
00100000
00000000
00010000
00000000
01000000
00000000
00000000
00000000
,
10020000
00000000
00000000
00000000
01030000
00000000
00100000
10000000
00000000
10000000
01000000
00000000
00100000
00000000
00001000
00000000
,
00010000
00000000
00000010
00000000
00000100
00000000
00000001
00000000
00001000
00000100
00000010
00000001
00000100
00000000
00000000
00000000
,
00000101
00000000
00001001
00000001
00000010
00000100
00020100
00000000
,
00031000
00000000
01001000
01000000
00200000
00000000
13300000
00010000
,
00200000
10300000
00200000
00310000
02010000
00000000
03200000
00310000
,
00001000
00000000
00001000
00000000
00002000
00000000
00013000
00000000
00000100
00001000
00000100
00001000
00000010
00000100
00000001
00001000
,
00000001
00000000
00001000
00000000
00000010
00000000
00000100
00000010
00000000
00000010
00001000
00000000
00000100
00000000
00010000
00000000
,
00001000
00000000
00100000
00000000
00010000
00000000
10000000
00100000
10000000
00010000
00100000
01000000
10000000
00100000
01000000
00000000
,
00001000
01000000
00001000
01000000
00001000
01000000
00001000
01000000
00010000
00100000
00010000
00100000
00001000
00010000
00000100
00000010
,
00000001
00000000
00001000
00000000
00000001
00000000
00000100
00000010
00000000
00000010
00010000
00000000
00011000
00000000
00000000
00000000
,
00010000
00000000
00001000
00200000
00000000
00310000
10000000
00010000
01000000
00000000
00100000
20000000
00000000
30010000
00100000
00010000
,
01000000
00000000
00001000
00100000
00000000
00001000
00010000
00000000
00002000
00000000
00100000
00000000
00013000
00000000
00000000
00000000
,
00001000
00000000
00010000
00000200
00000000
00001300
00000001
00001000
00000010
00000000
00000100
00000002
00000000
00001003
00000100
00001000
,
00000010
00000000
00010000
00000100
00000000
00010000
00001000
00000000
00020000
00000000
00000100
00000000
00031000
00000000
00000000
00000000
,
00011000
00101000
00010010
00011000
,
00010000
00000000
00001000
00000000
00100000
00000000
00010000
01000000
00010000
10000000
01000000
00100000
00010000
10000000
00100000
00000000
,
20200000
00000000
30300000
00000000
02020000
00000000
03030000
00000000
10000000
00000000
01000000
00100000
01000000
00000000
00020000
00000000
,
00000000
00000000
00001000
00000000
00031000
00000000
00000000
00000000
00100000
00001000
00010000
00000010
00010000
00000000
00000000
00000000
,
00001010
00000000
00000001
00000200
00003000
00000310
00000001
00000010
00000002
00000000
00000013
00002000
00000000
00003100
00010000
00000100
,
00010000
00000000
00001000
00100000
00000000
00010000
01000000
00000000
00020000
00000000
00100000
00000000
10030000
00000000
00000000
00000000
,
01010000
00000000
10000000
00200000
00030000
01300000
10000000
01000000
20000000
00000000
31000000
00020000
00000000
00130000
00001000
00100000
,
00001000
00000000
00010000
00000100
00000000
00001000
00000010
00000000
00002000
00000000
00000100
00000000
00003001
00000000
00000000
00000000
,
00001000
00000000
00000010
00000100
00000010
00000000
00001000
00000000
00001100
00000000
00000000
00000000
00011000
00000000
00000000
00000000
,
00001000
01000000
00000000
01000000
00100000
00000000
10000000
00010000
10000000
01000000
00100000
00010000
10000000
00100000
01000000
00000000
,
00100000
00000000
00100000
00000000
00100000
00000000
10000000
01000000
00200000
00000000
00000000
00000000
00301000
00000000
00022000
00000000
,
00000000
00000000
00033000
00000000
00010000
00000000
00000010
00001000
00000010
00001000
00000100
00000010
00000001
00000000
00000100
00000000
,
00000101
00000000
00000001
00000000
00000010
00000000
00000100
00000000
00010000
00001000
00010000
00000000
00001000
00000000
02001000
00000000
,
00000000
03100000
00010000
00100000
01000000
00100000
10000000
00010000
,
10010000
00000000
00011000
00011000
00011000
00000000
00001001
00000000
,
00001001
00000000
00011000
00011000
00011000
00000000
10010000
00000000
,
00010000
01000000
00100000
01000000
10000000
01000000
00010000
00100000
,
00001000
00000000
00010000
00000000
00000010
00000000
00010000
00001000
00010000
00000000
00000100
00000010
00000001
00000000
00001000
00000000
,
00000001
00000100
00000010
00001000
00000100
00000010
00000100
00010000
00001000
00100000
00010000
01000000
00100000
00000000
20020000
00000000
,
00000000
30030000
00000000
00000000
;

//---------------dance-double - ----------------
#NOTES:
     dance-double:
     :
     Hard:
     14:
     0.712219,0.746229,0.537823,0.665876,0.354280,584.000000,521.000000,63.000000,78.000000,0.000000,0.000000,0.712219,0.746229,0.537823,0.665876,0.354280,584.000000,521.000000,63.000000,78.000000,0.000000,0.000000:
00000000
00000000
00000000
00000000
,
00000000
00000000
00000000
00000000
,
00000000
00000000
00000000
00000000
,
00000000
00000000
00000000
00000000
,
00010000
00001000
00010000
00000010
00000100
00000001
00000100
00000001
,
00001000
00000100
00000010
00000200
00000000
00020300
00000000
00000000
,
00031000
00010000
00001000
00100000
01000000
10000000
01000000
10000000
,
00010000
01000000
00100000
02000000
00000000
03002000
00000000
00000000
,
00013000
00000010
00000200
00000000
00000301
00001000
00000001
00001000
,
00000001
00000010
00000100
00020000
00000000
00032000
00000000
00000000
,
00103000
00000000
00000000
00110000
00000000
00000000
00001000
00000000
00010000
00000000
00000000
00010010
00000000
00000000
00022000
00000000
,
00000000
00000000
00033000
00000000
00001000
00010000
00011000
00000000
,
00101000
00000000
00000000
00100000
00010000
00000000
10000000
00000000
00100000
00000000
00010000
00000000
00100000
00000000
01000000
00000000
,
00010000
00100000
01000000
10000000
00100000
00010000
00002000
00000000
,
00013000
00000000
00000000
00000100
00001000
00000000
00000001
00000000
00000100
00000000
00001000
00000000
00000100
00000000
00000010
00000000
,
00001000
00000100
00000010
00000001
00000100
00001000
00020000
00000000
,
00031000
00000000
00100000
00010000
00000000
00100000
00001000
00000000
00010000
00000000
00000010
00001000
00000000
00000010
00010000
00000000
,
00001000
00010000
00001000
00000000
00100000
00000000
02000000
00000000
00000000
00000000
00100000
00000000
03100000
00000000
00000000
00000000
,
10010000
00000000
10010000
00000000
10000000
00100000
00020000
00000000
,
00031000
00000010
00000001
00000100
00002000
00000000
00013000
00000000
,
00202000
00000000
00000000
00300000
,
00023000
00000000
00000000
00000000
00030010
00000100
00000010
00000000
,
00001002
00000000
00000013
00000100
00001000
00000000
00000001
00000100
,
00000010
00000100
00000001
00001000
00000200
00000000
00020300
00000000
,
00031000
00001000
01003000
00000000
01010000
00000000
10000000
00000000
,
00010000
00000000
00100000
00000000
01000000
10000000
00000000
00000000
00020000
00000000
00000000
00000000
01030000
00000000
00000000
00000000
,
01001000
00030000
00000000
00000000
00011000
00000000
00000000
00000000
00010000
00000000
00000000
00000100
00001000
00000000
00000001
00000000
,
00000100
00001000
00000100
00000001
00001000
00000100
00001100
00000000
,
00010000
00000000
00001000
00100000
00000000
00100000
00010000
00000000
20000000
00000000
00000000
30200000
00000000
00000000
01300000
00000000
,
00010000
00000000
10000000
01000000
00000000
00100000
00010000
00000000
01000000
00000000
00001000
00000000
00010000
00000000
00000000
00000000
,
00001000
00000000
00010000
00000010
00000000
00000010
00001000
00000000
00000002
00000000
00000000
00000023
00000000
00000000
00000130
00000000
,
00001000
00000000
00000001
00000100
00000000
00000010
00001000
00000000
00000100
00000000
00010000
00000000
00001000
00000000
00000000
00000000
,
00201000
00000000
00000000
00000000
01300000
03000000
01000000
00000000
20000000
00000000
00000000
00000000
30010000
00000000
00000000
00000000
,
10000000
00200000
00000000
00000000
01300000
00000000
00010000
00000000
00100000
00000000
00001000
00000000
00010000
00000000
00000000
00000000
,
00000010
00000000
00000010
00000000
00000010
00000000
00001000
00000100
00002000
00000000
00000000
00000000
00003001
00000000
00000202
00000000
,
00000000
00000000
00000303
00000000
00001000
00000000
00000001
00000010
00000000
00000010
00000100
00000000
00010000
00000000
00000000
00000000
,
00022000
00000000
00000000
00000000
,
00000000
00000000
00000000
00033000
,
00010100
00000000
00011000
00000000
00201000
00000000
00310000
01000000
,
00100000
23100000
00000000
30010000
00100000
00120000
00000000
01030000
,
00001000
00010000
00001000
00000100
00001000
00010000
00001000
00001000
,
00010000
00001000
00010000
01000000
00010000
00001000
00010000
00010000
,
00000010
00001000
00000010
00000000
00010000
00030000
00001000
00000000
00100000
00010000
00100000
00000000
00001000
00000000
00010000
00000000
,
00001000
01000000
00100000
10000000
00010000
00000000
10010000
00000000
,
10000000
00000000
00000000
02020000
03030000
00000000
02002000
03033000
00000000
02020000
03030000
00000000
,
02002000
03003000
00000000
00202000
03303000
00000000
02002000
03003000
00000000
00202000
03303000
00000000
,
00001000
00000000
00000000
00010000
00000000
00000000
00020200
00000000
00030300
00000000
00000000
00000000
00020020
00000000
00030330
00000000
00000000
00000000
00020200
00000000
00030300
00000000
00000000
00000000
,
00000100
00000100
00000100
00000010
00001000
00010000
00000020
00000000
,
00010030
00001000
00011000
00200000
00000000
00301000
00011000
00000020
,
00000000
00000000
00000130
00000000
00000001
00000000
00001000
00000100
00001000
00000000
00000001
00000000
00000100
00000000
00000000
00000000
,
00001002
00000000
00000000
00000000
00000013
00000000
00000100
00001000
00000000
00000100
00001000
00000000
00000010
00000000
00010000
00000000
,
00001000
00100000
01000000
10000000
00100000
00000000
10010000
00000000
,
10000000
00000000
10100000
00100000
01000000
00010000
00110000
00000000
,
00101000
00000000
00010010
00000010
00000100
00000001
00000010
00000100
,
00001100
00000000
00000110
00000000
00000011
00000000
00001000
00000001
,
00000100
00000100
00000100
00000010
00020000
00000000
00031000
00000000
,
00101000
00000000
00000000
00000000
00100000
00000000
00010000
10000000
00010000
00000000
10000000
00000000
00100000
00000000
01000000
00000000
,
00010000
00100000
00000000
00010000
00100000
00000000
00001000
00000000
00010000
00000010
00000000
00010000
00000010
00000000
00000100
00000000
,
00000001
00001000
00000001
00000000
00000010
00000000
00000100
00000000
00010000
00001000
00010000
00000000
00001000
00000000
00100000
00000000
,
00010000
01000000
00100000
10000000
00010000
00000000
10010000
00000000
,
10000000
00000000
00100000
01000000
00000000
00100000
10000000
00000000
00010000
00000000
00100000
01000000
00000000
00100000
00001000
00000000
,
00010000
00000000
00000010
00001000
00000000
00000010
00000100
00000000
00000001
00000000
00000000
00000000
00000101
00000000
00000000
00000000
,
00000001
00000000
00000010
00000100
00000000
00000010
00000001
00000000
00001000
00000000
00000010
00000100
00000000
00000010
00010000
00000000
,
00001000
00000000
00100000
00010000
00000000
00100000
01000000
00000000
10000000
00000000
00000000
00000000
11000000
00000000
00000000
00000000
,
00010000
01000000
00100000
01000000
10000000
01000000
00200000
00000000
,
10300000
00000000
01000000
00000000
00100000
00002000
00000000
00000000
00013000
00000000
00000000
00000000
00001000
00000000
00010000
00000000
,
00010010
00000000
00001010
00000000
00000001
00000010
00000100
00020000
,
00000000
00000000
00001000
00000000
00031000
00000000
00000000
00000000
00100000
00001000
00100000
00000000
00001000
00000000
00000000
00000000
,
00010000
00000000
00000010
00001000
00000000
00001000
00000100
00000000
00010000
00000000
00001000
00100000
00000000
00100000
00010000
00000000
,
10000000
00000000
00010000
01000000
00000000
00100000
10000000
00000000
00010000
00000000
00100000
00000000
00101000
00000000
00000000
00000000
,
00001000
00000000
01000000
00010000
00000000
00010000
00100000
00000000
00001000
00000000
00010000
00000100
00000000
00000100
00001000
00000000
,
00000001
00000000
00001000
00000010
00000000
00000100
00000001
00000000
00001000
00000000
00000100
00000000
00010100
00000000
00000000
00000000
,
00020000
00100000
00032000
00000010
,
00013000
00000100
00003000
00000000
00010000
00000000
00000010
00000000
00000200
00003000
00000000
00000000
00000301
00000000
00000000
00000000
,
00001000
00000000
00001000
00000000
00001000
00000000
00000100
00000010
00000200
00000000
00000000
00000000
00010300
00000000
00022000
00000000
,
00000000
00000000
00033000
00000000
00100000
00000000
00010000
01000000
00000000
00100000
10000000
00000000
00010000
00000000
00000000
00000000
,
21000000
00000000
00000000
00000000
30020000
00000000
00000000
00000000
01030000
00100000
01000000
00000000
00001000
00000000
00020000
00000000
,
00000000
02030000
00000000
03010000
00001000
00000010
00000001
00001000
,
00001001
00000000
00001100
00001100
00001100
00000000
00020000
00000000
,
00031000
00000000
01001000
01001000
01001000
00000000
01100000
00000000
,
20010000
00000000
30010000
00100000
10000000
00100000
00010000
01000000
,
10000000
01000000
00100000
01000000
00010000
00100000
00001000
00010000
,
00000100
00000000
00000100
00000000
00000100
00000000
00000010
00000001
00000010
00000000
00000001
00000000
00000100
00000000
00002002
00000000
,
00000000
00003003
00000000
00000000
;

//---------------dance-double - ----------------
#NOTES:
     dance-double:
     :
     Medium:
     12:
     0.551238,0.639625,0.478065,1.186624,0.187811,452.000000,396.000000,56.000000,139.000000,0.000000,0.000000,0.551238,0.639625,0.478065,1.186624,0.187811,452.000000,396.000000,56.000000,139.000000,0.000000,0.000000:
00000000
00000000
00000000
00000000
,
00000000
00000000
00000000
00000000
,
00000000
00000000
00000000
00000000
,
00000000
00000000
00000000
00000000
,
00010000
00001000
00020000
00000000
00031000
00100000
00001000
00100000
,
00020000
00000000
10030000
00200000
00000000
02300000
00000000
00000000
,
03001000
00010000
00002000
00000300
00013000
00000010
00010000
00000010
,
00002000
00000000
00003001
00000020
00000000
00000230
00000000
00000000
,
00010300
00001000
02000000
00000000
03010000
10000000
00010000
10000000
,
00200000
00000000
01300000
00002000
00000000
00023000
00000000
00000000
,
00030100
00000000
00000000
00000100
00000000
00000000
00000100
00000000
00000010
00000000
00000000
00000010
00000000
00000000
00002002
00000000
,
00000000
00000000
00000000
00003003
,
00000102
00000000
00001003
00000100
00000010
00000100
00010000
00002000
,
00000000
00203000
00000000
00310000
01000000
00100000
10000000
00000000
,
20100000
00000000
30010000
00100000
01000000
00100000
00001000
00020000
,
00000000
00030200
00000000
00001300
00000010
00000100
00000001
00000000
,
00001000
00000000
00000000
00000100
00000000
00000000
00000010
00000000
00000001
00000000
00000000
00000100
00000000
00000000
00000010
00000000
,
00001000
00000000
00000000
00000100
00000000
00000000
00020100
00000000
00000000
00000000
00001000
00000000
00031000
00000000
00000000
00000000
,
00011000
00000000
01001000
00000000
00001000
00010000
00001000
00000000
,
00010000
00001000
00010000
00001000
00200000
00000000
01300000
00000000
,
20020000
00000000
00000000
00030000
,
30200000
00000000
00000000
01300000
,
20020000
00000000
30030000
00000000
10000000
00000000
00010000
01000000
,
00000000
01000000
00002000
00000000
00023000
00000000
00030200
00000000
,
00001300
00001000
00000010
00000000
00001010
00000000
00000002
00000000
,
00001003
00000100
00010000
00000000
00201000
00000000
00310000
00000000
,
10000000
00000000
00100000
00000000
02000000
00000000
00000000
00000000
03010000
00000000
00000000
10000000
00010000
00000000
00200000
00000000
,
00000000
01300000
02000000
00000000
13000000
00000000
11000000
00000000
,
10010000
00000000
00000000
00010000
00000000
00000000
00100000
00000000
00001000
00000000
00000000
00001000
00000000
00000000
00010000
00000000
,
00000010
00000000
00000000
00000010
00000000
00000000
00001000
00000000
00000100
00000000
00000000
00000000
00001100
00000000
00000000
00000000
,
00000002
00000000
00000000
00000000
00000203
00000000
00000000
00000000
00000310
00000000
00000000
00000010
00000000
00000000
00001000
00000000
,
00000100
00000000
00000000
00010000
00000000
00000000
00001000
00000000
02000000
00000000
00000000
00000000
03200000
00000000
00000000
00000000
,
20300000
00000000
31000000
00100000
00020000
00000000
02030000
00000000
,
03001000
00010000
00000000
00000000
00001000
00000000
00010000
00000000
00000200
00000000
00000000
00000000
00000310
00000000
00000000
00000000
,
00000001
00001000
00000001
00000100
00000020
00000000
00010030
00022000
,
00000000
00033000
00100000
00000000
00001000
00000000
00010010
00000000
,
00022000
00000000
00000000
00000000
,
00000000
00000000
00000000
00033000
,
00002000
00000000
02003000
00000000
03200000
00000000
10300000
01000000
,
00000000
10020000
00000000
00130000
00000000
20010000
00000000
30100000
,
01000000
00010000
00100000
00000000
00102000
00000000
00013000
00000010
,
00000100
00000001
00000010
00000100
00002000
00000000
00003001
00000000
,
00001000
00000001
00000100
00000010
00010000
00001000
00100000
01000000
,
10000000
00010000
10000000
00010000
02000000
00000000
03100000
00000000
,
00000000
00000000
00000000
20020000
30030000
00000000
20020000
30030000
00000000
20020000
30030000
30030000
,
00202000
00303000
00000000
00202000
00303000
00000000
00202000
00303000
00000000
00202000
00303000
00000000
,
00010000
00000000
00000000
00001000
00000000
00000000
00022000
00000000
00033000
00000000
00000000
00000000
00022000
00000000
00033000
00000000
00000000
00000000
00022000
00000000
00033000
00000000
00000000
00000000
,
00000010
00000000
00000000
00000010
00000000
00000000
00000020
00000000
00000030
00000000
00000000
00000000
00002020
00000000
00003030
00000000
00000000
00000000
00000202
00000000
00000303
00000000
00000000
00000000
,
00001000
00000001
00000010
00000002
00000000
00001003
00000010
00002000
,
00000000
00003100
00010000
00001000
00200000
00000000
00310000
00000000
,
20010000
30200000
00320000
00032000
,
00013000
00000100
00000010
00000001
00002000
00000000
00003001
00000000
,
00000000
00000303
00000000
00002002
00003003
00000000
00000202
00000303
00000000
00002002
00003003
00000000
,
00002200
00000000
00003300
00000000
00000000
00000000
00010000
00000000
00000000
00001000
00000000
00000000
00202000
00000000
00303000
00000000
00000000
00000000
00220000
00000000
00330000
00000000
00000000
00000000
,
10000000
00100000
01000000
00100000
20000000
00000000
30010000
00100000
,
01000000
00000000
00000000
01000000
00000000
00000000
01000000
00000000
00000000
00000000
00000000
00000000
22000000
00000000
33000000
00000000
00000000
00000000
00220000
00000000
00330000
00000000
00000000
00000000
,
10020000
00000000
01030000
00100000
02030000
00000000
03001000
00010000
,
00002000
00000000
00013000
00000100
00000010
00000001
00001000
00000000
,
00000001
00000100
00000001
00000100
00000010
00001000
00000010
00001000
,
00000100
00010000
00001000
00100000
00020000
00000000
10030000
00000000
,
10010000
00000000
01010000
00000000
10000000
01000000
00100000
00000000
,
00001000
00010000
00001000
00010000
00000020
00000000
00000130
00000000
,
00000101
00000000
00001010
00000000
00000001
00000010
00000100
00000000
,
00010000
00001000
00010000
00001000
00200000
00000000
01300000
00000000
,
21000000
00010000
00100000
30010000
,
10000000
00100000
00010000
00001000
00000200
00000000
00000310
00000000
,
00001010
00000000
00000101
00000000
00001000
00000100
00000010
00000002
,
00000000
00001000
00001003
00000000
00000000
00000000
00000110
00000000
,
00001001
00000000
00000000
00000001
00000000
00000000
00000100
00000000
00000010
00000000
00000000
00000010
00000000
00000000
00001000
00000000
,
00000100
00000000
00000000
00000100
00000000
00000000
00010000
00000000
00002000
00000000
00000000
00000000
02003000
00000000
00000000
00000000
,
03200000
00000000
00000000
00000000
10300000
00000000
00010000
00000000
10000000
00000000
00000000
10000000
00000000
00000000
01000000
00000000
,
00100000
00000000
00000000
00100000
00000000
00000000
00001000
00000000
00020000
00000000
00000000
00000000
00030020
00000000
00000000
00000000
,
00000230
00000000
00000301
00000010
00000200
00000000
00001300
00000000
,
00000001
00001000
00000000
00000000
00000001
00000000
00000100
00000000
00000020
00000000
00000000
00000000
00010030
00000000
00000000
00000000
,
00000010
00010000
00001000
00100000
00020000
00000000
10000000
10030000
,
00000000
00000000
00000000
10010000
,
10000000
00100000
02000000
00000000
13000000
00000000
01000000
00020000
,
00000000
00230000
00000000
00301000
00010000
00000100
00001000
00000000
,
00002200
00000000
00003300
00000000
00000000
00000000
00000001
00000000
00000000
00001000
00000000
00000000
00000001
00000000
00000000
00000000
00000000
00000000
00000202
00000000
00000303
00000000
00000000
00000000
,
00000202
00000000
00000303
00000000
00000000
00000000
00001000
00000000
00000000
00000001
00000000
00000000
00001000
00000000
00000000
00000000
00000000
00000000
00001001
00000000
00000000
00000000
00000000
00000000
,
00000002
00000000
00000023
00000000
,
00000230
00000000
00020300
00001000
,
00031000
00001000
00001000
00100000
00010000
01000000
00100000
20020000
,
00000000
30030000
00000000
00000000
;

//---------------dance-double - ----------------
#NOTES:
     dance-double:
     :
     Easy:
     9:
     0.423185,0.533021,0.375622,0.546359,0.029879,347.000000,303.000000,44.000000,64.000000,0.000000,0.000000,0.423185,0.533021,0.375622,0.546359,0.029879,347.000000,303.000000,44.000000,64.000000,0.000000,0.000000:
00000000
00000000
00000000
00000000
,
00000000
00000000
00000000
00000000
,
00000000
00000000
00000000
00000000
,
00000000
00000000
00000000
00000000
,
00010000
00001000
00100000
00010000
,
01000000
00010000
01000000
00000000
00001000
00000000
00000000
00000000
,
00001000
00010000
00000100
00001000
,
00000010
00010000
00000010
00000000
00010000
00000000
00000000
00000000
,
00001000
00100000
00010000
10000000
,
00100000
01000000
00100000
00000000
01000000
00000000
00000000
00000000
,
00010000
00000000
00000000
00010000
00000000
00000000
00000000
00000000
10000000
00000000
00000000
10000000
00000000
00000000
02000000
00000000
,
00000000
00000000
00000000
03000000
,
10010000
00010000
01000000
00100000
,
10000000
00000000
00010000
00000000
00100000
00010000
00100000
00000000
,
00001000
00010000
00000100
00001000
,
00000010
00000000
00000100
00000000
00000001
00001000
00000001
00000000
,
00001000
00000000
00000000
00001000
00000000
00000000
00000000
00000000
00000100
00000000
00000000
00000100
00000000
00000000
00000000
00000000
,
00010000
00000000
00000000
00010000
00000000
00000000
00002000
00000000
00000000
00000000
00000000
00003000
01000000
00000000
00000000
00000000
,
00011000
00011000
00011000
00011000
,
00001000
00010000
00001000
00010000
00002000
00000000
00000000
00000000
,
00203000
00000000
00000000
00000000
,
02300000
00000000
03000000
13010000
,
20000000
00000000
30020000
00000000
,
01030000
00001000
00011000
00000000
,
00020000
00030200
00000320
00000032
,
00002003
00000000
00003010
00000100
00000020
00000000
00000000
00000000
,
00001030
00000000
00000001
00000000
00000100
00000000
00000001
00000010
,
00000000
00000010
00000200
00000000
00000000
00000000
00010300
00000000
,
00011000
00001000
00100000
00010000
,
10000000
00000000
00100000
01000000
00100000
00000000
00100000
00000000
,
10000000
01000000
00100000
00010000
,
01000000
00000000
00001000
00010000
00001000
00000000
00001000
00000000
,
00020000
00000000
00000000
00000000
00000000
00000000
00000000
00030000
00000200
00000000
00000000
00000000
00000320
00000000
00000000
00000000
,
00000031
00001000
00000001
00000000
00000200
00000000
00000000
00000000
,
00000310
00000010
00000010
00000000
00001000
00000000
00000100
00020000
,
00000000
00001000
00001000
00031000
,
00022000
00000000
00000000
00000000
,
00000000
00000000
00000000
00033000
,
00001000
00000000
00100000
00000000
00010000
00000000
10000000
00100000
,
00000000
20000000
00000000
32000000
00000000
03200000
00000000
00000000
,
00301000
00000000
00010000
00000000
00000100
00001000
00000100
00000000
,
00010000
00000000
00001000
00000000
00100000
00010000
00100000
00000000
,
00002000
00023000
00030020
00000230
,
00000301
00001000
00000001
00001000
00000002
00000000
00000003
00000000
,
00000000
00001001
00001001
00001001
,
00001001
00001001
00001000
00000100
,
00000000
00011000
00011000
00011000
,
00001000
00010000
00001000
00000000
00200000
00000000
00320000
00000000
,
10030000
00000000
00010000
01000000
00000000
00000000
00010000
01000000
,
00000000
00010000
10010000
10010000
,
00020000
02030000
03200000
20300000
,
30010000
10000000
00010000
10000000
00020000
00000000
00030000
00000000
,
00000000
10010000
10010000
10010000
,
10010000
10010000
00010000
00100000
,
00000000
00011000
00011000
00011000
,
00010000
00001000
00010000
00000000
00000020
00000000
00000000
00000000
,
00000130
00000000
00000001
00000000
00001000
00000100
00001000
00000000
,
00000010
00000000
00010000
00000000
00001000
00010000
00001000
00000000
,
00100000
00100000
01000000
01000000
,
10000000
00010000
10000000
00010000
20000000
00000000
30000000
00000000
,
10010000
10020000
01030000
00001000
,
00010000
00000000
00000100
00000010
00000002
00000000
00000003
00000000
,
00001001
00002001
00003310
00010000
,
00001000
00000000
00100000
01000000
20000000
00000000
30000000
00000000
,
00020000
02030000
03002000
00023000
,
00030200
00000000
00001300
00000001
00002000
00000000
00000000
00000000
,
00003100
00000000
00000010
00000000
00000001
00000000
00001000
00000020
,
00000000
00000130
00000000
00000000
,
00001001
00001001
00001000
00000100
,
00011000
00011000
00100000
00010000
,
10010000
10010000
10000000
00100000
,
01100000
01100000
20020000
30030000
,
20000000
31000000
00200000
00310000
,
02000000
00000000
03001000
00010000
00002000
00000000
00003000
00000000
,
00010000
00000100
00010000
00000000
00000200
00000000
00000310
00000002
,
00000000
00000000
00000003
00001001
,
00000001
00000000
00001000
00000000
00000010
00000100
00000010
00000000
,
00001000
00000000
00000100
00000000
00010000
00001000
00010000
00000000
,
00011000
00000000
00100000
00100000
00100000
00000000
00011000
00000000
,
00011000
00000000
00100000
00100000
00100000
00000000
00000000
00000000
,
00200000
00000000
00320000
00000000
,
20030000
00000000
30200000
00000000
,
01300000
00000000
00001000
00000000
00200000
00000000
00302000
00020000
,
00000000
00033000
00000000
00000000
;
