#VERSION:0.83;
#TITLE:西新宿清掃曲;
#SUBTITLE:;
#ARTIST:サイモンマン;
#TITLETRANSLIT:Nishi-Shinjuku seisou kyoku;
#SUBTITLETRANSLIT:;
#ARTISTTRANSLIT:Simonman;
#GENRE:;
#ORIGIN:;
#CREDIT:;
#BANNER:nssk-banner.png;
#BACKGROUND:nssk-background.png;
#PREVIEWVID:;
#JACKET:nssk-jacket.png;
#CDIMAGE:;
#DISCIMAGE:;
#LYRICSPATH:;
#CDTITLE:scr-cdtitle.png;
#MUSIC:nssk-audio.ogg;
#OFFSET:0.000000;
#SAMPLESTART:22.285999;
#SAMPLELENGTH:13.714000;
#SELECTABLE:YES;
#DISPLAYBPM:140.000000;
#BPMS:0.000=140.000,
32.000=280.000,
48.000=140.000,
152.000=280.000,
205.000=560.000,
227.000=140.000;
#STOPS:;
#DELAYS:;
#WARPS:;
#TIMESIGNATURES:0.000=4=4;
#TICKCOUNTS:0.000=4;
#COMBOS:0.000=1;
#SPEEDS:0.000=1.000=0.000=0,
152.000=1.150=32.000=0,
205.000=1.000=8.000=0;
#SCROLLS:0.000=1.000,
152.000=0.500,
205.000=0.250,
227.000=1.000;
#FAKES:;
#LABELS:0.000=Song Start;
#BGCHANGES:;
#FGCHANGES:0.000=lua=0.000=0=0=1=====,
;
#KEYSOUNDS:;
#ATTACKS:
;

//---------------dance-single - [XMOD] SJ-, XO-----------------
#NOTEDATA:;
#CHARTNAME:music;
#STEPSTYPE:dance-single;
#DESCRIPTION:[XMOD] SJ-, XO-;
#CHARTSTYLE:;
#DIFFICULTY:Hard;
#METER:13;
#RADARVALUES:0.573225,0.778596,0.253837,0.390518,0.283126,411.000000,385.000000,26.000000,40.000000,0.000000,0.000000,0.000000,0.000000,0.000000,0.573225,0.778596,0.253837,0.390518,0.283126,411.000000,385.000000,26.000000,40.000000,0.000000,0.000000,0.000000,0.000000,0.000000;
#CREDIT:Scrypts;
#DISPLAYBPM:140.000000;
#NOTES:
0000
0000
0000
0000
,
1000
0000
0000
1000
0000
0000
0100
0000
0010
0000
0000
0000
0001
0000
0000
0000
,
1000
0000
0000
1000
0000
0000
0010
0000
0100
0000
0001
0000
2001
0000
0000
0000
,
3001
0000
0000
0001
0000
0000
0100
0000
1000
0000
0200
0000
0010
0000
0000
0000
,
0301
0000
0000
0001
0000
0000
0010
0000
0100
0000
1000
0001
0100
0000
0001
0000
,
0010
0000
0000
0010
0100
0000
1000
0000
1100
0000
0000
0000
0001
0000
0000
0000
,
0101
0000
0000
0100
0010
0000
1000
0000
1200
0000
0010
0000
0320
0000
0000
0000
,
0031
0000
1000
0100
1000
0000
0001
0000
1000
0000
0001
0100
0001
0000
1000
0000
,
2002
0000
0000
0000
,
0000
0000
0000
0000
,
0000
0000
0000
0000
,
3003
0000
0000
0000
,
0000
0000
0000
0000
,
0000
0000
0000
0000
,
1001
0000
1000
0000
1001
0000
0000
0000
1001
0000
0000
0001
1000
0000
0001
0000
,
1000
0010
0100
0000
0001
1000
0100
0000
,
0010
0000
0001
0000
1000
0000
0000
0000
0010
0000
0000
0100
0001
0000
0000
0000
,
1000
0100
0010
0000
0001
1000
1020
0000
,
0130
0000
0001
0000
1000
0000
0000
0000
0100
0000
0010
0001
0100
0000
0000
0000
,
0010
1000
0001
0000
0010
0100
1000
0000
,
0001
0000
0100
0000
0010
0000
0000
0000
0100
0000
0000
0001
1000
0000
0000
0000
,
0100
0010
1002
0000
0103
0010
2001
3000
,
1200
0000
0310
0000
1002
0000
0003
0000
0201
0000
0310
1000
0002
0000
0000
0000
,
0013
0000
0000
0010
0000
0000
0100
0000
1000
0000
0010
0000
0200
0000
0000
0000
,
0310
0000
0000
0010
0000
0000
1000
0000
0100
0000
0010
0001
2000
0000
0000
0000
,
3010
0000
0000
0010
0000
0000
1000
0000
0100
0000
0001
0000
0200
0000
0000
0000
,
0310
0000
0000
0010
0000
0000
0001
0000
1000
0000
0010
0100
0002
0000
0000
0000
,
0103
0000
0000
0100
0000
0000
0010
0000
1000
0000
0100
0000
2100
0000
0000
0000
,
3010
0000
0000
0010
0000
0000
0100
0000
0001
0000
0010
0100
1000
0000
0001
0000
,
0100
0000
0010
1000
0001
0000
0010
0000
0100
0000
0010
0001
1000
0000
0010
0000
,
0100
0000
0010
1000
0001
0000
0010
0000
0100
0000
1000
0001
0200
0000
0000
0000
,
0301
0000
1000
0000
0100
0000
0000
0000
1000
0000
0000
0010
0001
0000
0010
0000
,
1000
0000
0001
0000
0010
0000
0000
0000
0100
0000
0000
1000
0001
0000
0100
0010
,
1000
0000
0010
0000
0100
0000
0000
0000
0001
0000
0000
0010
1000
0000
0010
0000
,
0001
0000
1000
0000
0001
0000
0000
0000
0100
0000
0000
0010
2000
0000
0000
0000
,
3100
0000
0000
0010
0002
0000
0000
0000
0103
0000
0000
0010
2000
0000
0000
0000
,
3100
0000
0000
0010
0002
0000
0000
0000
0103
0000
0000
0010
2000
0000
0000
3100
,
0020
0000
0000
0031
0200
0000
0000
0310
2000
0000
0000
3100
0020
0000
0000
0031
,
1000
0010
0100
0001
,
1000
0010
0100
0001
,
1000
0100
0010
0001
,
1000
0100
0010
0001
,
1000
0100
1000
0001
,
1000
0010
1000
0001
,
0010
0001
1000
0001
,
0100
0001
1000
0001
,
1000
0100
0010
0001
,
1000
0100
0010
0001
,
1000
0010
0100
0001
,
1000
0010
0100
0001
,
0010
0100
1000
0010
,
0100
2002
0000
0000
,
0000
0000
0000
0000
,
0000
0000
0000
0000
,
0000
0000
0000
0000
,
0000
0000
0000
0000
,
0000
0000
0000
3003
,
0000
1100
0101
0110
,
1001
1000
0100
0000
0010
0001
1000
0000
,
0010
0000
0100
0000
0001
0000
0100
0010
1000
0000
0000
0000
0001
0000
0010
0000
,
0100
0000
1000
0001
0110
0000
1000
0001
,
0010
0000
0100
1000
0010
0000
0000
0000
0100
0000
0001
0000
1000
0000
0000
0000
,
0100
0000
0010
0000
0001
0000
0000
0000
1000
0000
0010
0000
0100
0000
0000
0001
,
0010
0000
0100
0010
2001
0000
3010
0100
,
2001
0000
3000
0000
2100
0000
3010
0000
0102
0000
0003
0000
0021
0000
0130
1000
,
0010
0000
0100
0010
1000
0000
0002
0000
0010
0000
2003
0000
0010
0000
3000
0000
,
0001
0000
0010
0100
1000
0000
0010
0100
0001
0000
1000
0000
0100
0000
1000
0010
,
0100
0000
0020
0000
1000
0000
0230
0000
1000
0000
0300
0000
0010
0000
1000
0100
,
0010
0000
0010
0001
0100
0000
0001
0000
1000
0000
0010
1000
0001
0000
0010
0000
,
0100
0000
1000
0000
0001
0000
0000
0000
0100
0000
0001
1000
0010
0000
0010
1000
,
0100
0000
0010
0000
0001
0000
0100
0010
1000
0000
0010
0000
0100
0000
0001
0010
,
0100
0000
0010
0000
0001
0000
1000
0010
0100
0000
0001
0000
1000
0000
0100
0010
,
2000
0000
3000
0000
;

//---------------dance-single - [XMOD] DS+, XO+, KS, SJ----------------
#NOTEDATA:;
#CHARTNAME:hi;
#STEPSTYPE:dance-single;
#DESCRIPTION:[XMOD] DS+, XO+, KS, SJ;
#CHARTSTYLE:;
#DIFFICULTY:Challenge;
#METER:16;
#RADARVALUES:0.708512,0.884768,0.370992,0.527200,0.336822,508.000000,470.000000,38.000000,54.000000,14.000000,0.000000,0.000000,0.000000,0.000000,0.708512,0.884768,0.370992,0.527200,0.336822,508.000000,470.000000,38.000000,54.000000,14.000000,0.000000,0.000000,0.000000,0.000000;
#CREDIT:Scrypts;
#DISPLAYBPM:140.000000;
#NOTES:
// measure 0
0000
0000
0000
0000
,  // measure 1
1000
0000
0000
1000
0000
0000
0010
0000
0100
0000
0000
0000
0002
0000
0000
0000
,  // measure 2
1003
0000
0000
1000
0000
0000
0100
0000
0010
0000
0001
0000
2001
0000
0000
0000
,  // measure 3
3001
0000
0000
0001
0000
0000
0100
0000
0020
0000
0100
0000
1030
0000
0000
0000
,  // measure 4
0001
0000
0000
0001
0000
0000
0010
0000
0100
0000
1000
0001
0100
0000
0001
0000
,  // measure 5
0011
0000
0000
001M
2000
0000
3001
0000
0101
0000
0000
0000
2000
0000
3000
0000
,  // measure 6
1010
0000
0000
M010
0002
0000
1003
0000
1100
0000
0001
0000
0002
0000
0003
0000
,  // measure 7
0011
0000
2000
3001
0100
0000
0002
0003
1010
0000
0002
1003
0100
0000
2000
3000
,  // measure 8
2002
0000
0000
0000
,  // measure 9
0000
0000
0000
0000
,  // measure 10
0000
0000
0000
0000
,  // measure 11
0000
0000
0000
0000
,  // measure 12
3003
0000
0000
0000
,  // measure 13
0000
0000
0000
0000
,  // measure 14
1001
0000
0001
0000
1001
0000
0000
0000
1001
0000
0000
1000
0001
0000
1000
0000
,  // measure 15
0001
0010
0100
0000
1000
0020
0001
0000
,  // measure 16
1030
0000
0100
0000
0010
0000
0000
0000
0001
0000
0000
2000
0010
0000
0000
0000
,  // measure 17
3001
0100
0010
0000
1000
0100
0011
0000
,  // measure 18
1000
0000
0010
0000
0100
0000
0000
0000
0001
0000
1000
0100
0210
0000
0000
0000
,  // measure 19
1300
0010
0100
0000
0001
0020
1000
0000
,  // measure 20
0031
0000
0100
0000
0010
0000
0000
0000
1000
0000
0000
0002
0010
0000
0000
0000
,  // measure 21
1003
0100
0011
0000
0001
0100
1010
0000
,  // measure 22
0011
0000
0100
0000
1001
0000
0000
0000
1020
0000
0130
0001
2001
0000
0000
0000
,  // measure 23
3010
0000
0100
0010
1000
0000
0001
0000
0200
0000
1000
0000
0301
0000
0000
0000
,  // measure 24
1000
0000
0100
1000
0001
0000
1000
0000
0010
0000
0100
0002
0010
0000
0000
0000
,  // measure 25
1003
0000
0010
1000
0001
0000
0010
0000
0200
0000
0010
0000
1300
0000
0000
0000
,  // measure 26
0001
0000
0100
0001
1000
0000
0100
0000
0010
0000
0001
0100
0120
0000
0000
0000
,  // measure 27
1030
0000
0001
1000
0010
0000
1000
0000
0200
0000
0001
0000
2300
0000
0000
0000
,  // measure 28
3001
0000
0100
0001
1000
0000
0010
0000
0100
0000
0001
2000
0100
0000
3000
0000
,  // measure 29
0001
0000
0010
0100
1000
0000
0100
0000
0010
0000
0001
0100
0010
0000
0100
0000
,  // measure 30
0001
0000
0010
0100
1000
0000
0010
0000
0001
0000
0010
0100
0002
0000
0000
0000
,  // measure 31
1003
0000
0010
0000
0100
0000
0000
0000
0001
0000
0000
010M
1000
0000
0100
0010
,  // measure 32
0001
0000
0100
0000
0010
0000
0000
0000
1000
0000
0000
M010
0001
0000
0010
0100
,  // measure 33
1000
0000
0010
0000
0100
0000
0000
0000
0001
0000
0000
010M
1000
0000
0100
0010
,  // measure 34
0001
0000
0010
0000
0100
0000
0000
0000
1000
0000
0000
M200
0001
0000
0000
0000
,  // measure 35
0010
0000
0300
02M0
1000
0000
0000
0000
0010
0000
0300
02M0
0001
0000
0000
0000
,  // measure 36
0010
0000
0300
02M0
1000
0000
0000
0000
0010
0000
0300
02M0
0001
0000
0300
020M
,  // measure 37
1000
0000
0300
M200
0001
0000
0000
0320
1000
0000
0030
M020
0001
0000
0030
001M
,  // measure 38
1000
0010
0100
0001
1000
0010
0100
0001
,  // measure 39
1000
0100
0010
0001
1000
0100
0010
0001
,  // measure 40
1000
0010
0100
0001
1000
0010
0100
0001
,  // measure 41
1000
0100
0010
0001
1000
0100
0010
0001
,  // measure 42
1000
0100
1000
0001
1000
0010
1000
0001
,  // measure 43
1000
0100
1000
0001
1000
0010
1000
0001
,  // measure 44
0010
0001
1000
0001
0100
0001
1000
0001
,  // measure 45
0010
0001
1000
0001
0100
0001
1000
0001
,  // measure 46
0010
0100
1000
0001
0010
0100
1000
0001
,  // measure 47
0100
0010
1000
0001
0100
0010
1000
0001
,  // measure 48
0010
0100
1000
0001
0010
0100
1000
0001
,  // measure 49
0100
0010
1000
0001
0010
0100
1000
0010
,  // measure 50
0100
0001
0010
0100
1000
0010
0100
0001
,  // measure 51
1000
0100
0020
0000
0000
0000
0000
0000
,  // measure 52
0000
0000
0000
0000
,  // measure 53
0000
0000
0000
0000
,  // measure 54
0000
0000
0000
0000
,  // measure 55
0000
0000
0000
0000
,  // measure 56
0000
0000
0000
0030
,  // measure 57
0000
1001
1100
0110
,  // measure 58
1001
0000
0001
0000
0010
0000
0001
1000
0200
0000
0001
0000
1300
0000
0001
0000
,  // measure 59
0100
0000
0010
2000
0001
0000
3100
0010
1000
0000
0010
0000
0001
0000
1000
0000
,  // measure 60
0010
0000
0100
0001
1000
0000
0100
0000
0011
0000
1000
0000
0001
0000
0100
0010
,  // measure 61
0001
0000
0010
0100
0201
0000
0300
0000
1001
0000
1000
0000
0100
0000
1000
0001
,  // measure 62
0200
0000
1000
0000
0301
0000
1000
0000
0001
0000
0010
0200
1000
0000
0310
0100
,  // measure 63
0001
0000
0100
0000
1000
0000
0010
0000
0101
0000
0001
1000
0001
0000
0010
0000
,  // measure 64
1100
0000
1000
0001
1000
0000
0010
0000
0101
0000
0000
0000
1001
0000
0001
1000
,  // measure 65
2010
0000
3100
1000
0010
0000
0100
0000
0001
0000
0200
0000
1000
0000
0000
0000
,  // measure 66
0301
0000
1000
0100
0010
0000
1000
0010
0001
0000
1000
0000
0012
0000
0103
0001
,  // measure 67
0010
0000
0001
0000
2000
0000
0010
0000
3001
0000
0000
0000
0010
0000
0001
0100
,  // measure 68
1000
0000
0100
0010
2010
0000
3000
0000
0102
0000
0013
0001
0100
0000
0010
0000
,  // measure 69
1000
0000
0200
0000
0001
0000
0000
0000
1300
0000
0001
0010
1000
0000
0010
0100
,  // measure 70
1000
0000
0001
1000
0001
0000
0100
0000
1020
0000
0130
0001
1000
0000
0100
0000
,  // measure 71
0021
0000
0130
1000
0001
0000
0100
0000
1020
0000
0130
0010
1000
0000
1000
0100
,  // measure 72
0002
0000
0003
0000
;
