#VERSION:0.83;
#TITLE:Niraikanai in Atlantis;
#SUBTITLE:;
#ARTIST:litmus*;
#TITLETRANSLIT:;
#SUBTITLETRANSLIT:;
#ARTISTTRANSLIT:;
#GENRE:;
#CREDIT:;
#MUSIC:Niraikanai in Atlantis.ogg;
#BANNER:Niraikanai in Atlantis-bn.png;
#BACKGROUND:;
#CDTITLE:;
#SAMPLESTART:86.839;
#SAMPLELENGTH:12.000;
#SELECTABLE:YES;
#OFFSET:0.911;
#BPMS:0.000=160.000;
#STOPS:;
#SPEEDS:0.000=1.000=0.000=0,
20.000=1.037=1.000=0,
21.000=1.074=1.000=0,
22.000=1.110=1.000=0,
23.000=1.145=1.000=0,
24.000=1.177=1.000=0,
25.000=1.208=1.000=0,
26.000=1.236=1.000=0,
27.000=1.261=1.000=0,
28.000=1.282=1.000=0,
29.000=1.300=1.000=0,
30.000=1.315=1.000=0,
31.000=1.325=1.000=0,
32.000=1.331=1.000=0,
33.000=1.333=1.000=0,
192.000=1.420=0.500=0,
192.500=1.503=0.500=0,
193.000=1.580=0.500=0,
193.500=1.648=0.500=0,
194.000=1.703=0.500=0,
194.500=1.744=0.500=0,
195.000=1.769=0.500=0,
195.500=1.778=0.500=0
;
#SCROLLS:0.000=0.750,
162.000=0.727,
162.250=0.703,
162.500=0.680,
162.750=0.656,
163.000=0.633,
163.250=0.609,
163.500=0.586,
163.750=0.563,
228.000=0.422,
234.000=0.439,
234.250=0.457,
234.500=0.475,
234.750=0.492,
235.000=0.510,
235.250=0.527,
235.500=0.545,
235.750=0.563,
333.000=0.422
;
#FAKES:20.000=14.000;
#JACKET:;
#DISCIMAGE:;
#CDIMAGE:;
#BGCHANGES:;
#FGCHANGES:;

//--------------- dance-single - XMOD ----------------
#NOTEDATA:;
#STEPSTYPE:dance-single;
#DESCRIPTION:XMOD;
#DIFFICULTY:Medium;
#METER:12;
#RADARVALUES:0,0,0,0,0;
#CHARTNAME:;
#CHARTSTYLE:;
#CREDIT:Talkion;
#METERF:12;
#NOTES:
0000
0000
0000
0000
,
0000
0000
0000
0000
,
0000
0000
0000
0000
,
0000
0000
0000
0000
,
0000
0000
0000
0000
,
0000
0000
0000
0000
,
0000
0000
0000
0000
,
0000
0000
0000
0000
,
0000
0000
0000
0000
,
1001
0000
1000
0100
1000
0001
0010
0001
,
1000
0010
1000
0001
0100
0001
0010
0100
,
1000
0000
0001
0100
0001
1000
0010
1000
,
0001
0010
0001
1000
0100
1000
0010
0100
,
0001
1000
0200
0010
0000
1300
0001
1000
,
0020
0100
0000
1030
0001
0010
0100
1000
,
0010
0100
0001
1000
0100
1000
0001
0010
,
0001
0100
0010
0100
0002
0000
1003
0100
,
0020
0000
0001
0000
0000
0100
0000
0000
,
0031
0000
0000
1000
0000
0000
0010
0100
,
0001
0000
1000
0100
0000
0100
0010
0000
,
0001
0100
0000
0100
0010
0000
1000
0001
,
0010
0100
2000
0000
3010
0100
0002
0000
,
0103
0010
2000
0000
3100
0010
0002
0000
,
1003
0010
0100
0001
1000
0100
0010
0001
,
2000
0000
3020
0000
0130
0001
0020
0000
,
0130
0000
0000
1100
0000
0000
0000
0000
1000
0000
0010
0000
0100
0000
0000
0100
,
0000
0000
0010
0000
0100
0000
0000
0100
0000
0000
0001
0000
1000
0000
0100
0000
,
0010
0000
0000
0011
0000
0000
0000
0000
0001
0000
0100
0000
0010
0000
0100
0000
,
0001
0000
0000
1000
0000
0000
1000
0000
0200
0000
0000
0000
0320
0000
0000
0000
,
0031
0000
0000
1001
0000
0000
0000
0000
1000
0000
0010
0000
0200
0000
0000
0000
,
0302
0000
2003
0000
3100
0010
0100
0010
,
0001
0000
2000
0010
0000
3002
0100
0000
,
2003
0100
0000
3002
0010
0000
1003
0010
,
0200
0000
0000
0000
0000
0000
0000
0000
0301
0000
0010
0000
0100
0000
0000
0100
,
0000
0000
0010
0000
0100
0000
0000
0100
0000
0000
1000
0000
0001
0000
0100
0000
,
0010
0000
0000
1010
0000
0000
0000
0000
1000
0000
0100
0000
0010
0000
0100
0000
,
1000
0000
0000
0001
0000
0000
0001
0000
0200
0000
0000
0000
0320
0000
0000
0000
,
1030
0000
0000
1001
0000
0000
0000
0000
0001
0000
0010
0000
0200
0000
0000
0000
,
0300
1000
0001
0000
0100
0010
0100
0010
,
1000
0000
0002
0010
0000
2003
0100
0000
,
3002
0100
0000
1003
0020
0000
0000
0000
,
0130
0000
0001
0000
,
1000
0000
0100
0000
,
0010
0000
0100
0000
,
1000
0000
0001
0000
,
0100
0000
0001
0000
,
0010
0000
0100
0000
,
1000
0000
0010
0000
,
1000
0000
0001
0000
,
0010
0000
0010
0100
1000
0000
0000
0001
,
0100
0000
0000
0100
0000
0000
0010
0000
1000
0000
0000
0001
0000
0000
0010
0000
,
0100
0000
0000
0000
0100
0000
0010
0000
0001
0000
0000
1000
0000
0000
0010
0000
,
0100
0000
0000
0100
0000
0000
0001
0000
1000
0000
0000
0000
0100
0000
0010
0000
,
0001
0000
1000
0010
0100
0000
0001
0000
,
1001
0000
1000
0100
0010
0000
0001
0000
,
0100
0010
0100
0001
0010
0100
0010
0001
,
2000
3020
0230
0302
,
0013
0000
0000
0000
,
0000
0000
0200
0320
,
0031
1000
0001
0200
0000
0310
1000
0100
,
0020
0000
0000
0000
0031
0000
0100
0000
0010
0000
0000
1000
0000
0000
0001
0000
,
0010
0100
0010
0001
0100
0010
0100
0001
,
1000
0100
1000
0001
0100
0000
0100
0010
,
1000
0000
0001
0010
0100
0010
0001
1000
,
0001
0000
0100
0010
1000
0100
1000
0001
,
0100
0001
0010
0200
0000
1300
0001
0100
,
0020
0000
1000
0000
0130
0000
0010
0010
,
1000
0001
1000
0200
0000
0310
0001
0100
,
0020
0000
0000
0000
1030
0000
0100
0000
0010
0000
0000
0001
0000
0000
1000
0000
,
0010
0100
0010
1000
0100
0010
0100
1000
,
0002
0000
0103
0000
0010
0100
0010
1000
,
0100
0000
0100
0010
0001
0010
0100
1000
,
0010
0000
0010
0100
0001
0010
0001
0100
,
0010
1000
0100
1000
0001
0100
0001
0010
,
0100
1000
0010
0100
0001
0010
0100
1000
,
0001
0000
1000
0010
1000
0001
0100
0001
,
1000
0100
1000
0001
0010
0001
0100
0010
,
1000
0000
0001
0010
0001
1000
0100
1000
,
0001
0100
0001
1000
0010
1000
0100
0010
,
0001
0100
0020
1000
0000
0130
0001
0010
,
0200
1000
0000
0310
0001
0100
0010
1000
,
0100
1000
0001
0100
0001
0010
0100
1000
,
0010
0100
0010
1000
0100
0010
0100
1000
,
0000
2002
0000
0000
,
0000
0000
0000
0000
,
0000
0000
0000
0000
,
0000
0000
0000
0000
,
3003
0000
0000
0000
;

//--------------- dance-single - XMOD FS XO ----------------
#NOTEDATA:;
#STEPSTYPE:dance-single;
#DESCRIPTION:XMOD FS XO;
#DIFFICULTY:Hard;
#METER:15;
#RADARVALUES:0,0,0,0,0;
#CHARTNAME:;
#CHARTSTYLE:;
#CREDIT:Talkion;
#METERF:14;
#NOTES:
0000
0000
0000
0000
,
0000
0000
0000
0000
,
0000
0000
0000
0000
,
0000
0000
0000
0000
,
0000
0000
0000
0000
,
00M0
0000
0M00
0000
,
00M0
0000
0M00
0000
,
00M0
0000
0M00
0000
,
00M0
0000
0000
0000
,
2001
0000
0000
0000
3100
00M0
0100
0000
0001
0000
0010
0M00
0010
0000
1000
0000
,
0010
0M00
0010
0000
0001
0000
0100
M000
0100
0000
0010
0000
0001
0000
1000
0000
,
0100
0000
1000
0000
0010
0M00
0010
0000
0001
0000
0100
00M0
0100
0000
1000
0000
,
0100
00M0
0100
0000
0001
0000
0010
M000
0010
0000
0100
0000
0001
0000
1000
0000
,
2100
0000
0000
0000
3010
0M00
0010
0000
0001
0000
0100
00M0
0100
0000
1000
0000
,
1100
00M0
0100
0000
0001
0000
0010
M000
0010
0000
0100
0000
0001
0000
0010
0000
,
0200
0000
1300
0001
1000
0000
0010
0000
0200
0000
0301
1000
0001
0000
0010
0000
,
1000
0010
0100
1000
0001
0010
0001
0100
,
1000
0100
0010
2000
0000
3100
0020
0000
,
0031
0200
0000
0310
1000
0001
0010
0100
,
1000
0100
0010
0002
0000
0103
0020
0000
,
1030
0000
0200
0000
0000
0000
0310
0000
0001
0000
1000
0100
1000
0000
0001
0000
,
0010
0M00
0020
0000
1000
0000
0000
0000
0130
000M
0200
0000
1000
0000
0000
0000
,
0310
000M
0010
0000
1000
0000
0001
0000
0100
00M0
0200
0000
1000
0000
0000
0000
,
0310
0001
0100
0010
2000
0100
3002
0100
,
1003
0000
0000
0100
0010
0100
0010
0000
0001
0010
0100
0000
2000
0000
3000
0000
,
1010
0000
0000
1010
0000
0000
0010
0000
0100
0000
0001
0000
0010
0000
0001
1000
,
0000
1000
0020
0000
0130
0000
0001
1000
0000
1000
0020
0000
0130
0000
0001
0000
,
0011
0000
0000
0011
0000
0000
0010
0000
0100
0000
1000
0000
0001
0100
0001
0000
,
1000
0000
0000
0000
0000
0000
0001
0000
0000
0100
0000
0000
0000
0000
0000
0100
0000
0000
0002
0000
0000
0000
0000
0000
0023
0000
0000
0000
0000
0000
0000
0000
0000
0000
0000
0000
0130
0000
0000
0000
0010
0000
0000
0000
0100
0000
0000
0000
,
1000
0000
0000
0000
0000
0000
0000
0000
0000
1001
0000
0000
0000
0000
0000
0000
0000
0000
0001
0000
0000
0000
0000
0000
0100
0000
0000
0000
0000
0000
0010
0000
0000
0000
0000
0000
1000
0000
0000
0000
0100
0000
0000
0000
1000
0000
0000
0000
,
0001
0000
0100
0000
0001
0000
0010
0000
0100
0000
1000
0000
0020
0000
0000
0000
0000
0000
1030
0000
0000
1000
0000
0000
,
0002
0000
0000
0000
0103
00M0
2100
0000
0000
0000
3010
0M00
0012
0000
0000
0000
,
0013
0M00
2010
0000
0000
0000
3100
00M0
0101
0000
0000
1000
0100
0000
0100
0000
,
0020
0000
0000
0000
0000
0000
0031
0000
1000
0000
0010
0000
0100
0000
0001
1000
,
0000
1000
0200
0000
0310
0000
0001
1000
0000
1000
0200
0000
0310
0000
0001
0000
,
0101
0000
0000
0101
0000
0000
0100
0000
0010
0000
1000
0000
0001
0010
0001
0000
,
1000
0000
0001
0010
0000
0010
0002
0000
0203
0000
0000
0000
0310
1000
0010
1000
,
0001
0000
0000
0011
0000
0000
0010
0000
0100
0000
1000
0000
1020
0000
0000
0000
,
0000
0000
0130
0000
0010
0000
1000
0000
0001
0010
0001
0010
0100
0000
1000
0000
,
0002
0000
0000
0000
0013
0M00
2010
0000
0000
0000
3100
00M0
0102
0000
0000
0000
,
0103
00M0
2100
0000
0000
0000
3010
0000
0200
0000
0000
0000
0000
0000
0000
0000
,
0302
0000
0000
0013
0000
0100
0000
1000
,
0002
0000
0000
0103
0000
0010
0100
0001
,
2000
0000
0000
3100
0000
0010
0100
1000
,
0001
0000
0000
0100
0010
0000
0000
2000
,
3002
0000
0000
0013
0000
0001
0100
0010
,
2000
0000
0000
3001
0000
0000
0010
0000
,
0100
0010
0002
0100
0000
1003
0000
0000
,
0200
0000
0320
0000
,
0031
0000
0000
0000
0010
0000
0001
0000
0100
0000
0000
0000
0001
0000
1000
0100
,
1000
0000
0000
0002
0000
0000
0100
0000
1003
0000
0000
0001
0000
0000
0010
0000
,
0100
0000
0000
2000
0000
0000
0100
0000
3001
0000
0000
1000
0000
0000
0010
0000
,
0200
0000
0000
0001
0000
0000
0310
0000
1010
0000
0000
0000
1000
0000
0001
0010
,
0100
0000
0000
0000
1000
0000
0001
0000
0100
0000
0000
0010
0000
0000
1000
0000
,
1001
0000
0000
0000
0001
0000
0010
0000
0100
0000
0000
0000
1000
0000
0010
0100
,
0010
0000
1000
0000
0001
0000
0010
0000
0001
0000
0100
0010
0100
0000
0001
0000
,
2000
0000
3100
0010
0002
0000
0103
0010
2000
0000
3010
0100
0002
0000
0013
0100
,
1000
0000
0000
0000
,
0000
0000
0002
0203
,
0310
0000
2000
0000
0100
0000
3002
0000
0000
0000
0103
0000
0010
0000
1000
0100
,
1000
0000
0010
0000
0100
0000
0001
0000
2000
0000
0000
3100
0000
0100
0010
0000
,
1000
0000
0010
0100
0010
0000
0001
0000
0100
0000
0010
1000
0010
0000
0100
0000
,
0001
0000
1000
0100
1000
0000
0001
0010
0001
0000
0000
0000
0001
0000
1000
0010
,
0200
0000
0000
0000
0301
0000
0010
0100
1000
0000
0001
0100
0001
0000
1000
0000
,
0200
0000
0000
0000
1300
0000
0010
0100
0002
0000
0100
0000
1003
0000
0100
0010
,
0001
0000
0010
0100
0010
0000
2000
0000
0000
0000
3001
0000
0100
0010
0100
1000
,
0002
0000
0203
0000
2300
0000
3200
0000
0302
0000
0003
1000
0100
0000
0100
0000
,
0010
0000
0002
0000
0100
0000
2003
0000
0000
0000
3100
0000
0010
0000
0001
0100
,
0001
0000
0010
0000
0100
0000
1000
0000
0002
0000
0000
0103
0000
0100
0010
0000
,
0001
0000
0010
0100
0010
0000
1000
0000
0001
0000
0010
0000
1000
0000
0010
0100
,
0020
0000
0000
0000
0031
0000
1000
0000
0010
0000
0100
0010
1000
0000
0001
0010
,
0200
0000
0000
0000
1300
0000
0010
0100
0001
0000
1000
0100
1000
0000
0010
0100
,
0002
0000
0000
0000
1003
0000
0100
0010
0100
0000
0001
0000
1000
0000
0010
0100
,
2000
0000
0010
0000
3001
0000
1000
0000
1010
0000
0010
0100
0001
0000
1000
0000
,
0002
0000
0010
0000
1003
0000
0020
0000
0100
0000
1030
0000
0001
0010
0001
0010
,
0200
0000
0000
0000
0310
000M
0010
0000
1000
0000
0100
00M0
0100
0000
0001
0000
,
0100
00M0
0100
0000
1000
0000
0010
000M
0010
0000
0100
0000
1000
0000
0001
0000
,
0100
0000
0001
0000
0010
0M00
0010
0000
1000
0000
0100
00M0
0100
0000
0001
0000
,
0100
00M0
0100
0000
1000
0000
0010
000M
0010
0000
0100
0000
1000
0000
0001
0000
,
0102
0000
0000
0000
0013
0M00
0010
0000
1000
0000
0100
00M0
0100
0000
0001
0000
,
0101
00M0
0100
0000
1000
0000
0010
000M
0010
0000
0100
0000
1000
0000
0010
0000
,
0200
0000
0301
0010
0001
0000
1000
0000
0200
0000
1300
0010
1000
0000
0001
0000
,
0100
0010
1000
0001
1000
0000
0100
0010
0001
1000
0002
0000
0100
0000
1003
0000
,
0000
2002
0000
0000
,
0000
0000
0000
0000
,
0000
0000
0000
0000
,
0000
0000
0000
0000
,
3003
0000
0000
0000
;

//--------------- dance-single - XMOD GH XO ----------------
#NOTEDATA:;
#STEPSTYPE:dance-single;
#DESCRIPTION:XMOD GH XO;
#DIFFICULTY:Challenge;
#METER:17;
#RADARVALUES:0,0,0,0,0;
#CHARTNAME:;
#CHARTSTYLE:;
#CREDIT:Talkion;
#METERF:17;
#NOTES:
0000
0000
0000
0000
,
0000
0000
0000
0000
,
0000
0000
0000
0000
,
0000
0000
0000
0000
,
0000
0000
0000
0000
,
00M0
0000
0M00
0000
,
00M0
0000
0M00
0000
,
00M0
0000
0M00
0000
,
00M0
0000
0000
0000
,
1100
0000
0100
0010
1000
0000
0020
0000
0100
0000
0031
1000
0001
0000
0100
0000
,
1000
0000
0100
0010
2000
0000
0010
0000
3001
0010
0000
0010
0100
0000
1000
0000
,
0010
0000
0100
0010
0001
0000
0020
0000
0100
0000
1030
0001
1000
0000
0100
0000
,
0001
0000
0100
0010
0002
0000
0010
0000
1003
0010
0000
0010
0100
0000
0001
0000
,
0011
0000
0010
0100
0001
0000
0200
0000
0010
0000
1300
0001
1000
0000
0010
0000
,
0110
0000
0100
0010
0001
0000
0010
0000
1000
0001
0010
0001
1000
0000
0010
0000
,
1000
0001
0010
0100
1000
0001
0100
0001
0010
0100
1000
0001
0100
0010
0100
0001
,
0020
0000
0100
0000
0031
0000
0200
0000
0010
0000
0301
1000
0001
0000
0010
0000
,
1000
0010
0100
2000
0000
3010
0200
0000
,
0301
0020
0000
0130
1000
0001
0100
0010
,
1000
0010
0100
0002
0000
0013
0200
0000
,
1300
0000
0020
0000
0000
0000
0130
0000
0001
0000
1000
0100
1000
0000
0001
0000
,
1000
0010
0100
0001
MMM0
0000
0000
0000
0001
0010
0100
1000
0MMM
0000
0000
0000
,
1000
0010
0100
0001
MM00
0000
00MM
0000
1000
0100
1000
0001
MMM0
0000
0000
0000
,
0001
1000
0010
1000
0100
0010
0100
1000
0002
0000
0100
0000
2003
0000
0100
0000
,
3001
0010
0001
0100
0010
1000
0100
1000
0001
0010
0100
0000
0002
0000
0003
0000
,
0101
0000
0000
1100
0000
0000
0100
0010
0001
0000
1000
0010
0100
0000
0001
1000
,
0000
1000
0100
0010
0100
0000
1000
0001
0010
0001
0100
0010
0100
0000
1000
0000
,
1100
0000
0000
0101
0000
0000
0100
0010
1000
0000
0001
0010
0100
1000
0100
0000
,
1000
0000
0000
0000
0000
0000
0001
0000
0000
0100
0000
0000
0010
0000
0000
1000
0000
0000
0010
0000
0000
1000
0000
0000
0002
0000
0000
0000
0000
0000
0000
0000
0000
0000
0000
0000
0013
0000
0000
0000
0100
0000
0000
0000
0010
0000
0000
0000
,
1000
0000
0000
0000
0000
0000
0000
0000
0000
0011
0000
0000
0000
0000
0000
0000
0000
0000
0010
0000
0000
0100
0000
0000
1000
0000
0000
0001
0000
0000
0100
0000
0000
0010
0000
0000
1000
0000
0000
0000
0100
0000
0000
0000
1000
0000
0000
0000
,
0001
0000
0000
0000
0100
0000
0000
0000
0001
0000
0000
0000
0010
0000
0000
0000
0100
0000
0000
0000
0010
0000
0000
0000
0001
0000
0000
1000
0000
0000
0001
0000
0000
1000
0000
0000
0010
0000
0000
0000
0000
0000
0010
0000
0000
0000
0000
0000
,
0200
0000
0000
0320
0001
0000
0130
0000
0001
1000
0001
0000
0020
0000
0000
0230
,
0001
0000
0310
0000
0001
1000
0001
0000
0100
0000
0010
1000
0010
0000
0100
0000
,
2000
0000
0000
0000
0000
0000
3100
0010
1000
0000
0001
0010
0100
0000
1000
0001
,
0000
0001
0100
0010
0100
0000
0001
1000
0010
1000
0100
0010
0100
0000
0001
0000
,
0101
0000
0000
00M0
0000
0000
1001
0000
0000
0000
0000
0000
0001
0000
0010
0000
0100
0000
0000
0000
1000
0000
0001
0000
0100
0000
0010
0000
0100
0000
0000
0000
,
0010
0000
1000
0001
0010
0100
0010
0100
2000
0000
0000
0000
3001
0100
0010
0100
,
1000
0000
0000
00M0
0000
0000
1001
0000
0000
0000
0000
0000
1000
0000
0100
0000
0010
0000
0000
0000
0001
0000
0100
0000
0020
0000
0000
0000
0000
0000
0000
0000
,
0000
0000
1030
0001
1000
0000
0100
1000
0001
0100
0010
0100
0001
0000
1000
0000
,
0200
0000
0000
0320
1000
0000
0130
0000
1000
0001
1000
0000
0020
0000
0000
0230
,
1000
0000
0310
0000
1000
0001
1000
0000
0200
0000
0000
0000
0000
0000
0000
0000
,
0320
0000
0000
0031
0000
1000
0000
0010
,
0100
0010
1000
0100
0000
0010
0100
1000
,
0001
0100
0001
1000
0000
0100
0010
0001
,
0100
0000
0000
0000
0000
0000
0100
0000
0010
0000
0000
0000
0000
0000
1000
0001
,
1000
0100
1000
0001
0000
0010
0100
1000
,
0010
0100
0010
1000
0000
0000
0001
0000
,
0010
0001
0200
0010
0000
1300
0100
0000
,
0002
0000
2003
0000
,
3100
0000
0000
0000
1000
0001
0010
0001
0100
0000
0000
0000
0001
0000
1000
0100
,
1000
0000
0000
0002
0000
0000
0100
0000
1003
0000
0000
0001
0000
0000
0010
0000
,
0100
0000
0000
2000
0000
0000
0100
0000
3001
0000
0000
1000
0000
0000
0010
0000
,
0200
0000
0000
0001
0000
0000
0310
0000
1010
0000
0000
0000
1000
0000
0001
0010
,
0100
0000
0000
0000
1000
0000
0001
0000
0100
0000
0010
1000
0010
0000
0100
0000
,
0101
0000
0000
0000
0001
0000
1000
0000
0100
0000
0000
0000
1000
0000
0010
0100
,
0010
0000
1000
0000
0001
0000
0010
0000
0001
0000
0100
0010
0100
0000
0001
0000
,
1000
0100
0010
0100
1000
0010
1000
0001
0100
0001
0010
0100
0010
0001
0000
0000
,
1001
0000
0000
0000
,
0000
0000
2000
3020
,
0130
0000
0001
1000
0001
0000
0020
0000
0001
0000
0001
1000
000M
0000
0130
0001
,
0020
0000
0001
1000
000M
0000
0130
0000
0001
0000
1000
0100
0000
0100
0010
0000
,
1000
0000
0010
0100
1000
0000
0010
0000
0001
0000
0010
0100
0001
0000
0010
0000
,
0110
0000
0100
1000
0001
0000
0100
0010
1000
0000
0000
0000
1000
0001
0010
0001
,
0200
0000
0001
1000
000M
0000
0310
0100
0001
0000
0100
0010
0001
0000
1000
0000
,
0020
0000
1000
0001
M000
0000
0130
0010
0001
1000
0010
0100
1000
0000
0100
0001
,
0010
0000
0100
0010
0100
0000
0002
0000
0000
0000
1003
0010
0100
1000
0010
0100
,
0002
0000
0203
0000
2300
0000
3200
0000
0302
0000
0003
1000
0100
0000
0100
0000
,
1001
0000
1000
0010
0100
0000
0020
0000
1000
0000
1000
0001
M000
0000
0130
1000
,
0020
0000
1000
0001
M000
0000
0130
0000
1000
0000
0001
0100
0000
0100
0010
0000
,
0001
0000
0010
0100
0001
0000
1000
0000
0001
0010
0100
0010
1000
0000
0010
0001
,
0200
0000
0001
1000
000M
0000
0310
0000
0001
0000
1000
0000
0010
0100
0001
0010
,
0200
0000
1000
0001
M000
0000
0310
0100
1000
0000
0100
0010
1000
0000
0001
0010
,
0200
0000
1000
0001
M000
0000
0310
0100
0001
1000
0100
0010
1000
0000
0010
0100
,
0002
0000
0100
0010
0M00
0000
1003
0000
0010
0100
0001
0100
0010
1000
0100
0010
,
0001
1000
0100
1000
0020
0000
0031
0010
0100
0001
0020
0000
0031
1000
0100
1000
,
0020
0000
0000
0130
1000
0000
0200
0000
0010
0000
0301
1000
0001
0000
0010
0000
,
1000
0000
0010
0100
2000
0000
0100
0000
3001
0100
0010
0100
0001
0000
1000
0000
,
0100
0000
0010
0100
0001
0000
0200
0000
0010
0000
1300
0001
1000
0000
0010
0000
,
0001
0000
0010
0100
0002
0000
0100
0000
1003
0100
0010
0100
1000
0000
0001
0000
,
0101
0000
0100
0010
0001
0000
0010
0100
0001
0000
1000
0010
1000
0000
0100
0000
,
0110
0000
0010
0100
0001
0000
0100
0010
0001
1000
0010
1000
0001
0000
0010
0000
,
0001
1000
0010
0100
0001
1000
0100
1000
0010
0100
0001
1000
0100
0010
0100
1000
,
0001
0100
0010
1000
0010
0100
0001
0010
0100
1000
0100
0010
0001
0100
0010
1000
,
0000
2002
0000
0000
,
0000
0000
0000
0000
,
0000
0000
0000
0000
,
0000
0000
0000
0000
,
3003
0000
0000
0000
;
