#TITLE:にめんせい☆ウラオモテライフ!;
#SUBTITLE:(Himouto! Umaru-chan R OP);
#ARTIST:田中 あいみ;
#TITLETRANSLIT:Nimensei! Ura Omote Life!;
#SUBTITLETRANSLIT:;
#ARTISTTRANSLIT:Aimi Tanaka;
#GENRE:ANIME;
#CREDIT:;
#MUSIC:Nimensei! Ura Omote Life!.ogg;
#BANNER:Nimensei! Ura Omote Life!.png;
#BACKGROUND:Nimensei! Ura Omote Life!-bg.png;
#CDTITLE:cdtitle.png;
#SAMPLESTART:58.836;
#SAMPLELENGTH:15.000;
#SELECTABLE:YES;
#OFFSET:0.001;
#BPMS:0.000=340.000
,140.000=680.000
,141.000=340.000
,142.500=170.000
,144.000=85.000
,145.000=222.000
,161.000=230.000
,169.000=225.000
,173.000=106.750
,175.000=340.000
;
#STOPS:175.000=1.000;
#DISPLAYBPM:222.000:340.000;
#BGCHANGES:-0.200=Nimensei! Ura Omote Life!.avi=1.000=1=0=0=StretchNoLoop==CrossFade==;
#FGCHANGES:;

//--------------- dance-single - KAYSTAR ----------------
#NOTES:
     dance-single:
     KAYSTAR:
     Beginner:
     4:
     0,0,0,0,0:
0000
0000
0000
0000
,
0000
0000
0000
0000
,
0000
0000
0000
0000
,
0000
0000
0000
0000
,
0000
0000
0000
0000
,
0000
0000
0000
0000
,
0000
0000
0000
0000
,
0000
0000
0000
0000
,
0000
0000
0000
0000
,
0000
0000
0000
0000
,
2000
0000
0000
0000
,
3000
0000
0000
0000
,
0002
0000
0000
0000
,
0003
0000
0000
0000
,
0000
0000
0000
0000
,
0000
0000
0000
0000
,
1000
0000
0000
0000
,
0001
0000
0000
0000
,
0100
0000
0100
0000
,
0100
0000
0000
0000
,
0010
0000
0000
0000
,
1000
0000
0000
0000
,
0001
0000
0000
0000
,
0000
0000
0000
0000
,
0010
0000
0000
0000
,
0001
0000
0000
0000
,
1000
0000
0000
0000
,
0000
0000
0000
0000
,
0100
0000
0000
0000
,
1000
0000
0000
0000
,
0001
0000
0000
0000
,
0000
0000
0000
0000
,
0100
0000
0000
0000
,
0001
0000
0000
0000
,
1000
0000
0000
0000
,
0000
0000
0000
0000
,
0000
0002
0000
0003
,
0000
0000
0000
0000
,
0000
0020
0000
0030
,
0000
0000
0000
0000
,
0000
0200
0000
0300
,
0000
0000
0000
0000
,
0000
2000
0000
3000
,
0000
0000
0000
0000
,
0000
0001
0000
0000
,
0000
0001
0000
0000
,
0000
0001
0000
0000
,
0000
0000
0000
0000
,
0000
1000
0000
0000
,
0000
1000
0000
0000
,
0000
1000
0000
0000
,
0000
0000
0000
0000
,
0000
0010
0000
0000
,
0000
0010
0000
0000
,
0000
0010
0000
0000
,
0000
0000
0000
0000
,
0000
0100
0000
0000
,
0000
0100
0000
0000
,
0000
0100
0000
0000
,
0000
0000
0000
0000
,
0000
0001
0000
0000
,
0000
1000
0000
0000
,
0000
0100
0000
0000
,
0000
0000
0000
0000
,
0000
1000
0000
0000
,
0000
0001
0000
0000
,
0000
0100
0000
0000
,
0000
0000
0000
0000
,
0000
0010
0000
0010
,
0000
0010
0000
0000
,
0000
0100
0000
0100
,
0000
0100
0000
0000
,
0000
2002
0000
0000
,
0000
0000
0000
0000
,
0000
3003
0000
0000
,
0000
0000
0000
0000
,
0000
0001
0000
0000
,
0000
0010
0000
0000
,
0000
0100
0000
0000
,
0000
1000
0000
0000
,
0000
0001
0000
0000
,
0000
0001
0000
0000
,
0000
1000
0000
0000
,
0000
1000
0000
0000
,
0000
0001
0000
0000
,
0000
0100
0000
0000
,
0000
0010
0000
0000
,
0000
1000
0000
0000
,
0000
0100
0000
0100
,
0000
0100
0000
0000
,
0000
0010
0000
0010
,
0000
0010
0000
0000
,
0000
0001
0000
0000
,
0000
1000
0000
0000
,
0000
0010
0000
0000
,
0000
0100
0000
0000
,
0000
0001
0000
0001
,
0000
0001
0000
0000
,
0000
1000
0000
1000
,
0000
1000
0000
0000
,
0000
0200
0000
0000
,
0000
0300
0000
0000
,
0000
0020
0000
0000
,
0000
0030
0000
0000
,
0000
0001
0000
0000
,
0000
1000
0000
0000
,
0000
0010
0000
0010
,
0000
0010
0000
0000
,
0000
2002
0000
0000
,
0000
3003
0000
0000
,
0000
0220
0000
0000
,
0000
0330
0000
0000
,
0000
0001
0000
0001
,
0000
0001
0000
0000
,
0000
0010
0000
0000
,
0000
0100
0000
0000
,
0000
1000
0000
1000
,
0000
1000
0000
0000
;

//--------------- dance-single - KAYSTAR ----------------
#NOTES:
     dance-single:
     KAYSTAR:
     Easy:
     8:
     0,0,0,0,0:
0000
0000
0000
0000
,
0000
0000
0000
0000
,
0000
0000
0000
0000
,
0000
0000
0000
0000
,
0000
0000
0000
0000
,
0000
0000
0000
0000
,
0000
0000
0000
0000
,
0000
0000
0000
0000
,
0000
0000
0000
0000
,
0000
0000
0000
0000
,
0002
0000
0000
0000
,
0023
0000
0000
0000
,
0230
0000
0000
0000
,
2300
0000
0000
0000
,
3001
0000
0001
0000
,
1000
0000
1000
0000
,
0010
0000
0100
0000
,
0010
0000
0100
0000
,
0001
0000
0010
0000
,
0100
0000
0000
0000
,
1000
0000
0000
0000
,
0001
0000
0000
0000
,
0100
0000
0100
0000
,
0010
0000
0000
0000
,
1000
0000
0000
0000
,
0001
0000
0000
0000
,
0010
0000
0010
0000
,
0100
0000
0000
0000
,
1000
0000
0000
0000
,
0001
0000
0000
0000
,
0100
0000
0100
0000
,
0010
0000
0000
0000
,
1000
0000
0001
0000
,
1000
0000
0001
0000
,
0010
0000
0000
0000
,
2002
0000
0000
0000
,
3003
1000
0000
0010
,
0000
0100
0000
0001
,
0000
1000
0000
1000
,
0000
0001
0000
0001
,
0000
1000
0000
0100
,
0000
0010
0000
0001
,
0000
0100
0000
0010
,
0000
2002
0000
3003
,
0000
1000
0000
0000
,
0000
0010
0000
0000
,
0000
0100
0000
0100
,
0000
0001
0000
0000
,
0000
0010
0000
0000
,
0000
0100
0000
0100
,
0000
2000
0000
0000
,
0000
3000
0000
1001
,
0000
0001
0000
0000
,
0000
0100
0000
0000
,
0000
0010
0000
0010
,
0000
1000
0000
0000
,
0000
0100
0000
0000
,
0000
0010
0000
0010
,
0000
0001
0000
0000
,
0000
2002
0000
3003
,
0000
1000
0000
0010
,
0000
1000
0000
0000
,
0000
0001
0000
0100
,
0000
0001
0000
0000
,
0000
1000
0000
0100
,
0000
1000
0000
0000
,
0000
0001
0000
0010
,
0000
0001
0000
0000
,
0000
0100
0000
0100
,
0000
0100
0000
0000
,
0000
0010
0000
0010
,
0000
0010
0000
0000
,
0000
1000
0000
0001
,
0000
1000
0000
0001
,
0000
1000
0000
0000
,
0000
2002
0000
3003
,
0000
0001
0000
1000
,
0000
0100
0000
0100
,
0000
1000
0000
0001
,
0000
0100
0000
0100
,
0000
0020
0000
0000
,
0000
1030
0000
0100
,
0000
0020
0000
0000
,
0000
0031
0000
1001
,
0000
1000
0000
0001
,
0000
1000
0000
0001
,
0000
0100
0000
0010
,
0000
2000
0000
0000
,
0000
3100
0000
0010
,
0000
0002
0000
0000
,
0000
0103
0000
0000
,
0000
0001
0000
1001
,
0000
1000
0000
0100
,
0000
0010
0000
0010
,
0000
0001
0000
0100
,
0000
0010
0000
0010
,
0000
2000
0000
0000
,
0000
3100
0000
0010
,
0000
0002
0000
0000
,
0000
0103
0000
0010
,
0000
2000
0000
0001
,
0000
0001
0000
3001
,
0000
0020
0000
0100
,
0000
0100
0000
0130
,
0000
0220
0000
0330
,
0000
2002
0000
3003
,
0000
0001
0000
1000
,
0000
2002
0000
3003
,
0000
0002
0000
0000
,
0000
0203
0000
0000
,
0000
0320
0000
0000
,
0000
2030
0000
0000
,
0000
3001
0000
0001
,
0000
1000
0000
1000
,
0000
0100
0000
0010
,
0000
0100
0000
0010
,
0000
0001
0000
0100
,
0000
0010
0000
2002
,
0000
3003
0000
0000
;

//--------------- dance-single - KAYSTAR ----------------
#NOTES:
     dance-single:
     KAYSTAR:
     Medium:
     12:
     0,0,0,0,0:
0000
0000
0000
0000
,
0000
0000
0000
0000
,
0000
0000
0000
0000
,
0000
0000
0000
0000
,
0000
0000
0000
0000
,
0000
0000
0000
0000
,
0000
0000
0000
0000
,
0000
0000
0000
0000
,
0000
0000
0000
0000
,
0000
0000
0000
0000
,
0001
0000
0000
0010
0000
0000
0100
0000
,
0001
0000
0000
0100
0000
0000
1000
0000
,
0001
0000
0000
0100
0000
0000
0010
0000
,
2000
0000
3001
0000
,
1000
0010
0100
0001
,
0020
0000
0130
0000
,
1000
1000
1000
0000
,
0001
0001
0001
0000
,
0100
0010
1000
0001
,
0010
0100
2000
0000
,
3001
0010
0001
0000
,
1000
0100
1000
0000
,
0001
0100
0000
0001
0100
0000
0010
0000
,
2000
0000
3001
0000
,
1000
0010
1000
0000
,
0001
0100
0001
0000
,
1000
0100
0000
1000
0100
0000
0010
0000
,
0002
0000
1003
0000
,
0001
0100
0010
0000
,
1000
0100
0010
0000
,
0001
1000
0000
0001
1000
0000
0001
0000
,
0200
0000
0310
0000
,
1000
0000
0000
0200
0000
0000
0310
0000
,
0001
0000
0000
0200
0000
0000
0310
0000
,
1000
0000
0000
0001
0000
0000
1000
0000
,
2002
0000
0000
0000
,
3003
0001
0100
0001
,
0000
1000
0010
1000
,
0000
0200
0000
1000
,
0000
0001
0000
1300
,
0000
0001
0010
0001
,
0000
1000
0100
1000
,
0000
0001
0100
1000
,
0000
0000
0220
0000
0000
0000
0000
0000
0000
0330
0000
0000
,
0000
2000
0000
3100
,
0010
0002
0000
1003
,
0010
0100
0000
0001
,
0010
0100
0000
1100
,
0000
0020
0000
0031
,
0100
0020
0000
1030
,
0100
0010
0000
1001
,
0000
0100
0000
1001
,
0000
0002
0000
0103
,
0010
2000
0000
3001
,
0010
0100
0000
1000
,
0010
0100
0000
0101
,
0000
0002
0000
0023
,
0000
0230
0000
1300
,
0000
0000
0001
0000
0000
0200
0000
0000
,
0310
1000
0000
1001
,
0000
0002
0000
0013
,
0000
0200
0000
1300
,
0000
1010
0000
0101
,
0000
0011
0000
1100
,
0000
2000
0000
3010
,
0000
0200
0000
0301
,
0000
1000
0100
0010
,
0001
1000
0000
1001
,
0000
0001
0100
0001
,
0000
1000
0010
1000
,
0000
0001
0010
0001
,
0000
1000
0100
1000
,
0000
0001
0100
0010
,
1000
0100
0010
0001
,
0000
0000
1000
0000
0010
0100
0000
0010
,
0100
0001
0000
1001
,
0000
1000
0100
0001
,
0100
1000
0002
1003
,
0000
0001
0100
1000
,
0100
0001
2000
3001
,
0000
1000
0100
0010
,
0001
0000
1000
0000
0010
0100
0000
0000
,
0001
0000
1000
0000
0100
0010
0000
0000
,
0001
1000
0000
1001
,
0000
0001
0100
0010
,
1000
0000
0100
0000
0010
0001
0000
0010
,
0001
0000
0100
0000
0010
1000
0000
0010
,
1000
0002
0000
1003
,
0000
0001
0010
0001
,
0100
0010
1000
0100
,
1000
0000
0001
0000
0000
1001
0000
0000
,
1000
0020
0000
0130
,
0000
0001
0010
1000
,
0010
0001
2000
3001
,
0000
1000
0010
0001
,
0010
1000
0002
1003
,
0000
2010
0000
3100
,
0000
0012
0000
0103
,
0000
1001
0000
0110
,
0000
1001
0000
0110
,
0000
1000
0001
0020
,
0000
0130
1000
0020
,
0000
0130
0001
0020
,
0000
0130
1000
0020
,
0000
0130
0000
1001
,
0000
0010
0000
1001
,
0000
0000
1000
0000
0100
0010
0000
0100
,
0010
0001
0000
1001
,
0000
0000
1000
0000
0000
0010
0000
0000
,
0100
0000
1000
0000
0000
0100
0000
0000
,
0001
0000
1000
0000
0000
0100
0000
0000
,
0010
0002
0000
1003
,
0000
0001
0010
0100
,
1000
0020
0000
0130
,
0000
0001
0001
0001
,
0000
1000
1000
1000
,
0000
0100
0010
0001
,
0100
0010
1000
2002
,
0000
3003
0000
0000
;

//--------------- dance-single - KAYSTAR ----------------
#NOTES:
     dance-single:
     KAYSTAR:
     Hard:
     15:
     0,0,0,0,0:
0000
0000
0000
0000
,
0000
0000
0000
0000
,
0000
0000
0000
0000
,
0000
0000
0000
0000
,
0000
0000
0000
0000
,
0000
0000
0000
0000
,
0000
0000
0000
0000
,
0000
0000
0000
0000
,
0000
0000
0000
0000
,
0000
0000
0000
0000
,
2000
0000
0000
3020
0000
0000
0130
0000
,
0002
0000
0000
0023
0000
0000
0130
0000
,
0002
0000
0000
0203
0000
0000
1300
0000
,
2002
0000
0000
3003
,
0002
0000
0000
0203
0000
0000
1300
0000
,
1200
0000
0301
0000
,
1100
1100
1100
0000
,
0011
0011
0011
0000
,
2000
3020
0230
0302
,
0023
0130
0110
0000
,
1000
0100
1100
0000
,
0001
0100
0101
0000
,
1000
0100
0000
0010
0001
0000
1000
0000
,
0010
0000
0100
1000
0000
0100
0001
0000
,
1000
0010
1010
0000
,
0001
0010
0011
0000
,
1000
0001
0000
0100
0010
0000
1000
0000
,
0001
0000
0010
0100
0010
0100
1000
0000
,
0001
0100
0110
0000
,
1000
0100
0110
0000
,
0001
0100
0000
0010
1000
0000
0001
0000
,
0010
0000
0100
0001
0000
0100
1000
0000
,
0002
0000
0000
0103
0000
0000
0110
0000
,
2000
0000
0000
3100
0000
0000
0110
0000
,
1001
0000
0000
0011
0000
0000
1100
0000
,
2002
0000
0000
0000
,
3003
1000
0010
0100
,
0001
0000
0000
0010
0000
0001
0010
0000
0200
0000
0000
0000
,
1300
0001
0101
1000
,
1010
0000
0000
0001
0000
0100
0001
0000
0010
0000
0000
0010
,
0100
0000
1001
0000
0000
0000
1000
0000
0000
0100
0000
0000
,
0010
0000
0000
0001
0000
1000
0000
0000
1020
0000
0000
0000
,
0130
0000
0000
0001
0000
0000
0011
0000
0000
1100
0000
0100
,
0010
0000
2002
0000
0000
0000
0000
0000
0000
3003
0000
0000
,
0000
1002
0000
0013
,
0100
1000
0100
0000
1000
0000
0001
0000
,
2001
0000
3010
0100
,
1000
1200
0000
0301
,
0000
0100
0010
1000
,
0001
0010
0100
0000
1000
0000
0001
0100
,
0010
2000
0000
3200
,
0000
0320
0000
0031
,
1000
2001
0000
3010
,
0100
0001
0100
0000
0001
0000
1000
0000
,
1002
0000
0013
0100
,
0001
0101
0100
1100
,
0000
0100
0010
0001
,
1000
0010
0100
0000
0001
0000
1000
0100
,
0010
0000
0001
0000
1000
0010
0000
0010
,
0100
0000
0001
0000
1000
0001
1000
0000
,
0000
1002
0000
0103
,
0000
2001
0000
3100
,
0010
1000
0010
0001
,
0100
0000
0010
0000
1000
0001
1000
0000
,
0000
1002
0000
0013
,
0000
2001
0000
3010
,
0001
0010
1000
0100
,
0010
0001
0000
1001
,
0000
0000
1000
0000
0010
1000
0010
0000
,
1000
0001
0101
0101
,
0000
0000
0001
0000
0010
0001
0010
0000
,
0001
1000
1100
1100
,
0000
0002
0203
2300
,
3002
0023
2030
3200
,
0320
0000
0031
0000
1000
0010
0000
0010
,
0100
0001
0000
1001
,
0000
0000
1000
0000
0001
0010
0100
0000
,
0001
0100
1100
1100
,
0000
0000
0001
0000
1000
0010
0100
0000
,
1000
0100
0101
0101
,
0000
1000
0100
0010
,
0001
0000
1000
0000
0001
0100
0000
0010
,
0100
0000
1000
0000
0001
0010
0000
0100
,
0010
0000
1000
0000
0001
0010
0001
0000
,
1000
0100
1000
0000
0001
0100
0010
0000
,
1000
0000
0001
0000
0010
0100
0000
0010
,
1000
0000
0001
0000
0100
0010
0000
0100
,
1000
0000
0001
0000
1000
0001
1000
0001
,
1000
0000
0010
0000
0100
0001
0000
0001
,
0100
0000
0010
0000
1000
0100
0010
0000
,
0001
0000
1001
0000
0000
0101
0000
0000
,
1010
0000
1001
0000
0001
1000
0002
0000
,
0000
0000
1003
0000
0001
0100
0010
0000
,
0001
0010
1010
1010
,
0000
0000
0001
0000
1000
0100
0010
0000
,
1000
0010
0011
0011
,
0000
1200
0000
0310
,
0001
0201
0000
0310
,
1000
2200
3300
0022
,
0033
0202
0303
2020
,
3030
1000
0001
0021
,
0130
1000
0010
1020
,
0130
0001
0010
0021
,
0130
1000
1001
1001
,
0000
0000
0001
0000
0010
0100
0002
0000
,
0103
0000
1000
0000
0010
0100
2000
0000
,
3100
0000
0010
0000
1000
0001
0000
1000
,
0001
0000
0010
0100
0010
0100
1000
0000
,
0000
0000
1020
0000
0000
0100
0000
0000
,
0031
0000
0021
0000
0000
0100
0000
0000
,
1030
0000
1001
0000
0000
0011
0000
0000
,
1100
2002
0000
0000
,
3003
0000
0001
0000
1000
0000
0010
0100
,
0010
0100
0001
0000
1000
0100
0010
0000
,
0000
0101
0101
0101
,
0000
1010
1010
1010
,
0000
0002
0023
2030
,
3002
0203
0310
2002
,
0000
3003
0000
0000
;

//--------------- dance-single - KAYSTAR ----------------
#NOTES:
     dance-single:
     KAYSTAR:
     Challenge:
     12:
     0,0,0,0,0:
0000
0000
0000
0000
,
0000
0000
0000
0000
,
0000
0000
0000
0000
,
0000
0000
0000
0000
,
0000
0000
0000
0000
,
0000
0000
0000
0000
,
0000
0000
0000
0000
,
0000
0000
0000
0000
,
0000
0000
0000
0000
,
0000
0000
0000
0000
,
2000
0000
0000
3200
0000
0000
0310
0000
,
0002
0000
0000
2003
0000
0000
3010
0000
,
0200
0000
0000
0302
0000
0000
1003
0000
,
0200
0000
0310
0000
,
0001
0100
0010
1000
,
0100
0000
1001
0000
,
0001
0001
0001
0000
,
1000
1000
1000
0000
,
0001
0010
0100
1000
,
0010
0000
MMMM
0000
,
0001
0100
0001
0000
,
0001
0010
0001
0000
,
1000
0100
0010
0001
,
0100
0000
MMMM
0000
,
1000
0010
1000
0000
,
1000
0100
1000
0000
,
0001
0010
0100
1000
,
0010
0000
MMMM
0000
,
0001
0100
0001
0000
,
0001
0010
0001
0000
,
1000
0100
0010
0001
,
0100
0000
MMMM
0000
,
1000
0000
0000
0010
0000
0000
0100
0000
,
0001
0000
0000
0010
0000
0000
0100
0000
,
1000
0000
0000
1001
0000
0000
0001
0000
,
0200
0000
0000
0000
,
0000
0310
0000
1000
,
0000
0001
0010
0100
,
0000
1000
0001
1000
,
0001
0100
0000
0010
,
0000
1000
0000
0100
,
0000
0010
0000
0001
,
0000
1000
0010
0100
,
0000
0000
2002
0000
0000
0000
3003
0000
0000
MMMM
0000
0000
,
0000
1000
0000
0001
,
0010
0100
0000
1000
,
0010
0000
0100
0001
,
0000
0010
0000
1001
,
0000
0001
0000
1000
,
0100
0010
0000
0001
,
1000
MMMM
0000
MMMM
,
0000
MMMM
0000
MMMM
,
0000
0001
0000
1000
,
0010
0100
0000
0001
,
0010
0000
0100
1000
,
0000
0010
0010
0010
,
0000
1000
0001
1000
,
0001
0100
0010
1000
,
0100
0000
0010
0000
0000
0001
0000
0000
,
1000
0000
0010
0000
0000
MMMM
0000
0000
,
0000
0002
0000
0013
,
0000
0200
0000
1300
,
0000
0010
0100
0001
,
0000
1000
0000
1001
,
0000
0002
0000
0103
,
0000
0020
0000
1030
,
0000
0100
0010
0001
,
0000
0100
0000
0110
,
0000
1000
0001
0010
,
0000
0100
0100
MMMM
,
0000
0001
1000
0010
,
0000
0100
0100
MMMM
,
0000
1000
0100
0010
,
0001
1000
0010
0100
,
0001
0000
1000
0000
0000
1001
0000
0000
,
0001
0020
0000
0130
,
0000
1000
0010
0100
,
0001
0010
MMMM
MMMM
,
0000
0001
0100
0010
,
1000
0100
MMMM
MMMM
,
0000
1000
0001
0100
,
0000
0010
1000
0100
,
0000
0000
0002
0000
0000
0203
0000
0000
,
1300
0020
0000
0130
,
0000
0001
1000
0100
,
0000
0010
0001
0100
,
0000
0000
2000
0000
0000
3200
0000
0000
,
0301
0020
0000
0130
,
0000
1000
0010
0100
,
0000
0001
0010
0100
,
0000
0000
1000
0000
0000
1001
0000
0000
,
0001
0200
0000
0310
,
0000
1000
0100
0010
,
0001
0100
MMMM
MMMM
,
0000
0001
0010
0100
,
1000
0010
MMMM
MMMM
,
0000
2000
0000
3100
,
0000
0002
0000
0103
,
0000
2002
3003
2200
,
3300
0022
0033
2002
,
3003
0001
0100
MMMM
,
0000
1000
0100
MMMM
,
0000
0001
0010
MMMM
,
0000
1000
0010
MMMM
,
0000
0001
1000
MMMM
,
0000
1000
0001
MMMM
,
0000
0000
0001
0000
0000
1001
0000
0000
,
1000
0200
0000
0310
,
0000
0000
0002
0000
0000
0203
0000
0000
,
0310
0000
2000
0000
0000
3002
0000
0000
,
0013
0000
0200
0000
0000
2300
0000
0000
,
3001
0200
0000
0310
,
0000
1000
0100
0010
,
0001
0100
0000
1001
,
0000
1000
1000
1000
,
0000
0001
0001
0001
,
0000
1000
0010
0100
,
0001
0010
MMMM
MMMM
;

//--------------- dance-double - KAYSTAR ----------------
#NOTES:
     dance-double:
     KAYSTAR:
     Easy:
     8:
     0,0,0,0,0:
00000000
00000000
00000000
00000000
,
00000000
00000000
00000000
00000000
,
00000000
00000000
00000000
00000000
,
00000000
00000000
00000000
00000000
,
00000000
00000000
00000000
00000000
,
00000000
00000000
00000000
00000000
,
00000000
00000000
00000000
00000000
,
00000000
00000000
00000000
00000000
,
00000000
00000000
00000000
00000000
,
00000000
00000000
00000000
00000000
,
20000000
00000000
00000000
00000000
,
32000000
00000000
00000000
00000000
,
03200000
00000000
00000000
00000000
,
00320000
00000000
00000000
00000000
,
10030000
00000000
10000000
00000000
,
00010000
00000000
00010000
00000000
,
10000000
00000000
00100000
00000000
,
01000000
00000000
00010000
00000000
,
10000000
00000000
01000000
00000000
,
00020000
00000000
00000000
00000000
,
00031000
00000000
00001000
00000000
,
00010000
00000000
00010000
00000000
,
00000010
00000000
00001000
00000000
,
00000100
00000000
00000000
00000000
,
00010000
00000000
00010000
00000000
,
00001000
00000000
00001000
00000000
,
00100000
00000000
00010000
00000000
,
01000000
00000000
00000000
00000000
,
00001000
00000000
00001000
00000000
,
00010000
00000000
00010000
00000000
,
00000010
00000000
00001000
00000000
,
00000100
00000000
00000000
00000000
,
00000020
00000000
00000000
00000000
,
00000031
00000000
00000000
00000000
,
00000100
00000000
00001000
00000000
,
00022000
00000000
00000000
00000000
,
00033000
00001000
00000000
00100000
,
00000000
01000000
00000000
10000000
,
00000000
00010000
00000000
00010000
,
00000000
01000000
00000000
00001000
,
00000000
00010000
00000000
00000010
,
00000000
00000100
00000000
00000001
,
00000000
00000010
00000000
00000100
,
00000000
00002002
00000000
00003003
,
00000000
00001000
00000000
00001000
,
00000000
00000001
00000000
00000001
,
00000000
00000200
00000000
00000000
,
00000000
00001300
00000000
00000000
,
00000000
00010000
00000000
00001000
,
00000000
01000000
00000000
00100000
,
00000000
20000000
00000000
00000000
,
00000000
00000000
30000000
00000000
,
00000000
00010000
00000000
00010000
,
00000000
10000000
00000000
10000000
,
00000000
02000000
00000000
00000000
,
00000000
03010000
00000000
00000000
,
00000000
00001000
00000000
00001000
,
00000000
00010000
00000000
00010000
,
00000000
00022000
00000000
00000000
,
00000000
00000000
00000000
00033000
,
00000000
00010000
00000000
00000100
,
00000000
00001000
00000000
00000000
,
00000000
00000001
00000000
00000100
,
00000000
00002000
00000000
00000000
,
00000000
00013000
00000000
00000000
,
00000000
00011000
00000000
00000000
,
00000000
00001000
00000000
00100000
,
00000000
00010000
00000000
00000000
,
00000000
10000000
00000000
10000000
,
00000000
10000000
00000000
00000000
,
00000000
00010000
00000000
00010000
,
00000000
00010000
00000000
00000000
,
00000000
01000000
00000000
00001000
,
00000000
00010000
00000000
00000010
,
00000000
00002000
00000000
00000000
,
00000000
00003001
00000000
00001001
,
00000000
00001000
00000000
00000001
,
00000000
00000100
00000000
00000100
,
00000000
00000001
00000000
00001000
,
00000000
00000100
00000000
00000100
,
00000000
00000020
00000000
00000000
,
00000000
00000031
00000000
00000000
,
00000000
00000200
00000000
00000000
,
00000000
00001300
00000000
00000000
,
00000000
00010000
00000000
00001000
,
00000000
00010000
00000000
00010000
,
00000000
00001000
00000000
00010000
,
00000000
00001000
00000000
00001000
,
00000000
01000000
00000000
00100000
,
00000000
20000000
00000000
00000000
,
00000000
30010000
00000000
00000000
,
00000000
10000000
00000000
10010000
,
00000000
00010000
00000000
10000000
,
00000000
01000000
00000000
01000000
,
00000000
10000000
00000000
00010000
,
00000000
01000000
00000000
01000000
,
00000000
00200000
00000000
00000000
,
00000000
10300000
00000000
00000000
,
00000000
02000000
00000000
00000000
,
00000000
03010000
00000000
00000000
,
00000000
00002000
00000000
00010000
,
00000000
00010000
00000000
00013000
,
00000000
00020000
00000000
00001000
,
00000000
00001000
00000000
00031000
,
00000000
00011000
00000000
00000000
,
00000000
00011000
00000000
00000000
,
00000000
00000100
00000000
00000010
,
00000000
00000001
00000000
00000000
,
00000000
00002000
00000000
00000000
,
00000000
00003020
00000000
00000000
,
00000000
00000230
00000000
00000000
,
00000000
00000302
00000000
00000000
,
00000000
00001003
00000000
00001000
,
00000000
00000001
00000000
00000001
,
00000000
00000010
00000000
00000100
,
00000000
00001000
00000000
00000001
,
00000000
00000100
00000000
00001000
,
00000000
00010000
00000000
00022000
,
00000000
00033000
00000000
00000000
;

//--------------- dance-double - KAYSTAR ----------------
#NOTES:
     dance-double:
     KAYSTAR:
     Medium:
     12:
     0,0,0,0,0:
00000000
00000000
00000000
00000000
,
00000000
00000000
00000000
00000000
,
00000000
00000000
00000000
00000000
,
00000000
00000000
00000000
00000000
,
00000000
00000000
00000000
00000000
,
00000000
00000000
00000000
00000000
,
00000000
00000000
00000000
00000000
,
00000000
00000000
00000000
00000000
,
00000000
00000000
00000000
00000000
,
00000000
00000000
00000000
00000000
,
10000000
00000000
00000000
00100000
00000000
00000000
01000000
00000000
,
00010000
00000000
00000000
10000000
00000000
00000000
01000000
00000000
,
00010000
00000000
00000000
00001000
00000000
00000000
00000010
00000000
,
00000002
00000000
00001003
00000000
,
00000001
00000100
00000010
00001000
,
00000200
00000000
00000310
00000000
,
00000001
00000001
00000001
00000000
,
00001000
00001000
00001000
00000000
,
00000001
00001000
00000010
00000100
,
00002000
00000000
00013000
00000000
,
00001000
00100000
00010000
00000000
,
10000000
00100000
01000000
00000000
,
00010000
10000000
00000000
00010000
10000000
00000000
01000000
00000000
,
00100000
00001000
00011000
00000000
,
00010000
00000010
00001000
00000000
,
00000001
00000010
00000100
00000000
,
00001000
00000001
00000000
00001000
00000001
00000000
00000100
00000000
,
00000010
00010000
00011000
00000000
,
00001000
00010000
00000100
00000000
,
00010000
00001000
00100000
00000000
,
00001000
00010000
00000000
00001000
00010000
00000000
00000010
00000000
,
00010000
00001000
01000000
00000000
,
00010000
00000000
00000000
10000000
00000000
00000000
01000000
00000000
,
00010000
00000000
00000000
00001000
00000000
00000000
00000010
00000000
,
00000001
00000000
00000000
00000100
00000000
00000000
00001000
00000000
,
00022000
00000000
00000000
00000000
,
00033000
00001000
01000000
00010000
,
00000000
10000000
00000000
10000000
,
00000000
00010000
00100000
01000000
,
00010000
00001000
00000010
00000100
,
00000000
00010000
00000010
00001000
,
00000000
00000001
00000000
00000001
,
00000000
00000000
00000000
00000100
00000000
00000000
00001000
00000000
00000000
00010000
00000000
00001000
,
00010000
00000000
00022000
00000000
00000000
00000000
00000000
00000000
00000000
00033000
00000000
00000000
,
00000000
20000000
00000000
30100000
,
01000000
00020000
00000000
10030000
,
01000000
00100000
00010000
01000000
,
00100000
10000000
00000000
10010000
,
00000000
00020000
00000000
00130000
,
01000000
00010000
00001000
00000010
,
00000100
00002000
00000000
00000001
,
00000000
00003001
00000000
00001001
,
00000000
00000002
00000000
00000103
,
00000010
00002000
00000000
00003001
,
00000010
00000100
00001000
00000010
,
00000100
00000001
00000000
00001001
,
00000000
00001000
00000100
00010000
,
00001000
00100000
01000000
10000000
,
00010000
00000000
02000000
00000000
00000000
03100000
00000000
00000000
,
10000000
01000000
00100000
00010000
,
00000000
20000000
00000000
30200000
,
00000000
00320000
00000000
00031000
,
00000000
00101000
00000000
00011000
,
00000000
00010100
00000000
00011000
,
00000000
00002000
00000000
00003200
,
00000000
00000302
00000000
00001003
,
00000000
00000001
00000010
00000100
,
00001000
00000010
00000000
00001001
,
00000000
00000001
00000100
00000001
,
00000000
00000100
00001000
00000100
,
00000000
00001000
00010000
00001000
,
00000000
00010000
00100000
00010000
,
00000000
00100000
01000000
00010000
,
10000000
01000000
00100000
00010000
,
10000000
00000000
00100000
00000000
00000000
01100000
00000000
00000000
,
00010000
00200000
00000000
01300000
,
00000000
10000000
00010000
01000000
,
10000000
01000000
00020000
10030000
,
00000000
00010000
10000000
01000000
,
00010000
01000000
20000000
30010000
,
00000000
01000000
00001000
00020000
,
00000000
00030010
00010000
00002000
,
00000000
00000000
00003100
00000000
00000010
00001000
00000000
00000010
,
00001000
00000002
00000000
00001003
,
00000000
00000100
00010000
00002000
,
00000000
00103000
00001000
00020000
,
00000000
00000000
01030000
00000000
00100000
00010000
00000000
00100000
,
00010000
20000000
00000000
30010000
,
00000000
01000000
00001000
00010000
,
00000010
00001000
00000100
00000010
,
00000001
00000000
00000100
00000000
00000000
00000110
00000000
00000000
,
00001000
00000200
00000000
00000310
,
00000000
00000001
00001000
00000010
,
00000001
00000010
00002000
00003001
,
00000000
00001000
00000001
00000010
,
00001000
00000010
00000002
00001003
,
00000000
00000200
00000000
00010300
,
00001000
00200000
00000000
00310000
,
00000000
10010000
00000000
01100000
,
00000000
10010000
00000000
01100000
,
00000000
10000000
00100000
02000000
,
00000000
03010000
00100000
02000000
,
00000000
13000000
00100000
02000000
,
00000000
03010000
00100000
01000000
,
00010000
00012000
00000000
00013000
,
00001000
00021000
00000000
00031000
,
00010000
00000000
00000010
00000000
00001000
00000100
00000000
00000100
,
00000010
00000002
00000000
00001003
,
00000000
00000000
00000001
00000000
00000000
00000100
00000000
00000000
,
00000010
00000000
00001000
00000000
00000000
00000001
00000000
00000000
,
00000010
00000000
00001000
00000000
00000000
00010000
00000000
00000000
,
01000000
20000000
00000000
30010000
,
00000000
10000000
00100000
01000000
,
00010000
00200000
00000000
01300000
,
00000000
10000000
10000000
10000000
,
00000000
00010000
00010000
00010000
,
00000000
10000000
00010000
01000000
,
00100000
00020000
00001000
00031000
;

//--------------- dance-double - KAYSTAR ----------------
#NOTES:
     dance-double:
     KAYSTAR:
     Hard:
     15:
     0,0,0,0,0:
00000000
00000000
00000000
00000000
,
00000000
00000000
00000000
00000000
,
00000000
00000000
00000000
00000000
,
00000000
00000000
00000000
00000000
,
00000000
00000000
00000000
00000000
,
00000000
00000000
00000000
00000000
,
00000000
00000000
00000000
00000000
,
00000000
00000000
00000000
00000000
,
00000000
00000000
00000000
00000000
,
00000000
00000000
00000000
00000000
,
20010000
00000000
00000000
30200000
00000000
00000000
01300000
00000000
,
00020000
00000000
00000000
00230000
00000000
00000000
01300000
00000000
,
00020000
00000000
00000000
00032000
00000000
00000000
00003010
00000000
,
00000200
00000300
00001001
00000000
,
00000001
00001000
00000010
00000100
,
00002000
00000000
00013000
00000000
,
00010100
00010100
00010100
00000000
,
00101000
00101000
00101000
00000000
,
00002000
00023000
00230000
20300000
,
32000000
03100000
10010000
00000000
,
00010000
00100000
01100000
00000000
,
10000000
00100000
01100000
00000000
,
00010000
10000000
00000000
10000000
01000000
00000000
00100000
00000000
,
00001000
00000000
00010000
00001000
00000000
00010000
00001000
00000000
,
00100000
00001000
00011000
00000000
,
00000010
00010000
00011000
00000000
,
00010000
00001000
00000000
00010000
00001000
00000000
00000100
00000000
,
00000010
00000000
00001000
00000001
00001000
00000001
00001000
00000000
,
00000001
00000010
00000110
00000000
,
00001000
00000010
00000110
00000000
,
00001000
00000001
00000000
00000001
00000010
00000000
00000100
00000000
,
00010000
00000000
00001000
00010000
00000000
00001000
00010000
00001000
,
00020000
00000000
00000000
00230000
00000000
00000000
10300000
00000000
,
20000000
00000000
00000000
32000000
00000000
00000000
03010000
00000000
,
00012000
00000000
00000000
00003020
00000000
00000000
00000031
00000000
,
00002002
00000000
00000000
00000000
,
00003003
00000001
00000100
00000010
,
00001000
00000000
00000000
00000100
00000000
00001000
00000100
00000000
00000020
00000000
00000000
00000000
,
00000031
00001000
00000010
00000100
,
00001000
00000000
00000000
00010000
00000000
00010000
00001000
00000000
00000010
00000000
00000000
00001000
,
00010000
00000000
00010000
01000000
00000000
00000000
00100000
00000000
00000000
00010000
00000000
00000000
,
10000000
00000000
00000000
00100000
00000000
10000000
00100000
00000000
02000000
00000000
00000000
00000000
,
03010000
00000000
00000000
10000000
00000000
00000000
11000000
00000000
00000000
00110000
00000000
00010000
,
10000000
00000000
20020000
00000000
00000000
00000000
00000000
00000000
00000000
30030000
00000000
00000000
,
00000000
10020000
00000000
01030000
,
00100000
10000000
00100000
00000000
10000000
00000000
00010000
00000000
,
00210000
00000000
00301000
00010000
,
00100000
01000000
00000000
10010000
,
00000000
00010000
00100000
01000000
,
00010000
00001000
00010000
00000000
00000100
00000000
00000010
00000000
,
00000001
00002000
00000000
00003020
,
00000000
00000230
00000000
00000301
,
00001000
00002001
00000000
00003010
,
00000100
00000001
00000100
00000000
00000001
00000000
00001000
00000000
,
00001200
00000000
00010300
00001000
,
00000010
00000100
00000110
00001001
,
00000000
00002000
00003020
00000230
,
00002300
00023000
00230000
02300000
,
03002000
00000000
00013000
00000000
00000000
00011000
00000000
00000000
,
00100000
00000000
01000000
00000000
10000000
00010000
10000000
00000000
,
00000000
10020000
00000000
01030000
,
00000000
20010000
00000000
31000000
,
00100000
00010000
01000000
00001000
,
00010000
00000000
00000010
00000000
00001000
00000001
00001000
00000000
,
00000000
00002001
00000000
00003100
,
00000000
00001002
00000000
00000103
,
00000010
00001000
00000100
00010000
,
00001000
00100000
00000000
10010000
,
00000000
00000000
10000000
00000000
00100000
10000000
00100000
00000000
,
01000000
00010000
00100000
00100000
,
00001000
00000000
00010000
00000000
00000100
00001000
00000100
00000000
,
00000010
00000001
00000100
00000100
,
00001000
00022000
00033000
00002000
,
00023000
00032000
00023000
01030000
,
00100000
00000000
00010000
00000000
10000000
00100000
00000000
00100000
,
01000000
00010000
00000000
10010000
,
00000000
00000000
10000000
00000000
00010000
00100000
01000000
00000000
,
00010000
00001000
00011000
00022000
,
00033000
00000000
00010000
00000000
00001000
00000100
00000010
00000000
,
00001000
00000001
00001001
00002002
,
00003003
00000000
00000001
00000000
00000010
00000001
00000010
00000000
,
00000100
00000000
00001000
00000000
00000010
00001000
00000010
00000000
,
00000100
00000000
00000001
00000000
00000010
00001000
00000000
00001000
,
00010000
02000000
00000000
03100000
,
00010000
00000000
10000000
00000000
00100000
10000000
00100000
00000000
,
01000000
00000000
00010000
00000000
00100000
00010000
00100000
00000000
,
01000000
00000000
10000000
00000000
00100000
00010000
00000000
00010000
,
00001000
00000200
00000000
00000310
,
00001000
00000000
00000001
00000000
00000010
00000100
00000000
00001000
,
00000100
00000000
00010000
00000000
00001000
00000100
00000000
00000010
,
00000100
00000000
00001001
00000000
00000000
00000011
00000000
00000000
,
00001100
00000000
00001001
00000000
00001000
00000001
00002000
00000000
,
00000000
00000000
00003001
00000000
00001000
00000100
00000010
00000000
,
00001000
00010000
00011000
00022000
,
00033000
00000000
00001000
00000000
00010000
00100000
01000000
00000000
,
00010000
10000000
10010000
20020000
,
30030000
12000000
00000000
03100000
,
00010000
02010000
00000000
03100000
,
10000000
20020000
30030000
00220000
,
00330000
22000000
33000000
20020000
,
30030000
10000000
01000000
00200000
,
00310000
01000000
00100000
00020000
,
00031000
00000100
00000010
00002000
,
00003100
00000010
00000001
00002002
,
00003003
00000000
00001000
00000000
00000010
00000100
00002000
00000000
,
00013000
00000000
00001000
00000000
00100000
01000000
00020000
00000000
,
00031000
00000000
00011000
00000000
00010000
00001000
00000000
00001000
,
00000010
00000000
00000100
00000000
00001000
00000001
00001000
00000000
,
00000000
00000000
00001002
00000000
00000000
00000023
00000000
00000000
,
00000130
00000000
00002000
00000000
00000000
00003020
00000000
00000000
,
00000130
00000000
00002000
00000000
00000000
00023000
00000000
00000000
,
00130000
02000000
03000000
10010000
,
00000000
00000000
10000000
00000000
00010000
00000000
00100000
01000000
,
00100000
01000000
00020000
00000000
00000000
00000000
00031000
00000000
,
00000000
01001000
01001000
01001000
,
00000000
00010010
00010010
00010010
,
00000000
00020000
00032000
00003020
,
00000032
00000203
00000310
00002002
,
00000000
00003003
00000000
00000000
;

//--------------- dance-double - KAYSTAR ----------------
#NOTES:
     dance-double:
     KAYSTAR:
     Challenge:
     12:
     0,0,0,0,0:
00000000
00000000
00000000
00000000
,
00000000
00000000
00000000
00000000
,
00000000
00000000
00000000
00000000
,
00000000
00000000
00000000
00000000
,
00000000
00000000
00000000
00000000
,
00000000
00000000
00000000
00000000
,
00000000
00000000
00000000
00000000
,
00000000
00000000
00000000
00000000
,
00000000
00000000
00000000
00000000
,
00000000
00000000
00000000
00000000
,
00010000
00000000
00000000
00001000
00000000
00000000
00000010
00000000
,
00000100
00000000
00000000
00001000
00000000
00000000
00000001
00000000
,
00000100
00000000
00000000
00001000
00000000
00000000
00010000
00000000
,
00022000
00000000
00000000
00033000
,
00001000
00010000
00100000
01000000
,
00020000
00000000
20000000
30030000
,
00010000
00010000
00010000
00000000
,
10000000
10000000
10000000
00000000
,
00020000
00230000
02300000
03020000
,
00031000
00000000
MMMMMMMM
00000000
,
00001000
00000100
00000020
00000000
,
00001030
00000100
00000020
00000000
,
00000031
00001000
00000010
00010000
,
00001000
00000000
00011000
00000000
,
00010000
00100000
02000000
00000000
,
03010000
00100000
02000000
00000000
,
13000000
00010000
01000000
00001000
,
00010000
00000000
00011000
00000000
,
00001000
00010000
00000010
00000000
,
00001000
00000100
00010000
00000000
,
00001000
00100000
00010000
01000000
,
00001000
00000000
00011000
00000000
,
00001000
00000000
00000000
00010000
00000000
00000000
00100000
00000000
,
01000000
00000000
00000000
00010000
00000000
00000000
10000000
00000000
,
01000000
00000000
00000000
00010000
00000000
00000000
00001000
00000000
,
00022000
00000000
00000000
00000000
,
00033000
00010000
00000000
00000100
,
00000000
00000010
00000000
00000001
,
00000000
00001000
00000010
00001000
,
00000010
00000100
00001000
00020000
,
00000000
00031000
00000000
00100000
,
00000000
01000000
00000000
10000000
,
00000000
00010000
01000000
00100000
,
00000000
00000000
20020000
00000000
00000000
00000000
30030000
00000000
00000000
MMMM0000
00000000
00000000
,
00000000
10000000
00000000
00010000
,
00100000
01000000
00000000
10000000
,
00100000
00000000
01000000
00010000
,
00000000
00100000
00000000
10010000
,
00000000
00010000
00000000
00100000
,
00001000
00010000
00000000
00000100
,
00001000
00000001
00000000
0000MMMM
,
00000000
0000MMMM
00000000
0000MMMM
,
00000000
00000001
00000000
00001000
,
00000010
00000100
00000000
00000001
,
00000010
00000000
00000100
00001000
,
00000000
00000001
00000001
00000001
,
00000000
00001000
00000010
00010000
,
00001000
01000000
00100000
10000000
,
00010000
00000000
00100000
00000000
00000000
01000000
00000000
00000000
,
10000000
00010000
00000000
MMMM0000
,
00000000
00020000
00000000
00130000
,
00000000
02000000
00000000
13000000
,
00000000
00010000
01000000
00001000
,
00010000
00000010
00000000
00001001
,
00000000
00002000
00000000
00003010
,
00000000
00000200
00000000
00000301
,
00000000
00001000
00000100
00010000
,
00001000
00100000
00000000
10010000
,
00000000
00010000
00100000
01000000
,
00010000
00002000
00000000
00013000
,
00000000
00010000
00001000
00000100
,
00000010
00001000
00000000
0000MMMM
,
00000000
00001000
00000100
00000010
,
00000001
00001000
00000010
00010000
,
00001000
00000000
01000000
00000000
00000000
00100000
00000000
00000000
,
10000000
00010000
00000000
10010000
,
00000000
10000000
00100000
01000000
,
00010000
00100000
MMMM0000
MMMM0000
,
00000000
00010000
01000000
00100000
,
10000000
01000000
MMMM0000
MMMM0000
,
00000000
10000000
00100000
01000000
,
00000000
00020000
00000000
00130000
,
00001000
00000000
00010000
00000000
00000000
00011000
00000000
00000000
,
00001000
00000100
00000010
00001000
,
00000000
00000001
00000010
00000100
,
00000000
00002000
00000000
00003010
,
00010000
00000000
00001000
00000000
00000000
00011000
00000000
00000000
,
00010000
01000000
00100000
00010000
,
00000000
20000000
00000000
30100000
,
00000000
00200000
00000000
00310000
,
00000000
00000000
00011000
00000000
00000000
00001000
00000000
00000000
,
00000100
00000010
00000000
00001001
,
00000000
00000001
00000010
00000100
,
00001000
00000010
0000MMMM
0000MMMM
,
00000000
00001000
00000100
00000010
,
00000001
00000100
0000MMMM
0000MMMM
,
00000000
00000002
00000000
00000013
,
00000000
00000020
00000000
00001030
,
00000000
00021000
00000000
02030000
,
00000000
13000000
00000000
10010000
,
00000000
00010000
01000000
MMMM0000
,
00000000
10000000
00100000
MMMM0000
,
00000000
00001000
00010000
00011000
,
00000000
00010000
00001000
00011000
,
00000000
00000100
00001000
0000MMMM
,
00000000
00000010
00000001
0000MMMM
,
00000000
00000000
00000001
00000000
00000000
00000100
00000000
00000000
,
00001000
00012000
00000000
00013000
,
00000000
00000000
00001000
00000000
00000000
00010000
00000000
00000000
,
00100000
00000000
01000000
00000000
00000000
00010000
00000000
00000000
,
10000000
00000000
01000000
00000000
00000000
00010000
00000000
00000000
,
00001000
00022000
00000000
00000000
,
00033000
00010000
00001000
00000010
,
00000100
00002000
00000000
00000002
,
00003003
00001000
00001000
00001000
,
00000000
00000001
00000001
00000001
,
00000000
00002000
00003020
00000230
,
00002300
00013000
MMMMMMMM
MMMMMMMM
;
