#TITLE:宵街 ;
#SUBTITLE:Nightfall Town;
#ARTIST:Minuano;
#TITLETRANSLIT:;
#SUBTITLETRANSLIT:;
#ARTISTTRANSLIT:;
#GENRE:;
#CREDIT:Minxyz;
#MUSIC:宵街 (Nightfall Town).ogg;
#BANNER:宵街 (Nightfall Town) BN.png;
#BACKGROUND:宵街 (Nightfall Town) BG.png;
#CDTITLE:;
#SAMPLESTART:71.842;
#SAMPLELENGTH:8.697;
#SELECTABLE:YES;
#OFFSET:-0.168;
#BPMS:0.000=112.000
,70.000=56.000
,78.000=112.000
;
#STOPS:;
#BGCHANGES:;
#FGCHANGES:;

//--------------- dance-single - Minxyz ----------------
#NOTES:
     dance-single:
     Minxyz:
     Beginner:
     5:
     0,0,0,0,0:
0000
0000
0000
0000
,
0000
0000
0000
0000
,
0000
0000
0000
0000
,
0000
0000
0000
0000
,
0000
0000
0000
0000
,
0000
0000
0000
0000
,
0000
0000
0000
0000
,
0000
0000
1000
0100
,
0010
0000
0100
0010
,
1000
0000
0010
0100
,
0010
0000
0000
0000
0001
0010
0001
0000
,
0100
1000
0100
0000
0010
0000
0010
0000
,
0010
1000
0100
0010
,
0001
1000
0001
0000
0020
0000
0000
0000
,
0000
0000
0030
0000
0200
0000
0000
0300
,
0010
0001
0010
0000
0100
0000
0010
0000
,
0100
0000
1000
0100
,
0010
0000
0001
0010
,
0100
0000
0010
1000
0100
0000
0010
0000
,
0001
0000
0010
0100
0010
0000
0100
0000
,
0000
0100
0000
0010
1000
0000
2000
3000
,
0020
0030
0020
0030
0100
0000
1000
0000
,
0000
0100
0000
0010
0000
0100
0000
0010
,
0000
0001
0000
0000
0010
0000
0100
0000
,
0010
1000
0100
0000
0010
0000
0100
0000
,
0010
0001
0010
0000
0100
0010
0100
0000
,
0000
1000
0100
0010
,
1000
0100
0010
0100
,
1000
0100
1000
0100
0010
0000
0001
0000
,
0010
0100
0010
1000
,
0100
0100
0010
0100
,
1000
0100
0010
0100
2000
0000
0000
3000
,
0200
0000
0300
0000
2000
0000
0000
3000
,
0020
0000
0000
0030
2000
0000
0000
3000
,
0002
0000
0000
0003
2000
0000
3000
0000
,
0020
0000
0030
0000
2000
0000
3000
0100
,
0000
0010
0000
0100
0000
0010
0000
0001
,
0000
1000
0000
0100
0000
0010
0000
0100
,
0000
0010
0000
0100
0010
0000
0100
0000
,
1000
0000
0220
0330
,
0202
0303
2002
3003
,
2020
3030
0220
0330
,
0202
0303
0020
1030
,
0100
0010
0001
0000
0010
0000
0100
0000
,
1000
0000
0100
0010
0100
0000
0010
0000
,
0100
1000
0100
0010
,
0001
0010
0100
0000
0010
0000
0100
0000
,
0010
0100
2000
0000
,
3200
0000
0000
0300
0020
0000
0000
0030
,
0200
0000
0000
0300
0010
0000
0000
0000
,
0001
0010
0100
0000
,
0110
0000
0010
0000
,
1000
0100
0010
0000
,
0100
0000
0010
0000
0100
0000
0000
0000
2000
0000
0000
0000
0000
0000
3000
0200
,
0000
0000
0000
0000
0300
0000
0000
0000
2000
0000
0000
0000
0000
0000
3000
0020
,
0000
0000
0000
0000
0030
0000
0000
0000
0100
0000
0000
0000
0010
0000
0000
2000
,
0000
0000
0000
0000
0000
3000
0000
0000
0100
0000
0000
0000
0001
0000
0000
0020
,
0000
0000
0000
0000
0030
0000
0000
0000
0002
0000
0003
0000
0000
0000
0000
0020
,
0000
0000
0000
0000
0030
0000
0000
0000
2000
0000
0000
0000
3000
0000
0000
0200
,
0000
0000
0000
0300
0000
0000
0000
0000
0002
0000
0000
0003
0000
0000
0000
0020
,
0000
0000
0000
0000
0000
0030
0000
0000
0100
0000
0000
0000
0010
0000
0000
0000
,
0220
0000
0000
0000
,
0000
0000
0000
0000
,
0000
0000
0000
0000
0000
0000
0000
0000
0000
0000
0000
0000
0000
0000
0000
0330
;

//--------------- dance-single - Minxyz ----------------
#NOTES:
     dance-single:
     Minxyz:
     Easy:
     9:
     0,0,0,0,0:
0000
0000
0000
0000
,
0000
0000
0000
0000
,
0000
0000
0000
0000
,
0000
0000
0000
0000
,
0000
0000
0000
0000
,
0000
0000
1000
0100
,
0010
0001
0010
0000
0100
0010
0100
0010
,
0001
0001
0100
0010
1000
0000
0100
0010
,
0001
0000
0000
0010
0000
0000
0100
0000
1000
0000
0000
0100
0000
0000
0010
0000
,
0001
0000
0000
0010
0000
0000
0010
0000
0100
0000
0000
0000
0101
0000
0000
0000
,
0100
0000
0000
0000
0001
0000
0010
0000
0100
0000
0000
1000
0000
0000
0100
0000
,
0010
0000
0000
0010
0000
0000
0010
0000
1001
0000
0000
1000
0000
0000
0100
0000
,
0010
0000
0000
0010
0000
0000
0001
0000
0010
0000
0000
0010
0000
0000
0100
0000
,
0010
0000
0000
0000
0000
0000
0010
0000
0002
0000
0000
0000
0000
0000
0000
0003
,
0100
0000
0010
0000
0001
0010
0100
1000
,
0100
0010
0000
0000
0010
0000
0010
0000
0010
0000
0000
1001
0000
0000
0000
0000
,
0100
0000
0000
0110
0000
0000
0000
0000
0010
0000
0000
1010
0000
0000
0000
0000
,
0100
0000
0000
0101
0000
0000
0000
0000
0010
0000
1000
0100
0000
0000
0010
0010
,
0010
0000
0000
0100
0000
0000
0000
0000
0000
1000
0000
0000
0010
0000
0000
0000
1000
0000
0100
0000
0000
0010
0000
0000
,
0001
0000
0000
0010
0000
0010
0001
0000
0000
0100
0000
0000
0220
0000
0000
0000
0000
0000
0330
0000
0000
1010
0000
0000
,
0000
0000
0110
0000
0000
0000
0101
0000
0200
0000
0000
0000
0320
0000
0000
0030
,
0100
0000
0010
0000
0010
0000
0000
1000
0100
0000
0010
0000
0010
0000
0001
0100
,
0000
0000
0010
0001
0000
0000
0010
0000
0100
0000
0100
0000
0010
1000
0000
0000
,
0000
0100
0000
0000
0010
0000
0000
0000
1001
0000
0000
0000
0100
0000
0000
0000
,
0010
0001
1001
0000
0100
0000
0010
0100
,
1000
0000
0100
0000
0010
0100
0010
0000
0010
0000
1000
0000
1010
0000
0000
0000
,
0000
0110
0000
0000
1001
0000
0000
0000
1000
0000
0100
0000
0010
0000
0001
0000
,
0010
0100
1000
0000
0100
0000
0000
0000
0011
0000
0000
0000
1100
0000
0000
0000
,
0010
0100
1000
0100
0001
0000
0100
0000
,
1000
0100
0010
0001
0010
0001
0010
0100
,
1000
0000
0100
0010
0100
0010
0001
0010
,
0100
0100
0100
0100
0010
0000
1000
0000
,
0100
0000
0000
0010
0100
0000
0000
0000
0001
0000
0000
0000
0010
0000
0000
0000
,
1000
0000
0000
1000
0100
0000
0000
0000
0010
0000
0000
0000
0100
0000
0000
0000
,
0010
0000
0000
0010
0100
0000
0000
0000
0010
0000
0000
0000
1000
0000
0000
0000
,
0100
0000
0000
0100
0001
0000
0000
0000
0001
0000
0000
0000
0010
0000
0000
0000
,
0100
0000
0010
0000
0100
0000
0000
0000
0100
0000
0000
0100
0010
0000
0000
0000
,
0010
0000
0000
0010
0100
0000
0000
0000
0100
0000
0010
0000
0001
0000
0000
0001
,
1000
0000
0000
0000
0100
0000
0000
0000
0100
0000
0010
0000
0100
0000
0000
1000
,
0100
0000
0010
0001
0010
1000
0000
0100
,
0000
0001
0000
0010
0000
1000
0000
0100
,
0000
0001
0000
0010
0000
1000
0000
0100
,
0000
0001
0000
0010
0000
1001
0000
0001
,
0010
0000
0100
0000
1000
0000
0100
0000
0110
0000
0000
0000
1000
0100
0000
0010
,
0000
0000
0000
0000
0010
0000
0100
0000
1000
0000
0000
0000
0100
0010
0000
0100
,
0000
0010
0000
0000
0001
0000
0010
0000
0100
0000
0000
0000
0100
0010
0000
0100
,
0000
0000
0000
0000
0010
0000
0100
0000
1000
0000
0000
0000
0001
0010
0000
0000
,
0100
0000
0000
0000
0010
0000
0100
0000
0000
0000
0000
0000
0020
0000
0000
0000
0000
0000
0000
0000
0000
0030
0000
0000
,
2002
0000
0000
3003
0220
0000
0000
0330
,
1001
0000
0100
0000
0010
0000
1000
0100
,
0010
0000
0001
0000
0010
0000
0100
0010
,
1000
0000
0000
0000
0110
0000
0000
0000
1000
0000
0000
1000
0000
0000
1000
0000
,
1000
0000
0000
0000
0100
0000
0000
0000
0010
0000
0000
0010
0000
0000
0010
0000
,
0100
0000
0010
0000
0100
0000
0010
0000
0001
0000
0000
0000
0010
0000
0000
0001
,
0000
0000
0000
0000
0100
0000
0010
0000
0001
0000
0000
0000
0010
0000
0000
1000
,
0000
0000
0000
0000
0100
0000
0000
0000
0010
0000
0100
0000
0010
0100
0000
1000
,
0000
0000
0000
0000
0010
0000
0100
0000
0010
0000
0001
0000
0010
0100
0000
0010
,
0000
0000
0000
0000
1000
0000
0000
0000
0100
0000
0001
0000
0010
0000
0000
2002
,
3003
0000
0000
0000
0000
0000
0000
0000
0010
0000
0001
0000
0100
0000
0000
0110
,
0000
0000
0000
0000
0000
0000
0000
0000
1000
0000
0010
0000
0001
0000
0000
0220
,
0000
0000
0000
0000
0300
0030
0000
0000
0001
0000
0000
0000
0010
0000
0000
0000
,
2000
0000
0000
0000
,
0002
0000
0000
0000
,
0000
0000
0000
0000
0000
0000
0000
0000
0000
0000
0000
0000
0000
0000
0000
3003
;

//--------------- dance-single - Minxyz ----------------
#NOTES:
     dance-single:
     Minxyz:
     Medium:
     12:
     0,0,0,0,0:
0000
0000
0000
0000
,
0000
0000
0000
0000
,
0000
0000
0000
0000
,
0000
0000
0000
0000
,
0000
0000
0000
0000
,
0000
0000
0000
0000
0000
0000
0000
0000
0010
0000
0000
0001
0000
0000
0010
0000
,
0100
0000
0000
0000
0010
0000
0000
0000
0001
0100
1000
0000
0100
0001
0010
0000
,
0010
0000
0000
0000
0001
0000
0000
0000
0001
0000
0000
0000
0100
0000
0000
0000
0010
0000
0000
0000
0010
0000
0000
0000
0100
0000
0000
0000
0000
0000
0000
0000
0000
0010
0000
0000
1000
0000
0000
0000
0000
0000
0000
0000
0000
0000
0000
0000
,
0100
0000
0000
0010
0001
0000
1000
0000
0100
0000
0000
0010
0100
0000
0010
0000
,
0001
0000
0010
0000
0100
0000
1000
0000
0100
0000
0000
0010
0000
0000
0010
0000
,
0010
0000
0000
0100
0000
0000
0010
0000
0001
0000
0000
0010
0000
0000
1000
0000
,
0001
0000
0100
1000
0010
0000
0100
0010
,
0001
0000
0000
0000
0010
0000
0010
0000
0001
0000
0010
0100
0000
1000
0100
0000
,
0010
0000
0000
0000
1000
0000
0100
0000
0010
0000
0000
0101
0000
0000
0010
0000
,
1000
0000
0000
0000
0110
0000
0000
0000
0001
0000
0000
0010
0000
0000
1000
0000
,
0110
0000
0000
0000
0101
0000
0000
0000
1000
0000
0000
0100
0000
0000
0010
0000
,
0001
0010
0000
0100
0000
0000
1000
0000
0100
0000
0000
0010
0000
0000
0010
0000
,
0100
0000
0000
0100
0010
0100
0010
0000
0001
0000
0010
0100
0000
0000
0010
0010
,
0001
0000
0000
0000
0000
0000
0000
0000
0000
0000
0000
0000
0020
0000
0000
0000
0000
0000
0000
0000
0000
0000
0000
0000
0030
0000
0000
0000
1000
0000
0000
0000
0100
0000
0000
0000
0001
0000
0000
0000
0100
0000
0000
0000
1000
0000
0000
0000
0010
0000
0000
0000
0000
0000
0000
0000
0000
0000
0000
0000
0000
0000
0000
0000
0100
0000
0000
0000
0000
0000
0000
0000
0001
0000
0000
0000
0000
0000
0000
0000
0000
1000
0000
0000
0000
0000
0000
0000
0000
0000
0100
0000
0000
0000
0000
0000
,
0010
0000
0000
0000
0000
0000
1000
0000
0010
0000
1000
0000
0010
0000
0000
0000
0000
0000
0101
0000
0000
0000
0000
0000
1010
0000
0000
0000
0000
0000
0000
0000
0000
0100
0000
0000
0000
0000
0000
0000
0000
0000
0010
0000
0000
0000
0000
0000
,
0001
0000
0000
0010
0110
0000
1010
0000
,
0101
0000
0010
0000
1000
0000
0100
0010
0001
0000
0010
0000
0100
0000
1000
0100
,
0000
0010
0100
0000
0000
0000
0001
0000
0100
0000
1000
0000
0010
0100
0000
0000
,
0000
1000
0100
0000
0010
0000
1000
0010
0100
0000
1000
0100
0000
0010
0000
0000
,
0010
0100
1000
0100
0010
0000
0100
0010
,
1000
0100
1000
0000
0010
1000
0100
0000
0101
0000
0001
0000
0101
0000
0000
0000
,
1000
0100
0110
0000
2000
0010
3100
0000
,
0100
0010
0001
0010
0100
0000
1000
0100
0010
0000
0000
0000
0001
0010
0000
0100
,
0000
1000
0000
0100
0000
0100
0000
0010
0001
0000
1000
0001
0100
0000
0010
0000
,
1000
0100
1000
0000
0010
0000
0001
0000
0010
0000
0000
1000
0100
0000
0000
0010
,
0001
0000
0000
0100
0010
0000
1000
0000
0100
0010
0000
0010
0000
1000
0000
0001
,
0000
0100
0000
0001
0100
0000
0100
0000
1000
0000
0000
0100
0010
0000
0000
0000
,
0010
0000
0000
0100
1000
0000
0000
0000
1000
0000
0000
0100
0010
0000
0000
0000
,
0001
0000
0000
0010
0100
0000
0000
0000
0100
0000
0000
0100
0010
0000
0000
0000
,
0010
0000
0000
0010
0100
0000
0000
0000
0100
0000
0000
1000
0100
0000
0000
0000
,
0100
0000
0000
0100
0010
0000
0000
0000
0001
0000
0000
0001
0010
0000
0000
0010
,
0100
0000
0000
0100
1000
0000
0000
1000
0100
0000
0000
0100
0001
0000
0002
0000
,
0000
0003
0000
0100
1000
0000
0010
0100
0010
0000
0000
0001
0010
0000
0000
0000
,
1000
0000
0000
0010
0001
0000
0000
0000
1000
0000
0000
0100
0001
0000
0000
0000
,
0010
0000
0100
0000
0100
0000
0010
0000
1000
0000
0000
0010
0001
0000
0000
0000
,
0100
0000
0000
0100
1000
0000
0000
0000
0100
0000
0000
0100
0010
0000
0000
0000
,
1000
0000
0000
1000
0100
0000
0000
0000
0010
0000
0000
0001
0100
0000
0000
1000
,
0001
0000
0000
0010
1000
0000
0000
0000
0010
0000
0000
1000
0100
0000
0010
0000
,
0001
0000
0010
0000
0100
0000
1000
0000
0100
0000
0000
1000
0100
0010
0000
0001
,
0000
0010
0000
0100
1000
0000
0100
0000
0010
0000
0000
0001
0010
0100
0000
0010
,
0000
0001
0000
1000
0010
0000
0100
0000
0001
0000
0000
0010
0100
1000
0000
0010
,
0000
0100
0000
0001
0100
0000
0010
0000
0001
0000
0000
1000
0001
0010
0000
0000
,
0010
1000
1000
0100
0010
0010
0002
0000
0000
0000
0000
0000
,
2003
0000
0000
0000
3200
0000
0000
0300
,
0110
0000
0000
0000
1001
0000
0000
0000
0100
0000
0000
0010
0000
0000
0100
0000
,
0010
0000
0000
0001
0000
0000
0010
0000
0100
0000
0000
1000
0000
0000
0100
0000
,
0010
0000
0000
0000
0000
0000
0010
0000
0001
0000
0000
0001
0000
0000
0010
0000
,
0100
0000
0000
0000
0010
0000
0000
0000
1000
0000
0000
0010
0100
0000
0010
0000
,
0100
0010
0000
0100
0010
0000
1000
0000
0100
0000
0000
0010
0001
0000
0000
1000
,
0000
0100
0000
0010
0100
0000
0001
0000
0100
0000
0000
1000
0010
0100
0000
0010
,
0000
1000
0000
1000
0100
0000
0010
0000
0001
0000
0000
0010
1000
0000
0000
0001
,
0000
1000
0000
0010
0100
0000
1000
0000
0200
0000
0300
0010
0001
0010
0000
1000
,
0000
0010
0000
0100
0010
0000
0001
0000
0100
0000
0010
0000
1000
0100
0000
0010
,
0000
0001
0000
0010
0100
0000
1000
0000
0100
0000
0100
0000
0010
0001
0000
1000
,
0000
0100
0000
0010
0100
0000
1000
0000
0100
0000
0010
0000
0001
0010
0000
0001
,
0000
0010
0000
0001
0010
0000
0100
0000
1000
0100
0010
0001
0010
0100
1000
0100
,
0020
0000
0000
0000
,
0000
0000
0000
0000
,
0000
0000
0000
0030
;

//--------------- dance-single - Minxyz ----------------
#NOTES:
     dance-single:
     Minxyz:
     Hard:
     14:
     0,0,0,0,0:
0000
0000
0000
0000
,
0000
0000
0000
0000
,
0000
0000
0000
0000
,
0000
0000
0000
0000
,
0000
0000
0000
0000
,
0000
0000
0000
0000
0000
0000
0000
0000
2000
0000
0000
3200
0000
0300
0020
0000
,
0032
0000
0003
0000
0020
0000
0030
0000
0001
0010
1000
0010
0100
0010
0001
0010
,
0100
0000
0000
0000
0001
0000
0000
0000
1000
0000
0000
0000
0010
0000
0000
0000
0001
0000
0000
0000
0100
0000
0000
0000
0010
0000
0000
0000
0000
0000
0000
0000
0000
1000
0000
0000
0000
0000
0000
0000
0000
0000
0100
0000
0000
0000
0000
0000
,
0010
0000
0000
0001
0000
0000
0010
0000
0100
0000
1000
0100
0000
0000
0010
0000
,
0010
0000
0001
0010
0000
0000
0100
0000
0010
0000
0000
0100
0010
0000
0100
0000
,
0010
0000
0000
0100
0010
0000
0100
0000
0010
0000
0000
0100
0010
0000
0000
0000
,
0100
0000
1000
0100
0010
0001
0010
0100
1000
0000
0000
0100
0001
0000
0100
0000
,
1000
0000
0000
0100
0010
0000
0001
0000
1000
0000
0000
0010
0000
0000
0100
0000
,
0110
0000
0000
0000
1001
0000
0010
0000
0100
0000
0000
1100
0000
0000
0100
0000
,
0110
0000
1000
0000
0001
0000
0000
0000
0100
0010
1000
0100
0010
0001
0010
0100
,
1000
0100
0001
0100
0010
1000
0010
0001
0100
0000
0010
1000
0000
0000
0100
0000
,
0010
0000
1000
0010
0000
0000
0001
0000
0100
0000
0010
0001
0000
0000
1000
0000
,
0100
0000
0000
0010
0000
0000
0001
0000
0010
0000
1000
0200
0000
0300
0010
0100
,
0020
0000
0000
0000
0000
0000
0030
0000
0000
0000
0000
0000
0002
0000
0000
0000
0000
0000
0000
0000
0000
0000
0000
0000
0003
0000
0000
0000
0100
0000
0000
0000
0010
0000
0000
0000
0001
0000
0000
0000
1000
0000
0000
0000
0100
0000
0000
0000
0001
0000
0000
0000
0000
0000
0000
0000
0000
0000
0000
0000
0000
0000
0000
0000
0100
0000
0000
0000
0000
0000
0000
0000
0010
0000
0000
0000
0001
0000
0000
0000
0000
0110
0000
0000
0000
0000
0000
0000
0000
0000
1000
0000
0000
0000
0000
0000
,
0100
0000
0000
0000
0000
0000
0010
0000
1000
0000
0001
0000
0100
0000
0000
0000
0000
0000
0010
0000
0000
0000
0000
0000
0001
0000
0000
0000
0000
0000
0000
0000
0000
0110
0000
0000
0000
0000
0000
0000
0000
0000
1000
0000
0000
0000
0000
0000
,
0110
1000
0001
0010
0220
0330
2002
3003
,
0110
0000
1000
0000
0010
0000
1000
0100
0010
0000
0001
0000
0010
0000
0100
0010
,
0000
0001
1000
0000
0000
0000
0010
0000
1000
0000
0100
0000
0010
0001
0000
0000
,
0000
0001
1000
0000
0001
0100
0000
0000
1010
0000
0000
1000
0100
0000
0010
0000
,
0010
0000
0100
0000
1000
0100
0001
0100
0000
0000
1000
0100
0001
0100
1000
0010
,
1000
0100
0010
0001
0010
0010
1000
0100
0010
0000
0001
0000
1000
0100
1000
0100
,
1000
0000
0020
0000
0000
0030
0000
0000
0101
0000
0010
0100
1000
0100
0010
1000
,
0010
0001
0010
0100
0010
0000
0001
1000
0200
0000
0000
0300
0010
0100
0010
0100
,
0000
1000
0010
0100
1000
0100
0000
0010
0001
0000
0010
1000
0100
0000
0001
1000
,
0010
0001
1000
0100
0010
0100
1000
0100
0010
0001
0010
0100
0010
0001
0010
0100
,
1000
0000
0000
0010
0001
0010
1000
0100
0001
0100
1000
0100
0010
0000
0001
0000
,
1000
0100
1000
0100
1000
0100
1000
0100
0020
0000
0030
0001
0100
0000
0000
0000
,
0002
0000
0003
0100
0010
0000
0000
0000
0020
0000
0030
1000
0100
0000
0000
0000
,
0200
0000
0300
0010
0001
0000
0000
0000
0002
0000
0000
1003
0010
0000
0000
0000
,
0020
0000
0030
0100
0010
0000
0000
0000
0002
0003
0000
0010
1000
0000
0000
0000
,
0200
0300
0000
0100
0010
0000
0000
0000
0001
0010
0001
0000
1000
0100
1000
0000
,
0010
0100
0010
0000
1000
0001
1000
0000
0100
0010
0100
0000
0010
0001
0010
0000
,
0100
1000
0100
0000
0010
0100
0010
0000
2001
0000
0000
0100
0100
0000
0000
0000
,
3010
0000
0000
0100
0100
0000
0000
0000
0010
0000
0000
1000
1000
0000
0000
0000
,
0100
0010
0001
0010
0001
1000
0100
1000
0100
0000
0000
0010
0001
0000
0000
0000
,
0100
0000
0000
0010
1000
0000
0100
0000
0100
0000
0000
0010
0001
0000
0000
0001
,
0010
0000
0000
1000
0100
0000
0001
0000
0010
0000
0000
0010
1000
0000
0000
0000
,
0010
0001
0000
0000
0100
0010
0000
0000
0100
0010
0000
0100
1000
0000
0100
0000
,
0010
0000
0001
0000
0010
0000
1000
0000
0010
0000
0000
0100
0010
0000
0010
1000
,
0000
0100
0000
0010
0001
0000
1000
0000
0100
0000
0000
0010
1000
0010
0001
0100
,
0000
0100
0000
0100
0010
0000
1000
0000
0100
0000
0000
0010
0001
0010
0100
1000
,
0000
0100
0000
0010
0010
0000
0010
0000
0100
0000
0000
1000
0001
1000
0001
0100
,
0010
0000
0000
0000
0001
0000
0000
0000
1000
0000
0000
0000
0100
0000
0000
0000
0001
0000
0000
0000
0010
0000
0000
0000
0100
0000
0000
0000
0000
0000
0000
0000
0000
0100
0000
0000
0000
0000
0000
0000
0000
0000
0100
0000
0000
0000
0000
0000
,
0011
0000
0000
0010
0000
0000
0010
0000
0101
0000
0000
0001
0000
0000
0001
0000
,
1100
0000
0000
0000
1002
0000
0003
0000
0100
0000
0000
0010
0000
0010
0001
0000
,
1000
0000
0000
0100
0000
0010
0001
0000
0001
0000
0000
0010
0000
0000
0100
1000
,
0100
0000
0000
0000
0011
0000
1000
0000
0100
0000
0000
0010
0000
0000
0001
0000
,
0100
0000
0010
0000
0001
0010
0100
1000
,
0100
0010
0001
1000
0100
0010
0100
0010
2000
3000
0000
0100
0100
1000
0000
0220
,
0000
0000
0330
1000
0001
0000
0100
0000
0010
0000
1000
0000
0100
0010
0000
1200
,
0000
0300
0000
1000
0100
0000
0001
0000
0100
0000
1000
0000
0100
0010
0000
0002
,
0000
1003
0000
0100
0010
0000
0100
0000
1000
0000
0010
0000
0100
0010
0000
1000
,
0000
0100
0000
0010
0001
0000
0010
0000
0100
0000
0010
0000
0001
1000
0000
0200
,
0000
0301
0000
0001
1000
0000
0010
0000
0001
0000
0100
0000
0010
0100
0000
1000
,
0000
0100
0000
0010
0001
0000
0010
0000
1000
0000
0100
0000
0010
0001
0000
0020
,
0000
0130
0000
0010
1000
0000
0010
0000
0001
0100
1000
0100
0001
0010
1000
0010
,
0002
0000
0000
0000
,
2000
0000
0000
0000
,
0000
0000
0000
0000
,
3003
0000
0000
0000
;

//--------------- dance-single - Minxyz ----------------
#NOTES:
     dance-single:
     Minxyz:
     Challenge:
     17:
     0,0,0,0,0:
0000
0000
0000
0000
,
0000
0000
0000
0000
0000
0000
0000
0000
1000
0000
0000
0010
0000
0000
M010
0000
,
0001
0000
0000
0100
0000
0000
010M
0000
1000
0000
0000
1M00
0000
0000
0100
0000
,
0010
0000
0000
1001
0000
0000
0000
0000
0001
0000
0000
M001
0000
0000
0100
0000
,
010M
0000
0000
0010
0000
0000
0M10
0000
0001
0000
0000
1000
0000
0000
100M
0000
,
0100
0000
0000
0010
2002
0000
0000
0000
,
0000
0000
0000
0000
0000
0000
0000
3003
0001
0000
0010
0001
0100
1000
0100
0010
,
0001
0000
0010
0000
1000
0000
0100
0000
0010
0000
0001
0000
0100
0000
0010
0000
1000
0000
0100
0000
0010
0000
0001
0000
0010
0000
0000
0000
0000
0000
0000
0000
0000
0001
0000
0000
0000
0000
0000
0000
0000
0000
0100
0000
0000
0000
0010
0000
,
1000
0000
0000
0100
0000
0000
0010
0000
0001
0000
0000
0010
0000
0000
1000
0000
,
0001
0000
0000
0000
0000
0000
0100
0000
0000
0000
0000
0000
1000
0000
0000
0000
0010
0000
0000
0000
0000
0000
0000
0010
0100
0000
0000
0000
0010
0000
0000
0000
,
0001
1000
0100
0001
,
0010
0000
0001
0100
010M
1000
0010
M010
0001
0000
0000
0010
0000
0000
0100
0000
,
1000
0000
0000
0010
0000
0000
0001
0000
0010
0000
0100
1000
0000
0100
0001
0000
,
0001
0000
0000
0000
0110
0000
1000
0000
0100
0000
0000
0100
0000
0000
0100
0000
,
0100
0000
0000
0000
0101
0000
0000
0000
0010
0001
0100
0001
0010
0000
0100
0100
,
0010
0M10
0001
00M1
0100
010M
1000
1M00
0020
0000
0000
0001
0000
0000
0100
0030
,
2000
0000
0000
0010
0000
0000
0100
3000
0020
0000
0001
1000
0000
0000
0130
0000
,
0002
0003
0000
0100
1000
0000
0100
0001
0010
0000
0001
0100
0000
0000
0010
1000
,
0100
0000
0000
0000
0000
0000
0000
0100
0010
0100
0010
0100
0010
0001
0010
0001
0100
0000
0010
0000
0001
0000
1000
0000
0100
0000
0000
0000
0000
0000
0000
0000
0100
0000
0010
0000
0001
0000
1000
0000
0100
0000
0001
0000
0010
0000
1000
0000
,
0001
0000
0000
0000
0000
0000
0000
0000
0000
0000
0000
0000
0000
0000
0000
0000
0100
0000
0000
0000
0000
0000
0000
0000
0010
0000
0000
0000
0000
0000
0000
0000
0001
0000
0000
0000
0000
0000
0000
0000
0010
0000
0000
0000
0000
0000
0000
0000
0100
0000
0000
0000
0000
0000
0000
0000
0000
0000
0000
0000
0000
0000
0000
0000
0000
0000
1000
0000
0000
0100
0000
0000
0020
0000
0000
0000
0000
0000
0000
0000
0000
0000
0000
0000
0000
0000
0000
0000
0000
0000
0000
0000
0000
0030
0000
0000
0001
0000
0000
0000
0000
0000
0000
0000
0000
0000
0000
0000
0000
0000
0000
0000
0000
0000
0000
0000
0000
0000
0000
0000
0000
0000
0000
0000
0000
0000
0000
0000
0000
0000
0000
0000
0010
0000
0000
0000
0000
0000
0000
0000
0000
0000
0000
0000
0000
0000
0000
0000
0000
0000
0000
0000
0000
0000
0000
0000
0000
0000
0000
0000
0000
0000
0000
0000
0000
0000
0000
0000
0010
0000
0000
0000
0000
0000
0000
0000
0000
0000
0000
0000
0000
0000
0000
0000
0000
0000
0000
0000
0000
0000
0000
0000
,
1000
0000
0010
0000
0000
0001
0010
0000
1000
0000
0000
0000
0010
0000
0000
0000
,
0001
0000
0010
0000
1010
0000
0001
0100
0001
0000
0100
0000
0010
0000
0100
01M0
,
0000
1000
1M00
0000
0000
0000
0100
0000
0001
0000
0001
0000
1000
0100
0000
0000
,
0000
0010
0M10
0000
0001
0000
1000
0100
0010
0000
1000
0100
0000
0001
0000
0100
,
0010
0100
0001
0000
1000
0010
0100
0001
0000
0000
1000
0100
0010
0001
1000
0100
,
0010
0001
0100
0010
0001
0010
0100
1000
0100
0000
0010
0000
0010
1000
0100
0010
,
1000
0000
0020
0000
0100
0030
0000
0000
0010
0001
0100
0010
0001
0010
1000
0100
,
0010
0000
0000
0000
0001
0000
0000
0000
0010
0000
0000
0000
0100
0000
0000
0000
1000
0000
0000
0000
0100
0000
0000
0000
0010
0000
0000
0000
0000
0000
0000
0000
0000
0000
0000
0000
0001
0000
0000
0010
0000
0000
0100
0000
0000
1000
0000
0000
0100
0000
0000
0000
0000
0000
0000
0000
0000
0000
0000
0000
0000
0000
0000
0000
0000
0000
0000
0000
0000
0000
0000
0000
0011
0000
0000
0000
0000
0000
0001
0000
0000
0000
0000
0000
0010
0000
0000
0000
0000
0000
1000
0000
0000
0000
0000
0000
,
0010
0001
0010
0001
0010
0001
0010
0001
0010
0000
0100
0000
1000
0000
0001
0000
0100
0000
0000
0000
0001
0000
0100
0000
1000
0000
0000
0000
0010
0000
0001
0000
,
0010
1000
0100
0010
0001
1000
0010
0001
0010
0001
0010
1000
0100
1000
0100
0010
,
0002
0000
0000
0003
0000
0000
0010
0000
0100
0000
0010
0000
1000
0000
0010
0000
0001
0000
0010
0000
0100
0000
1000
0000
0001
0000
0100
0000
0010
0000
1000
0000
,
0010
0000
0100
0000
01M0
0000
0100
0000
01M0
0000
0100
0000
0100
0000
0010
0000
0002
0000
0000
0000
0000
0003
1000
0000
0001
0000
0000
0000
0000
0000
0010
0000
,
0020
0000
0000
0000
0000
0000
0130
0000
2000
0000
0000
0000
0100
3000
0010
0000
0200
0000
0000
0000
0000
0000
0310
0000
0001
0000
0000
0000
0000
0000
0100
0000
,
0200
0000
0000
0300
0020
0000
0000
0000
1030
0100
M100
0000
0001
0010
M010
0000
,
1000
0100
M100
0000
0010
0M10
0001
0000
1000
100M
0100
0000
0001
0M01
0001
0000
,
1000
100M
1000
0000
0100
M100
0100
0000
0010
0M10
0010
0000
0001
1000
0100
0000
,
0010
0001
1000
0000
0010
0001
1000
0000
0100
0001
0010
0000
0020
0001
0100
0030
,
0002
0010
1000
0000
2003
0000
0010
0000
3200
0000
0000
0010
1000
0000
0000
1000
,
0000
0000
0000
0010
0001
0000
0000
0000
0310
1000
0100
0000
2000
0000
0000
3000
,
0100
0010
0001
0010
0100
1000
0010
0100
0010
0000
1001
0000
0001
1000
0100
0000
,
1000
0010
0001
0000
1000
0100
0010
0000
1000
0100
0001
0000
0001
1000
0010
0000
,
0001
0100
0010
0000
0001
0010
1000
0000
0100
0010
0001
0000
1000
0001
0100
0000
,
0001
0010
0001
0000
1000
0010
1000
0000
0100
0000
0000
0010
0001
0000
0100
0000
,
1000
0000
0100
0001
0010
1000
0010
0001
0011
0000
0000
0010
001M
0000
1000
10M0
,
0000
0100
0000
0010
1000
0000
0001
0000
0100
0000
0000
0010
0M10
0000
0001
00M1
,
0000
0010
0000
1000
0100
0000
0010
0000
0100
0000
0000
0100
01M0
1000
0010
0100
,
0000
0001
0000
0010
1000
0000
0010
0000
0001
0000
0000
1000
0100
0010
0100
1000
,
0100
0000
0010
0000
0001
0000
0010
0000
0100
0000
0010
0000
0001
0000
0010
0000
0100
0000
1000
0000
0100
0000
0010
0000
0200
0000
0000
0000
0000
0000
0000
0000
0000
0010
0000
0000
0000
0000
0000
0000
0000
0000
0010
0000
0000
0000
0000
0000
,
0010
0000
0000
0010
0000
0000
0010
0000
0010
0000
0000
0010
0000
0000
0010
0000
,
0010
0000
0000
0000
0010
0000
0000
0000
0320
0000
0000
0100
0000
0000
0100
0000
,
0100
0000
0000
0100
0000
0000
0100
0000
0100
0000
0000
0100
0000
0000
0100
0000
,
0130
0000
0000
0000
0000
0000
1000
0000
0010
0000
0000
0100
0000
0000
1000
0000
,
0100
0000
0000
0000
0010
0000
0000
0000
0001
0010
0100
1000
0100
M100
0100
0100
,
0010
0001
0010
0001
0010
0100
0010
0100
0010
0000
0000
0001
0100
0010
0000
0011
,
0000
2000
3000
0010
1000
0000
0100
0000
0011
0000
0000
0100
0010
0100
0000
0200
,
0000
0001
0000
0010
0010
0000
0301
0000
0001
0000
0010
0000
1000
0100
0000
0220
,
0000
0330
0000
1000
0100
0000
0010
0000
0110
0000
0000
1000
0010
0100
0000
1001
,
0000
0002
0000
0103
0100
0000
1001
0000
0110
0000
0000
1000
0001
0100
0000
1001
,
0000
2000
0000
0010
3100
0000
0001
0000
0110
0000
0000
1000
0100
0010
0000
0011
,
0000
0200
0000
0310
0001
0000
1000
0000
1010
0000
0010
0000
0010
M010
0000
0110
,
0000
0001
0000
1000
0100
0000
0010
0000
1000
0010
0001
0100
0010
0001
0010
1000
,
0220
0000
0000
0000
0000
0000
0000
0000
0000
0000
0000
0000
0300
0000
0000
0000
0000
0000
0000
0000
0000
0000
0000
0000
0100
0000
0100
0000
0100
0000
0000
0100
,
0000
0000
0000
0100
0000
0000
0000
0100
0000
0000
0000
0000
0100
0000
0000
0000
0000
0100
0000
0000
0000
0000
0000
0000
0100
0000
0000
0000
0000
0000
0100
0000
0000
0000
0000
0000
0000
0000
0000
0000
0000
0000
0000
0000
0000
0000
0000
0000
,
0000
0000
0000
0000
,
0030
0000
0000
0000
;
