#TITLE:NightTheater;
#ARTIST:わかどり;
#ARTISTTRANSLIT:wakadori;
#GENRE:Jazz-Funk;
#CREDIT:tikal.;
#MUSIC:NightTheater.ogg;
#BANNER:NightTheater.png;
#BACKGROUND:NightTheater-bg.png;
#CDTITLE:cdtitle.png;
#SAMPLESTART:90.596;
#SAMPLELENGTH:12.715;
#BPMS:0=151;

//--------------- dance-single - tikal. ----------------
#NOTES:
     dance-single:
     tikal.:
     Medium:
     13:
     0,0,0,0,0:
0000
0000
0000
0000
,
0000
0000
0000
0000
,
0000
0000
0000
0000
,
0000
0000
0000
0000
,
0000
0000
0000
0000
,
1000
1000
1000
1000
,
0001
0001
0001
0001
,
0100
0100
0010
0010
,
1000
0000
0000
1000
0000
0000
0000
0001
0000
0000
0001
0000
0010
0000
0100
0000
,
1000
0000
0000
0001
0000
0100
0000
0001
0000
0000
1000
0000
0000
0010
0000
0000
,
1000
0000
0000
0001
0000
0010
0000
0001
0000
0000
1000
0000
0000
0100
0010
0000
,
0001
0000
0000
1000
0000
0100
0000
1000
0000
0000
0001
0000
0000
0010
0000
0000
,
0001
0000
0000
1000
0000
0010
0000
0100
0000
0000
0100
0000
0000
0001
0000
0000
,
1000
0000
0100
0000
1000
0000
0100
0000
1000
0000
0010
0000
0000
0100
0000
0000
,
0001
0000
0010
0000
0001
0000
0010
0000
0001
0000
0100
0000
0000
0010
0000
0000
,
1000
0100
0010
0001
0100
0010
1000
0001
,
0000
0010
0000
0100
0000
1000
0000
0001
0000
1000
0000
0010
0000
0000
0100
0000
,
0001
0000
1002
0000
1003
0010
0100
0000
,
0010
0000
1000
0000
0001
0000
1000
0000
0100
0000
0000
0010
0000
0000
0001
0000
,
0000
0100
0010
0010
0100
0001
0010
0100
,
1000
0000
1000
0000
0001
0000
0001
0000
1000
0000
0000
1000
0000
0010
0100
0000
,
0000
0001
0010
0100
1000
0010
0001
0010
,
0100
0000
0001
0000
1000
0000
0000
1000
0000
0100
0000
0010
0000
0001
0000
0000
,
0100
0000
0000
0000
0001
0010
0000
0100
0000
1000
0000
0010
0000
0000
0100
0000
,
0001
0000
1000
0000
0100
0000
0000
1000
0000
0001
0100
0000
0010
0000
1000
0000
,
1001
0000
0000
0000
0001
0000
0001
0000
0010
0000
0000
0100
0000
0010
0100
0000
,
1000
0000
0010
0000
0100
0000
0001
0000
0010
0000
0100
1000
0000
0000
0001
0000
,
0000
0000
1000
0000
1000
0000
0001
0000
0001
0000
0000
0100
0000
0010
1000
0000
,
0100
0000
0100
0000
0010
0000
0010
0000
0001
0000
0000
0001
0000
1000
0010
0000
,
0000
0000
0100
0000
0001
0000
0100
0000
0010
0000
0000
1000
0000
0000
0001
0000
,
0010
0000
0000
0100
0000
0010
0000
1000
0000
0000
0010
0000
0001
0000
1000
0000
,
0010
0000
0000
0000
0100
0001
0000
0010
0000
0100
0000
0010
0001
0000
1000
0000
,
0100
0000
1000
0000
0001
0010
0000
0100
0000
1000
0010
0000
0100
0000
0001
0000
,
2002
0000
0000
3000
,
0200
0000
0000
0003
,
0000
1000
0000
1000
,
0000
0001
0000
0301
,
1000
0000
0000
0001
0000
0100
0000
0001
0000
0000
0010
0000
0000
0110
0000
0000
,
0001
0000
0000
1000
0000
0100
0000
1000
0000
0000
0010
0000
0000
0110
0000
0000
,
0001
0100
1000
0000
1000
0100
0001
0000
,
0010
0000
0000
0100
0000
0000
1001
0000
0000
0000
1000
0000
0100
0000
0010
0000
,
0002
0000
0000
0000
0000
0000
0023
0000
0230
0000
0000
0320
0000
0000
0032
0000
,
0203
0000
0000
0310
1000
0100
0010
0100
,
2000
0000
0000
0000
0000
0000
0000
0000
3020
0000
0000
0230
0000
0000
0302
0000
,
0023
0000
0000
0230
2300
3020
0230
0302
,
2003
0000
0000
0000
0000
0000
3020
0000
0230
0000
0000
0320
0000
0000
2030
0000
,
3100
0000
0100
1000
0000
0000
0010
0000
0100
0000
0001
0000
1000
0000
0001
0000
,
0200
0000
0000
0000
0000
0000
0301
0000
0020
0000
0000
0230
0000
0000
2300
0000
,
3020
0000
0000
0000
0000
0000
0000
0000
0000
0230
0000
0000
0302
0000
0000
0023
0000
0000
0130
0000
1000
0000
0001
0000
,
1000
1010
0010
1010
,
0001
0000
0011
0000
1000
0010
0100
0010
,
1000
1100
1000
1100
,
0001
0000
0101
0000
0001
0100
0010
1000
,
0001
0000
0010
0000
0001
0000
0010
0000
0001
0000
0100
0000
0000
0101
0000
0000
,
1000
0000
0010
0000
1000
0000
0010
0000
1000
0000
0100
0000
0000
1100
0000
0000
,
2000
0000
0000
0000
3100
0000
0010
0000
0002
0000
0000
0203
0000
0000
0320
0000
,
1030
0000
0000
0001
0000
0000
2002
0000
0000
0000
3003
0000
0110
0000
0000
0000
,
1000
0100
0010
0000
0100
1000
1010
0000
,
0010
0100
1000
0100
0001
0010
0100
0010
,
0001
0100
0010
0000
0100
0001
0011
0000
,
1000
0000
0100
0000
0010
0001
0000
0100
0000
0001
0000
0010
0000
0000
0100
0000
,
1000
0010
0100
0000
0010
1000
1100
0000
,
0100
0010
1000
0010
0001
0100
0010
0100
,
0001
0010
0100
0000
0010
0001
0101
0000
,
1000
0000
0010
0000
0000
0110
0000
0000
1001
0000
0000
0001
0000
0000
0010
0000
,
0100
1000
0010
1000
0100
1000
0010
0100
,
1000
0100
0010
0100
0001
0100
0010
1000
,
0001
0010
0100
0010
0001
0100
0010
0100
,
0001
1000
0100
0010
0100
0001
0100
1000
,
1001
0000
0000
0000
0001
0000
0100
0000
0010
0000
0000
0100
0000
0002
0000
2000
,
0000
0000
0000
0000
3003
0000
1000
0000
0100
0000
0000
0010
0000
0100
1000
0000
,
0001
0000
0000
0000
0100
0000
0010
0000
1001
0000
0000
1000
0000
0100
0000
0010
,
0001
0000
0100
0000
0001
0000
1000
0000
0100
0000
1000
0000
0010
0100
0001
0000
,
1000
0000
0000
0000
0100
0000
0010
0000
1001
0000
0000
0001
0000
0100
0000
0010
,
1000
0000
0000
0001
0000
0000
2002
0000
0000
0000
3003
0000
0110
0000
0000
0000
,
0200
0000
0000
0000
,
0000
0000
0000
0000
,
0300
0000
0000
0000
;

//--------------- dance-single - tikal. ----------------
#NOTES:
     dance-single:
     tikal.:
     Hard:
     15:
     0,0,0,0,0:
0000
0000
0000
0000
,
0000
0000
0000
0000
,
0000
0000
0000
0000
,
0000
0000
0000
0000
,
0000
0000
0000
0000
,
1000
0100
1000
0100
,
0010
0001
0010
0001
,
0100
0010
0100
0010
,
1000
0000
0000
1000
0000
0000
0000
0001
0000
0000
0001
0000
0010
0100
0010
0000
,
0001
0000
0100
0001
0000
0010
0000
0001
0000
0000
1000
0000
0010
1000
0000
0001
,
1000
0000
0100
1000
0000
0010
0000
1000
0000
0000
0001
0000
0100
0010
0100
0000
,
0001
0000
0010
0001
0000
0100
0000
0001
0000
0000
1000
0000
0100
1000
0000
0001
,
1000
0000
0010
1000
0000
0010
0000
0001
0000
0000
0010
0000
0100
0010
0100
0000
,
0001
0000
0100
0010
0000
0100
0000
1000
0000
0000
0100
0000
0010
1000
0010
0000
,
1000
0000
0100
0010
0000
0100
0000
0001
0000
0000
0100
0000
0010
0001
0000
0001
,
1000
0000
0010
0000
1000
0000
0001
0000
0010
0100
1000
0000
0010
0100
0001
0000
,
0000
1000
0001
0010
0000
0100
0000
1000
0000
0001
0000
0100
0000
0010
0100
0001
,
1000
0000
0000
0000
2001
0000
0000
0000
3001
0000
0010
0100
0000
0010
0001
0000
,
1000
0000
1000
0000
0010
0000
0100
0000
0001
0010
0000
0100
0000
1000
0010
0000
,
0000
0000
0100
0000
0001
0000
0001
0000
0010
0000
0100
1000
0000
0010
0100
0000
,
0001
0000
0001
0000
1000
0000
1000
0000
0100
0010
0000
0010
0000
0100
1000
0001
,
0000
0000
0100
0000
0010
0000
1000
0000
0001
0010
0000
0100
1000
0000
0010
0000
,
0100
0000
0001
0000
0100
0010
0000
1000
0000
0001
0010
0100
0000
0100
0000
1000
,
0000
0000
0001
0000
1000
0010
0000
0100
0000
0001
0000
0010
0000
0010
0001
0000
,
0100
0000
0010
0000
1000
0100
0000
0010
0000
0001
0100
0000
0110
0000
0000
0000
,
1001
0000
0000
0000
0001
0000
0010
0000
0100
1000
0000
0010
0000
0100
0010
0000
,
0100
0000
0001
0000
1000
0000
0001
0000
0010
0000
0100
1000
0000
1000
0001
0000
,
0000
0000
0100
0001
0100
0000
0010
1000
0010
0100
0000
0001
0000
0010
0100
0000
,
1000
0000
1000
0000
0001
0000
0001
0000
0100
0000
0000
0100
0000
0100
0001
1000
,
0000
0000
0010
0000
1000
0000
0001
0000
0001
0010
0000
0100
0000
1000
0001
0000
,
1000
0010
0000
0100
0000
0001
0000
0010
0000
0100
1000
0000
0001
0000
0100
0000
,
0010
0000
0000
0000
1000
0100
0010
0001
0000
0100
0000
0001
0010
0000
0100
0000
,
1000
0000
0010
0000
0100
0001
0000
0010
0000
0001
0100
0010
1000
0000
0100
1000
,
0002
0100
0000
0100
,
2003
0100
0000
0100
,
3020
0001
0000
1000
,
0230
1000
0000
0301
,
0101
0000
0000
0001
0000
0100
0000
0001
0000
0000
1001
0000
0000
1010
0000
0000
,
1100
0000
0000
1000
0000
0100
0000
1000
0000
0000
1001
0000
0000
0011
0000
0000
,
0101
0000
0000
0001
0000
1000
0000
0000
1100
0000
0000
1000
0000
0001
0000
0000
,
1001
0000
0000
0100
0000
0000
0110
0000
0000
0000
1000
0000
0100
0000
0010
0000
,
0002
0000
0000
0000
0000
0000
2003
0000
3020
0000
0000
2030
0000
0000
3200
0000
,
0020
0000
0000
0300
0000
0000
0031
0010
0100
0000
1000
0000
0010
0000
1000
0000
,
0200
0000
0000
0000
0000
0000
0000
0000
0320
0000
0000
0032
0000
0000
0203
0000
,
2300
0000
0000
0000
0000
0000
3100
0001
0100
0000
0010
0000
0100
0000
0001
0000
,
2000
0000
0000
0000
0000
0000
3002
0000
0023
0000
0000
0032
0000
0000
0203
0000
,
0320
0000
0130
0002
0000
0000
1003
0000
0100
0000
0010
0000
0001
0000
0010
0000
,
0200
0000
0000
0000
0000
0000
2300
0000
3020
0000
0000
2030
0000
0000
3200
0000
,
0302
0000
0000
0000
0000
0000
0000
0000
0000
0000
0103
0000
1000
0000
0000
0010
0000
0000
0100
0000
0010
0000
1000
0000
,
0001
0000
0010
0000
0100
0010
0000
0000
0001
0000
0000
0001
0100
0000
0001
0000
,
1000
0000
0010
0000
0100
0010
0000
0000
1000
0000
0100
0000
0010
0000
0100
0000
,
1000
0000
0010
0000
0100
0010
0000
0000
1000
0000
0000
1000
0100
0000
1000
0000
,
0001
0000
0010
0000
0100
0010
0000
0000
0001
0000
0100
0000
0010
0000
1000
0000
,
0100
0000
1000
0000
0100
0000
1000
0000
0010
0000
1010
0000
0000
0101
0000
0000
,
0100
0000
0001
0000
0100
0000
0001
0000
0010
0000
0011
0000
0000
1100
0000
0000
,
0100
0000
1000
0000
0001
0000
0100
0000
0010
1000
0001
1000
0100
0000
0010
0000
,
1001
0000
0000
0100
0000
0000
0220
0000
0000
0000
0330
0000
1001
0000
0000
0000
,
0001
0000
0010
0000
0100
1000
0000
0010
0000
0100
0000
0010
0000
1000
0001
0000
,
0010
0000
0100
0000
0010
0001
0000
0100
0000
0010
1000
0000
0001
0000
1000
0000
,
0100
0000
0010
0000
0100
1000
0000
0001
0000
1000
0010
0000
0100
0000
0001
0000
,
0010
0000
0100
0000
0010
0001
0000
0100
0000
0100
0010
1000
0000
0000
0001
0000
,
1000
0000
0010
0000
0100
0001
0000
0010
0000
0100
0000
0010
0000
0001
1000
0000
,
0010
0000
0100
0000
0010
1000
0000
0100
0000
0010
0001
0000
1000
0000
0001
0000
,
0100
0000
0010
0000
0100
0001
0000
1000
0000
0001
0010
0000
0100
0000
1000
0000
,
0010
0000
1010
0000
0000
0011
0000
0000
1001
0000
0000
1000
0100
0000
0010
0000
,
0001
0000
0001
0000
0100
0010
0000
1000
0000
1000
0001
0000
0010
0000
0100
0000
,
0100
1000
0000
0010
0000
0010
0100
0000
0001
0010
0000
0010
0100
0000
1000
0000
,
0001
0000
1000
0100
0000
1000
0001
0000
1000
0010
0000
0100
0000
0001
1000
0000
,
0001
0010
0000
0100
0000
1000
0000
0010
0100
0000
0000
0010
1000
0000
0001
0000
,
0010
0000
0000
0000
0100
0000
0010
0000
0001
0100
0000
0010
0000
2000
0000
0200
,
0000
0000
0000
0000
3300
0000
0100
0000
1000
0010
0000
0100
0000
0001
0000
0010
,
0100
0000
0000
0000
1000
0001
0100
0000
0010
0100
0000
0001
0000
1000
0000
0100
,
0010
0000
0100
0000
0001
0000
0100
0000
1000
0000
0001
0000
0100
0010
1000
0000
,
0001
0000
0010
0000
0100
1000
0001
0000
1000
0010
0000
0100
0000
1000
0000
0100
,
0010
0000
0000
0110
0000
0000
2002
0000
0000
0000
3003
0000
0110
0000
0000
0000
,
0200
0000
0000
0000
,
0000
0000
0000
0000
,
0300
0000
0000
0000
;

//--------------- dance-single - tikal. ----------------
#NOTES:
     dance-single:
     tikal.:
     Challenge:
     17:
     0,0,0,0,0:
0000
0000
0000
0000
,
0000
0000
0000
0000
,
0000
0000
0000
0000
,
0000
0000
0000
0000
,
0000
0000
0000
0000
,
1000
0010
1000
0001
,
0010
0001
1000
0001
,
1000
0010
0100
0001
,
1000
0000
0000
1000
0000
0000
0000
0001
0000
0000
0001
0000
0010
0100
0010
0001
,
1000
0000
0010
1000
0000
0100
0000
1000
0000
0001
1000
0000
0010
0100
0000
0100
,
0001
0000
0010
0001
0000
1000
0000
0001
0000
0100
0001
0000
0010
0100
0010
0001
,
0100
0000
0010
0100
0000
1000
0000
0100
0000
0001
0100
0000
0010
1000
0000
1000
,
0100
0000
0010
0100
0000
1000
0000
0001
0000
0100
0001
0000
0100
0010
0000
1000
,
0001
0000
0100
0000
0001
0000
0100
0000
1000
0000
0100
0000
0010
1000
0001
0000
,
1000
0000
0100
0000
1000
0000
0100
0000
0001
0000
0100
0000
0010
0001
0000
1000
,
0001
0100
0001
0000
1000
0100
1000
0000
0001
0010
0100
1000
0010
0100
0001
1000
,
0000
0001
0010
0100
0000
1000
0000
0010
0000
1000
0100
0010
0001
1000
0001
0100
,
0010
0000
0000
0000
0120
0000
0000
0000
0130
0001
0100
0010
0000
1000
0001
0010
,
0100
0100
0100
0010
0001
1000
0010
1000
0001
0010
0001
0100
0000
0010
1000
0100
,
0010
0000
0002
0000
1003
0010
1000
0010
0100
0001
0010
0100
0000
0010
0001
0100
,
0010
0000
0010
1000
0001
0000
0001
1000
0100
0010
0000
0010
0000
0001
0010
0100
,
1000
0000
0020
0000
0130
0000
0001
0000
0010
0001
0010
0100
1000
0010
0000
0100
,
0001
0100
0100
1000
0001
0010
0100
0010
0000
0100
1000
0001
0000
0001
0000
0100
,
0010
0000
0010
0000
0100
0001
0000
0010
0000
0100
0000
1000
0000
1000
0001
0100
,
0020
0000
0130
0000
0001
1000
0000
0100
0000
1000
0001
0010
0100
1000
0010
0100
,
0001
0000
0000
0000
1000
0000
0100
1000
0010
0100
0000
0001
0000
0010
0001
0100
,
0010
1000
0010
0100
0001
0010
0001
0100
0010
1000
0100
0010
0000
0100
1000
0001
,
0000
0000
1000
0010
1000
0000
0001
0010
0100
1000
0000
0010
0000
0100
0010
1000
,
0100
0000
0100
0000
0010
0000
0010
0000
0002
0000
1003
0001
0000
0100
0010
1000
,
0000
0000
0002
0000
0103
0100
1000
0010
1000
0001
1000
0100
0000
1000
0010
1000
,
0001
0100
0000
0010
0000
1000
0000
0100
0000
0010
0100
1000
0001
0100
0001
1000
,
0010
0000
0010
0000
0100
0001
0010
0100
0000
1000
0000
0010
0100
1000
0100
0010
,
1000
0000
0001
0000
0010
0100
0000
0001
0000
0100
0010
0100
1000
0001
0100
0010
,
2000
0100
0001
0100
,
3002
0100
1000
0100
,
0023
1000
0100
0001
,
0230
0001
0010
1300
,
1010
0000
0010
1000
0000
0100
0000
1000
0000
0000
0011
0000
0000
1100
0000
0000
,
0011
0000
0010
0001
0000
0100
0000
0001
0000
0000
1010
0000
0000
0101
0000
0000
,
1010
0000
0010
1000
0000
0100
0000
0010
0001
0000
0100
0001
0000
0010
0000
0100
,
1000
0000
0000
1001
0000
0000
0110
0000
0000
0000
0001
0000
0100
0000
0010
0000
,
2000
0000
0000
0000
0000
0000
3002
0000
0023
0000
0000
0032
0000
0000
0203
0000
,
0020
0000
0000
0300
0000
0000
1030
0010
0100
0000
0001
0000
0010
0000
0001
0000
,
0200
0000
0000
0000
0000
0000
0000
0000
0320
0000
0000
2030
0000
0000
3200
0000
,
0302
0000
0000
0000
0000
0000
0103
1000
0100
0000
0010
0000
0100
0000
1000
0000
,
0002
0000
0000
0000
0000
0000
2003
0000
3020
0000
0000
2030
0000
0000
3200
0000
,
0320
0000
0130
2000
0000
0000
3001
0000
0100
0000
0010
0000
1000
0000
0010
0000
,
0200
0000
0000
0000
0000
0000
0302
0000
0023
0000
0000
0032
0000
0000
0203
0000
,
2300
0000
0000
0000
0000
0000
0000
0000
0000
0000
3100
0000
0001
0000
0000
0010
0000
0000
0100
0000
0010
0000
0001
0000
,
1000
0000
0010
0000
0100
0010
0000
0000
0101
0000
0000
0001
1000
0000
0001
0000
,
0100
0000
0001
0000
0010
0001
0000
0000
1100
0000
1000
0000
0010
0000
0100
0000
,
0001
0000
0010
0000
0100
0010
0000
0000
1100
0000
0000
1000
0001
0000
1000
0000
,
0100
0000
1000
0000
0010
1000
0000
0000
0101
0000
0100
0000
0010
0000
1000
0000
,
0001
0000
0100
0000
1000
0000
0100
0000
0010
0000
1010
0000
0000
0101
0000
0000
,
1000
0000
0100
0000
0001
0000
0100
0010
0001
0000
0011
0000
0000
1100
0000
0000
,
0001
0100
0001
1000
0001
0010
0001
0000
1000
0100
1000
0001
1000
0010
0100
0001
,
1000
0000
0000
1001
0000
0000
0220
0000
0000
0000
0330
0000
1001
0000
0001
1000
,
0100
0000
0010
0000
0100
1000
0000
0010
0000
0100
0001
1000
0000
0001
0010
0100
,
1000
0000
0010
0000
1000
0100
0000
0001
0000
0100
0010
0001
1000
0010
0100
0001
,
0010
0000
0100
0000
0010
0001
0000
0100
0000
0010
1000
0000
0100
0000
0010
0000
,
1000
0000
0010
0000
0100
1000
0000
0001
0000
1000
0010
0100
0000
0100
0001
0000
,
0010
0000
0100
0000
0010
0001
0000
0100
0000
0010
1000
0001
0000
1000
0100
0010
,
0001
0000
0100
0000
0001
0010
0000
1000
0000
0010
0100
1000
0001
0100
0010
1000
,
0100
0000
0010
0000
0100
1000
0000
0010
0000
0010
0100
0000
1000
0000
0100
0000
,
0110
0000
0001
0000
1000
0100
0000
0000
0110
0000
0000
0001
0010
0100
1000
0010
,
0100
0001
1000
0100
1000
0010
0000
0100
0000
0100
0001
0000
0010
0000
0100
0010
,
0100
1000
0000
0010
0000
0010
0100
0001
0010
0100
0000
0001
0000
0100
0010
0001
,
1000
0100
0100
0001
0000
0001
1000
0100
0010
0001
0000
0100
0000
0010
0100
0001
,
1000
0001
0000
0010
0000
0100
0000
0010
1000
0010
0000
0100
1000
0001
0100
0010
,
1000
0000
0100
0000
1000
0000
0100
0010
1000
0010
0000
0001
0000
1000
0100
0010
,
0001
0000
0100
0000
0001
0000
0100
0010
0001
0010
0000
1000
0000
0001
0100
0010
,
1000
0000
0010
0000
0100
0010
1000
0001
0010
0100
0000
0001
0000
0100
0000
1000
,
0010
0000
0100
0000
1000
0000
0001
0000
1000
0000
0100
0000
0010
1000
0100
0010
,
0001
1000
0010
0000
1000
0001
0010
0000
0100
1000
0010
0100
0001
0010
0100
1000
,
0001
0000
0000
1001
0000
0000
0220
0000
0000
0000
0330
0000
1001
0000
0000
0000
,
0200
0000
0000
0000
,
0000
0000
0000
0000
,
0300
0000
0000
0000
;
