#TITLE:Night Drive;
#SUBTITLE:;
#ARTIST:Shinichiro Yokota;
#TITLETRANSLIT:;
#SUBTITLETRANSLIT:;
#ARTISTTRANSLIT:;
#GENRE:;
#CREDIT:Minxyz;
#MUSIC:Night Drive.ogg;
#BANNER:Night Drive BN.png;
#BACKGROUND:Night Drive BG.jpg;
#CDTITLE:;
#SAMPLESTART:0.000;
#SAMPLELENGTH:0.000;
#SELECTABLE:YES;
#OFFSET:-0.131;
#BPMS:0.000=115.692;
#STOPS:;
#BGCHANGES:;
#FGCHANGES:;

//--------------- dance-single - Minxyz ----------------
#NOTES:
     dance-single:
     Minxyz:
     Beginner:
     4:
     0,0,0,0,0:
0000
0000
0000
0000
,
0000
0000
0000
0000
,
0000
0000
0000
0000
,
0000
0000
0000
0000
,
1000
0000
1000
0000
,
0100
0000
0100
0000
,
0010
0000
0010
0000
,
1000
0000
1000
0000
,
0001
0000
0001
0000
,
0010
0010
0100
0000
,
0010
0000
0001
0000
,
0010
0000
0100
0000
,
1000
0000
0100
0000
,
0010
0000
0001
0000
,
1000
0000
0010
0000
,
0001
0000
0100
0000
,
1000
0010
0100
0000
,
0010
0000
0010
0000
,
0100
0000
0100
0000
,
0100
0100
0100
0000
,
0001
0010
0001
0000
,
0100
0000
0010
0000
,
1000
1000
0000
1000
,
1000
1000
0100
0010
,
0001
0010
0100
0000
,
0100
0000
0100
0000
,
1000
0100
0010
0000
,
0001
0000
0010
0000
,
0001
0010
0100
0010
,
0001
0000
0010
0000
,
0100
0000
0010
0000
,
0100
0010
0001
0010
,
1001
0000
0100
0000
,
0010
0000
0010
0000
,
1000
0000
1000
0000
,
1001
0000
0010
0000
,
0100
0000
0001
0000
,
0010
0000
1000
0000
,
0100
0000
0001
0000
,
0010
0000
0100
0000
,
0010
0000
0100
0000
,
0010
0100
0010
0000
,
0010
0100
1000
0100
,
0010
0000
0100
0000
,
0001
0010
0000
0001
,
0010
0100
0000
0010
,
0010
0000
0010
0100
,
0100
1000
0100
0010
,
1001
0000
0000
0000
;

//--------------- dance-single - Minxyz ----------------
#NOTES:
     dance-single:
     Minxyz:
     Easy:
     8:
     0,0,0,0,0:
0000
0000
0000
0000
,
0000
0000
0000
0000
,
0001
0000
0010
0000
0001
1000
0010
0000
,
0100
0000
0010
1000
0001
0000
0010
0000
,
0100
0000
0000
0000
0001
0100
0010
0100
,
1000
0000
0100
0000
0010
0000
0001
0010
,
0001
0000
0010
0000
0100
0000
0010
0100
,
0010
0001
0010
1010
,
1000
0100
1000
0000
0100
0010
0100
0000
,
0001
0010
0001
0010
0001
0000
0110
0000
,
1000
0010
0100
0000
0001
0010
0100
0000
,
0010
0000
0100
0000
0010
0001
0010
0000
,
0010
0010
0100
0010
,
0001
0010
1000
0100
,
0010
0000
0001
0010
0001
0000
0010
0000
,
0100
0010
0100
1000
,
0010
0001
0100
1000
,
0010
0001
0100
1000
,
0010
1000
0100
0001
,
0010
1000
0100
0001
,
0010
0100
0010
0001
0100
0000
0010
0000
,
0100
0010
1000
0100
0010
0000
0101
0000
,
0100
1010
0100
0101
,
0010
0000
0101
0000
1010
0000
0100
0010
,
0110
0001
0010
0001
,
0100
0000
0010
0000
0100
0000
0010
0100
,
1000
0000
0100
0000
0010
0100
0010
0000
,
0100
0000
0010
0000
0001
0001
0001
0000
,
1000
0000
0100
0100
0100
0000
0010
0000
,
0001
0010
0100
1000
0100
0000
0110
0000
,
0010
0000
0100
0000
0001
0010
0100
0000
,
0010
0001
0010
0000
0100
1000
0100
0000
,
0100
0010
0001
0010
,
0100
0010
0100
1000
,
0100
0000
0001
0000
0100
0000
1000
0010
,
0010
0000
0100
0000
0010
0000
0001
0010
,
0100
0000
0010
0000
0100
0000
0100
0010
,
0100
0010
1000
0100
,
0010
0010
0000
0000
0001
0001
0000
0000
,
0010
0010
0100
0100
1000
0000
0100
0000
,
0011
1100
0110
0001
,
0010
0000
0100
0000
0100
0010
0110
0000
,
0001
0010
0101
0010
,
1010
0100
0010
0110
,
0001
0010
0100
0010
0001
0010
0100
0010
,
0001
0000
0010
0000
0100
0010
0100
0000
,
0010
0100
0010
0100
,
0010
0000
1000
0000
0100
0010
0001
0010
,
0100
0000
0010
0000
0100
0010
0100
0000
;

//--------------- dance-single - Minxyz ----------------
#NOTES:
     dance-single:
     Minxyz:
     Medium:
     11:
     0,0,0,0,0:
0000
0000
0000
0000
,
0000
0000
0000
0000
,
0000
0000
0000
0000
,
0000
0000
0000
0000
,
1000
0000
0000
1000
0000
0000
0100
0000
0000
0010
0000
0000
0010
0000
0100
0000
,
1000
0000
0000
0010
0000
0000
0100
0000
0000
0001
0000
0000
1010
0000
0000
0000
,
0010
0000
0000
0100
0000
0000
0001
0000
0000
1000
0000
0000
0100
0000
0010
0000
,
1000
0000
0000
0010
0000
0000
0100
0000
0000
0010
0000
0000
1001
0000
0000
0000
,
1000
0000
0001
0000
0010
0000
0000
0000
0100
0000
0010
0001
0000
0000
0010
0001
,
0100
0000
0010
0000
1000
0010
0000
0000
0100
0000
0010
0000
1000
0100
0000
0000
,
0010
0000
1000
0000
0100
0000
0010
0000
0001
0000
0100
0000
0110
0000
0000
0010
,
1000
0000
0000
1000
0000
0000
1000
0000
0000
0000
0100
0000
0010
0000
0000
0000
,
0001
0010
0100
1000
0100
0010
0001
0010
,
1000
0000
0000
0010
0000
0000
0001
0000
0000
0100
0000
0000
1010
0000
0000
0000
,
0100
0000
0000
0010
0000
0000
1000
0000
0000
0000
0010
0000
0001
0000
0010
0000
,
0100
0000
0010
0000
0001
0000
0010
1000
0100
0000
1000
0000
0100
0000
0000
0000
,
0010
0000
1000
0000
0001
0000
1000
0100
1000
0000
0100
0000
0010
0000
0001
0000
,
0110
0000
0000
1000
0000
0000
0100
0000
0000
0010
0000
0000
0010
0000
0010
0000
,
0010
0000
0000
0000
0010
0000
0000
0010
0000
0000
0010
0000
1001
0000
0100
1000
,
0100
0000
0000
0100
0000
0000
0100
0000
0000
0100
0000
0000
0100
0000
0100
0001
,
0100
0000
0000
0000
0010
0000
0000
0001
0000
0000
0100
0000
0000
0010
0000
1000
,
0001
0000
0000
0010
0000
0000
0100
0000
0000
1000
0000
0000
0100
0000
0010
0001
,
0100
0000
0100
0000
0001
0000
0000
1000
0010
0000
0100
0000
0010
0000
0001
0000
,
0100
0001
0010
0001
0100
0000
0000
0000
0010
1000
0010
1000
0010
0000
0010
0000
,
1000
0000
0010
0000
0100
0000
0010
0000
0001
0010
0100
0000
0010
0000
0010
0000
,
1000
0000
0100
0000
0010
0000
0001
0000
0010
0001
0100
0000
0010
0000
1000
0000
,
0100
0001
0100
1000
0010
0100
0100
0001
,
0010
0001
0010
0000
0001
0000
0010
0000
1000
0000
0100
0000
0100
0000
1001
0000
,
0010
1000
0010
0100
0010
0001
0010
0001
,
0010
1000
0100
0000
0011
0000
0100
0000
0010
0000
1000
0000
0100
0000
0010
0000
,
1001
0000
0010
0000
0000
0000
0100
0000
0010
0000
0001
0010
0001
0000
0010
0000
,
0001
0010
0100
0000
1000
0100
0010
0000
0001
0010
0001
1000
0010
1000
0010
0000
,
0100
0000
0000
0010
0000
0000
0001
0000
0000
0000
0000
0000
0010
0000
0000
0000
,
0100
0000
0000
0010
0000
0000
0001
0000
0000
0010
0000
0000
0010
0000
0000
0000
,
1000
0000
0000
0100
0000
0000
0010
0000
0000
0000
0000
0000
0100
0000
1000
0000
,
0100
0000
0000
0010
0000
0000
0001
0000
0000
0010
0000
0000
0100
0000
0000
0000
,
1000
0100
1000
0000
0010
0000
0100
0000
0100
0000
0000
0100
0010
0000
1000
0000
,
0100
0000
0000
0010
0000
0000
0001
0000
0000
0110
0000
0000
1010
0000
0000
0000
,
0100
0000
0000
0000
0010
0000
1000
0000
0001
0000
0010
0100
0010
0000
0001
0000
,
0100
0010
1001
0000
1010
0000
0101
0000
,
1000
0100
0000
0010
0001
0000
0010
0100
,
1000
0010
0001
0010
0100
0000
1001
0000
,
1000
0101
0010
0011
,
1100
1010
0100
0101
,
0010
0000
0100
0000
0001
0010
0100
1000
,
0100
0000
0010
0000
0001
0000
0010
0000
1000
0010
1000
0000
0100
0000
0000
0000
,
0010
0000
0100
0000
0001
0000
0010
0100
,
0010
0000
0001
1000
0010
0000
0001
0000
0010
0000
0100
0000
1000
0100
0010
0000
,
0100
0000
0000
0010
0000
0000
0100
0000
0000
0000
0000
0000
0010
0000
0100
0000
,
0010
0000
0000
0000
;

//--------------- dance-single - Minxyz ----------------
#NOTES:
     dance-single:
     Minxyz:
     Hard:
     13:
     0,0,0,0,0:
0000
0000
0000
0000
,
0000
0000
0000
0000
,
0000
0000
0000
0000
,
0000
0000
0000
0000
,
1000
0100
0000
0010
0001
0000
0010
0001
0000
0010
0100
0000
0100
0000
0100
0000
,
0100
0000
0000
0010
0000
0000
0100
0000
0000
0000
0001
0000
0101
0000
0000
0000
,
0010
0100
0000
0001
0100
0000
0010
0100
0000
0001
0010
0000
0010
0000
0010
0000
,
0100
0000
0000
0100
0000
0000
0100
0000
0000
0000
0010
0000
1001
0000
0000
0000
,
1000
0000
0100
0000
0010
0000
0000
0100
0001
0000
0010
0000
0100
0000
0000
0000
,
0010
0000
0001
0000
0010
0000
0000
0100
0000
0000
0010
0000
0101
0000
0000
0000
,
1000
0000
0100
0000
0010
0000
0000
0010
0100
0000
1000
0000
0110
0000
1001
0000
,
0110
0000
0000
1100
0000
0000
0101
0000
0000
0000
0010
0000
1001
0000
0000
0000
,
0001
0010
0000
1000
0010
0000
0001
0010
0000
1000
0010
0000
0001
0000
0100
0000
,
0010
0000
0000
1000
0000
0000
0100
0000
0000
0000
0010
0000
0101
0000
0000
0000
,
0100
0010
0000
0010
0100
0000
0100
0010
0000
0010
1000
0000
0100
0000
0010
0000
,
1001
0000
0000
1001
0000
0000
1001
0000
0000
0000
0110
0000
1010
0000
0000
0000
,
1000
0000
0000
0000
0100
0000
0000
0010
0100
0000
0010
0000
0000
0010
0000
0000
,
0001
0000
0000
0001
0000
0000
0001
0000
0000
0100
0000
0000
0110
0000
0010
0000
,
0100
0000
0000
0010
0001
0000
0000
0100
0100
0000
0001
0000
0110
0000
1000
0000
,
0110
0000
0010
0000
1000
0000
0100
0000
0110
0100
0000
0000
0010
0000
0100
0000
,
1001
0000
0000
0000
0100
0000
0000
0010
0100
0000
0010
0000
1000
0000
0100
0000
,
0001
0000
0000
0010
0000
0000
0100
0000
0000
1000
0000
0000
0100
0000
0010
0000
,
0001
0010
0001
0000
0100
0000
0010
0000
0100
0000
0001
0000
0110
0000
0000
0000
,
1000
0001
1000
0001
0100
0010
0000
1000
0100
0010
0100
0010
0100
0010
0001
0010
,
0001
0000
0100
0000
0010
0000
0000
1000
0100
0000
0010
0000
0001
0000
0010
0000
,
0100
0000
0000
0010
0000
0000
0001
0000
0000
1000
0000
0000
0100
0010
0001
0000
,
1000
0000
0010
0000
0010
0100
0000
0000
0001
0000
0010
0000
0001
0000
0100
0000
,
0010
0000
1000
0000
0100
0010
0000
0000
0001
0000
0010
0000
1000
0000
1000
0000
,
1000
0000
0001
0000
0001
0000
0001
1000
0100
0000
1000
0000
1000
0000
0100
1000
,
0010
0000
0001
0000
0010
0000
0001
0000
1000
0000
0100
0000
0010
1000
0001
0000
,
0010
0000
0000
0100
0010
0000
0000
0001
1000
0000
0100
0000
0010
0000
0001
0010
,
0001
1000
0001
1000
0001
0100
0000
0010
0000
0010
0001
1000
0100
0010
0001
0010
,
0100
0001
0000
0100
0001
0000
1000
0010
0000
1000
0010
0000
1000
0000
0100
0000
,
0010
0000
0000
0001
0000
0000
0010
0000
0000
0010
0100
1000
0010
0000
0000
0000
,
1000
0010
0000
1000
0010
0000
0001
0100
0000
0001
0100
0000
0001
0000
0001
1000
,
0100
0000
0000
0110
0000
0000
1000
0000
0000
0000
0010
1000
0100
0000
0000
0000
,
1000
0000
0000
0000
0010
0000
0000
0000
1000
0100
1000
0100
1000
0000
0001
0000
,
0010
0000
0100
0001
0000
0000
1001
0000
0001
0000
0010
0000
0100
0000
0110
0000
,
0100
1000
0000
0010
0100
0000
0001
0100
0000
0010
1000
0000
0100
0000
0010
0000
,
0001
0000
0000
1010
0000
0000
1001
0000
0000
0010
0000
0000
0100
0000
0000
0000
,
0010
0001
0000
1000
0100
0000
0010
0100
0000
1000
0100
0000
0010
0000
0001
0000
,
0010
1000
0010
0000
0100
0000
0001
0100
0001
0000
1000
0000
0010
0000
0110
0000
,
1000
0001
0000
0001
1000
0000
0100
0010
0000
0010
0100
0000
0010
0000
1000
0000
,
0110
0000
0000
0001
0100
0010
0000
1000
0000
0000
0010
0000
0010
0000
0000
0000
,
0001
0010
0000
1000
0001
0000
0100
1000
0000
0010
0100
0000
0010
0000
0001
0000
,
1010
0000
0100
0000
0001
0010
0000
0000
1010
0000
1000
0000
0110
0000
0000
0000
,
1000
0100
0000
0001
0010
0000
1000
0100
0000
0001
0010
0000
0010
0000
1000
0000
,
1000
0000
0010
0001
0010
0001
0000
1000
0100
1000
0100
1000
0100
1000
0100
0010
,
0001
1000
0000
0001
1000
0000
0001
0010
0000
0010
0100
0000
0010
0000
0100
0000
,
0010
0000
0000
0000
;

//--------------- dance-double - Minxyz ----------------
#NOTES:
     dance-double:
     Minxyz:
     Easy:
     8:
     0,0,0,0,0:
00000000
00000000
00000000
00000000
,
00000000
00000000
00000000
00000000
,
00000000
00000000
00000000
00000000
,
00000000
00000000
00000000
00000000
,
10000000
00000000
01000000
00000000
00100000
00010000
00100000
01000000
,
00010000
00000000
00100000
00000000
00010000
00010000
01000000
00000000
,
00100000
00000000
01000000
00000000
00100000
00010000
00001000
00000000
,
00000100
00000000
00000010
00000000
00000001
00000010
00000001
00000000
,
00000010
00000000
00001000
00000000
00000010
00001000
00001000
00001000
,
00000100
00010000
01100000
01100000
,
10000000
00000000
01000000
00000000
00100000
00010000
00100000
00000000
,
01000000
00000000
00100000
00000000
00010000
00010000
00010000
00000000
,
01000000
00000000
00100000
00000000
00010000
00100000
00010000
00100000
,
01000000
10000000
01000000
00100000
,
00010000
00000000
00001000
00000000
00000100
00000000
00000010
00000010
,
00000011
00001100
00010000
01100000
,
10000000
00010000
10000000
00000000
01000000
00100000
01000000
00000000
,
01000000
00100000
00010000
01000000
00010000
00000000
01010000
00000000
,
00100000
00010000
00100000
00000000
00001000
00010000
00001000
00000000
,
00010000
00000000
00001000
00000000
00000100
00000100
00000100
00000000
,
00000010
00000000
00001000
00000000
00001000
00001000
00001000
00000000
,
00000100
00000010
00000001
00000010
,
00000100
00000000
00001000
00010000
00100000
00000000
00110000
00000000
,
00010000
00001000
00010000
00001000
00010000
00001000
01000000
00100000
,
01000000
00000000
00100000
00000000
00010000
00100000
00100000
01000000
,
10000000
01000000
00010000
00010000
,
00001100
00001100
00000110
00000110
,
00000001
00000000
00000010
00000000
00001000
00000100
00000010
00000001
,
00000010
00000000
00000100
00000000
00001000
00001000
00001000
00000000
,
00000100
00010000
00001000
00010000
00001000
00000000
00011000
00000000
,
00100000
00000000
00010000
00000000
00010000
00010000
00010000
00000000
,
01000000
00100000
01000000
00100000
01000000
00100000
01000000
00000000
,
00100000
10000000
01000000
00100000
,
00010000
00100000
01000000
00100000
,
00010000
00001000
00000100
00000010
,
00000001
00000010
00001000
00010000
,
00110000
10000000
01000000
00100000
,
00010000
00000000
00100000
00000000
00010000
00100000
00010000
00000000
,
01000000
00000000
00100000
00000000
10000000
01000000
00100000
00010000
,
00001000
00010000
00001000
00010000
,
01010000
00101000
00010100
00001000
,
01010000
00101000
00010100
00001010
,
00000101
00000000
00000100
00000000
00010000
00001000
00010000
00001000
,
00010000
00001000
00000100
00001000
,
00100000
00010000
00100000
00010000
,
00100000
00010000
01000000
00100000
,
10000000
00000000
01000000
00000000
00100000
01000000
00100000
00000000
,
00100000
00100000
01000000
10000000
01000000
00100000
00010000
00001000
,
00010000
00001000
00010000
00101000
;

//--------------- dance-double - Minxyz ----------------
#NOTES:
     dance-double:
     Minxyz:
     Medium:
     11:
     0,0,0,0,0:
00000000
00000000
00000000
00000000
,
00000000
00000000
00000000
00000000
,
00000000
00000000
00000000
00000000
,
00000000
00000000
00000000
00000000
,
10000000
01000000
00100000
00000000
00100000
01000000
10000000
01000000
,
00100000
00000000
00000000
00001000
00000000
00000000
00001000
00000000
00000000
00000100
00000000
00000000
00000100
00000000
00000000
00000000
,
00000010
00000000
00000000
00000001
00000000
00000000
00000010
00000000
00000000
00000100
00000000
00000000
00001000
00000100
00001000
00000000
,
00010000
00000000
00000000
00100000
00000000
00000000
10000000
00000000
00000000
00100000
00000000
00000000
00010000
00000000
00000000
00000000
,
01000000
00000000
00100000
00000000
00010000
00000000
00000000
00100000
10000000
00000000
01000000
00000000
00100000
00000000
00010000
00000000
,
00000010
00000000
00000001
00000000
00000100
00000000
00000010
00000000
00000000
00001100
00000000
00000000
00010010
00000000
00000100
00000000
,
00010000
00001000
00000000
00100000
00001000
00000000
00100000
00000000
01000000
00000000
10000000
00000000
00100000
00000000
00011000
00000000
,
00001000
00000000
00000000
00000100
00000000
00000000
00000010
00000000
00000000
00001000
00000000
00000000
00000100
00000000
00000000
00000000
,
00000010
00000001
00000000
00000010
00000001
00000000
00001000
00000100
00000000
00001000
00000100
00000000
00010000
00000000
00001000
00000000
,
00010000
00000000
00000000
00010000
00000000
00000000
00001000
00000000
00000000
00001000
00000000
00000000
00011000
00000000
00000000
00000000
,
00001000
00010000
00000000
00001000
00010000
00000000
00010000
00001000
00000000
00010000
00001000
00000000
01000000
00000000
00100000
00000000
,
10000000
00000000
00000000
01000000
00000000
00000000
01000000
00000000
00000000
01000000
00000000
00000000
00100000
00000000
00001000
00000000
,
00010000
00000000
00001000
00000000
00010000
00000000
00001000
00000000
00010000
00001000
00100000
00000000
01000000
00000000
01000000
00000000
,
10000000
00000000
00100000
00000000
10000000
00000000
00100000
00000000
10000000
00100000
01000000
00000000
00010000
00000000
00100000
00000000
,
00001000
00000000
00000010
00000000
00000010
00000000
00000001
00000000
00000100
00000001
00000010
00000000
00000100
00000000
00010100
00000000
,
00001000
00000000
00100000
00000000
00001000
00010000
00001000
00000000
01000000
00010000
01000000
00000000
00100000
00000000
00100000
00000000
,
10000000
00000000
01000000
00000000
00100000
00000000
00000000
00010000
00100000
00000000
01000000
00000000
10000000
00000000
01000000
00000000
,
00100000
00000000
00001000
00000000
01000000
00000000
00001000
00000000
01000000
00100000
01000000
00000000
00010000
00000000
00010000
00000000
,
00100000
00001000
00011000
00000000
00010000
00001000
00001100
00000000
,
00001000
00000010
00001000
00000000
00000100
00000000
00000100
00000000
00010000
00001000
00010000
00001000
00010000
00000000
00001000
00000000
,
01000000
00000000
01000000
00000000
01010000
00000000
00000000
00100000
00010000
00000000
00100000
00000000
01000000
00000000
00100000
00000000
,
00010000
01000000
00010000
00100000
00001000
01000000
00000100
00001000
,
01000000
10000000
00100000
01000000
00100000
01000000
00100000
01000000
,
00100000
00000000
00010000
00000000
00011000
00000000
00000000
00000000
00001000
00000100
00000010
00000000
00001000
00000000
00000100
00000000
,
00010000
00001000
00010000
00000000
00001000
00000000
01000000
00000000
00001000
00000000
00100000
00000000
00001000
00000000
00010000
00000000
,
00000100
00001000
00000010
00000100
00000001
00000010
00000100
00001000
,
00000100
00101000
00011000
00100010
,
00010000
00001000
00010000
00000000
00000100
00000000
00000100
00000000
00010000
00001000
00010000
00000000
01000000
00000000
01000000
00000000
,
00100000
00000000
01000000
00000000
00100000
00010000
00001000
00000000
,
00010000
00000000
00000000
00001000
00000000
00000000
00000000
00000000
00010000
00000000
00001000
00000000
00010000
00000000
00000000
00000000
,
00001000
00000000
00000100
00000000
00000010
00000001
00000010
00000000
,
00000001
00000000
00000000
00001000
00000000
00000000
00010000
00000000
00000000
10000000
00000000
00000000
01000000
00000000
00000000
00000000
,
00100000
10000000
01000000
00000000
00100000
00010000
01000000
00001000
,
00010000
00000000
00000000
00000100
00000000
00000000
00000010
00000000
00000000
00001001
00000000
00000000
00000110
00000000
00000000
00000000
,
00001000
00010000
00000000
00000000
01000000
00000000
00000000
00000000
00100000
00010000
00000000
00000000
01000000
00000000
00010000
00000000
,
10000000
00000000
00000000
00010000
00000000
00000000
00001000
00000000
00000000
00000001
00000000
00000000
00000010
00000000
00000000
00000000
,
00000100
00001000
00000000
00000000
00000010
00000000
00000000
00000000
00100000
00010000
00000000
00000000
01000000
00000000
00010000
00000000
,
10000000
00000000
00000000
01000000
00000000
00000000
00100000
00000000
00000000
00001000
00000000
00000000
00000100
00000000
00000000
00000000
,
00000010
00000100
00000000
00000000
00000110
00000000
00000000
00000000
00000010
00000100
00000000
00000000
00000110
00000000
00000000
00000000
,
00000100
00000000
00001000
00000000
00010000
00001000
00010000
00000000
,
00001000
01000000
00001000
00000100
00001000
00100000
00001000
00000010
,
00010000
00000000
00000000
01000000
00000000
00000000
10000000
00000000
00000000
01000000
00000000
00000000
00100000
00000000
00000000
00000000
,
10000000
00000000
01000000
00000000
00100000
00000000
00000000
00100000
00010000
00000000
00010000
00000000
01000000
00000000
01000000
00000000
,
00000000
00000000
00001000
00010000
00001000
00010000
00000000
00010000
00100000
00010000
00100000
10000000
00100000
00000000
01000000
00000000
,
01000000
00000000
00000000
00100000
00000000
00000000
01000000
00000000
00000000
00010000
00000000
00000000
01000000
00000000
00000000
00000000
;

//--------------- dance-double - Minxyz ----------------
#NOTES:
     dance-double:
     Minxyz:
     Hard:
     13:
     0,0,0,0,0:
00000000
00000000
00000000
00000000
,
00000000
00000000
00000000
00000000
,
10000000
01000000
00000000
00100000
00010000
00000000
00001000
00010000
00000000
00100000
00001000
00000000
01000000
00000000
01000000
00000000
,
00100000
00000000
00000000
00010000
00000000
00000000
00001000
00000000
00000000
00000110
00000000
00000000
00001001
00000000
00000000
00000000
,
00010000
00001000
00000000
00010000
00001000
00000000
00010000
00000100
00000000
01000000
00010000
00000000
00001000
00000000
00000010
00000000
,
00000001
00000000
00000000
00000010
00000000
00000000
00000100
00000000
00000000
00001000
00000000
00000000
00010000
00000000
00000000
00000000
,
00100000
01000000
00000000
00100000
01000000
00000000
00010000
01000000
00000000
00001000
00010000
00000000
00000010
00000000
00000010
00000000
,
00001000
00000000
00000000
00100000
00000000
00000000
10000000
00000000
00000000
00010000
00000000
00000000
00000001
00000000
00000000
00000000
,
00000100
00010000
00001000
00000000
01000000
00000000
00000000
00000000
00100000
10000000
00100000
00000000
01000000
00000000
00010000
00000000
,
01000000
00010000
00001000
00000010
00001000
00010000
00000010
00000001
,
00001000
00000100
00000000
00000010
00001000
00000000
00010000
01000000
00000000
10000000
00100000
00000000
01000000
00000000
00010000
00000000
,
00101000
00000000
00000000
00011000
00000000
00000000
00010010
00000000
00000000
00000110
00000000
00000000
00011000
00000000
00000000
00000000
,
00010000
00001000
00000000
00010000
00001000
00000000
00100000
00010000
00000000
01000000
00010000
00000000
00100000
00000000
01000000
00000000
,
10000000
00000000
00000000
01000000
00000000
00000000
00010000
00000000
00000000
00001000
00000000
00000000
00000001
00000000
00001000
00000000
,
00010000
00100000
00000000
10000000
01000000
00000000
00010000
00001000
00000000
00000010
00000001
00000000
00000100
00000000
00000010
00000000
,
00001000
00000000
00000000
00001100
00000000
00000000
00011000
00000000
00000000
01001000
00000000
00000000
00011000
00000000
00000000
00000000
,
00100000
00000000
10000000
00000000
01000000
00000000
00010000
00000000
00001000
00100000
00000000
00000000
10010000
00000000
01000000
00000000
,
00010000
00000000
00100000
00000000
00001000
00000000
00010000
00000000
00001000
00000100
00000010
00000000
00000100
00000000
00000001
00000000
,
00000010
00000000
00000001
00000000
00000100
00000000
00000001
00000000
00000010
00001000
00000000
00000000
00010000
00000000
00000100
00000000
,
00001000
00000000
00000000
00000010
00000000
00000000
00000100
00000000
00000000
00001000
00010000
00000000
00100000
00000000
01000000
00000000
,
00010000
00100000
00001000
00000100
00010000
01000000
10000000
01000000
,
00010000
00000000
00100000
00000000
01000000
00000000
00100000
00000000
00010000
00100000
00010000
00000000
01000000
00000000
00011000
00000000
,
01000000
00000000
00000000
00000000
00010000
00000000
00000000
00100000
01000000
00000000
10000000
00000000
00100000
00000000
10000000
00000000
,
00100000
00010000
00001000
00010000
00001000
00000000
00000000
00000000
00001000
00010000
00001000
00010000
00001000
00100000
00001000
00000000
,
01000000
00010000
00100000
00010000
00000010
00000001
00000100
00000010
,
00001000
00000000
00000010
00000000
00010000
00000000
00001000
00000000
00100000
01000000
00100000
00000000
01000000
00000000
10010000
00000000
,
01000000
00000000
00100000
00000000
10000000
00000000
01000000
00100000
10000000
00000000
00100000
00000000
00010000
00000000
01000000
00000000
,
00001000
00000000
00000000
00010000
00000000
00000000
01000000
00000000
00000000
10000000
00000000
00000000
01000000
00000000
00100000
00000000
,
00010000
01000000
00010000
00000000
00010000
00000000
00100000
00000000
00001000
00010000
00001000
00000000
00001000
00000000
00000100
00000000
,
00000010
00001000
00000010
00000000
00001000
00000000
00000100
00000000
00000100
00000010
00000000
00000000
00000100
00000000
00000010
00000000
,
00000100
00000000
00001000
00000000
00000010
00000000
00000100
00000010
00000100
00000000
00000010
00000000
00001000
00000000
00000010
00000000
,
00010000
00001000
00100000
00001000
00010000
00001000
00000000
00100000
00010000
01000000
00010000
00100000
00010000
10000000
00100000
00000000
,
00010000
01000000
00000000
00010000
00100000
00000000
00001000
00010000
00000000
00001000
00010000
00000000
00001000
00000000
01000000
00000000
,
00010000
00000000
00000000
00100000
00000000
00000000
00001000
00000000
00000000
00000100
00000000
00000000
00000100
00000000
00000000
00000000
,
00000010
00010000
00000000
00100000
00010000
00000000
00001000
00000010
00000000
00000100
00010000
00000000
00001000
00000000
01000000
00000000
,
00100000
00000000
00000000
00010000
00000000
00000000
00010000
00000000
00000000
00001000
00000000
00000000
00001000
00000000
00000000
00000000
,
00000100
00000000
00000010
00000000
00001001
00000000
00000000
00000000
00000100
00000000
00000010
00010000
00001000
00000000
00100000
01000000
,
10000000
00000000
00110000
00000000
00000000
00011000
00000000
00000000
00001100
00000000
00000000
00001010
00000000
00000000
00000101
00000000
,
00001000
00000100
00000000
00000010
00000001
00000000
00000100
00000010
00000000
00010000
00001000
00000000
00100000
00000000
00001000
00000000
,
01000000
00000000
00000000
00011000
00000000
00000000
00010100
00000000
00000000
01001000
00000000
00000000
00011000
00000000
00000000
10000000
,
01000000
00100000
00000000
00010000
01000000
00000000
00001000
00010000
00000000
00001000
00000100
00000000
00000010
00000000
00000001
00000000
,
00001000
00000000
00000000
00010000
00000000
00000000
10000000
00000000
00000000
01000000
00000000
00000000
00110000
00000000
00011000
00000000
,
00010100
00000010
00010000
00100000
00001000
00000100
00010000
01000000
,
00100000
00010000
00000100
00000001
00000010
00000100
00001000
00011000
,
00100000
00000000
00000000
00000000
00001000
00000000
01000000
00000000
00001000
00010000
00001000
00010000
00001000
00000000
01000000
00000000
,
00010000
00000000
00000000
00100000
00000000
00000000
10000000
00000000
00000000
00100000
00000000
00000000
00001000
00000000
00001000
00000000
,
00001000
00010000
00000000
00001000
00010000
00000000
00100000
01000000
00000000
00100000
01000000
00000000
00100000
00000000
10000000
00000000
,
01000000
00000000
00100000
00001000
00010000
00000100
00000000
00000010
00000001
00001000
00000100
00000010
00000001
00001000
00000001
00000010
,
00000001
00000010
00000000
00000100
00001000
00000000
01000000
10000000
00000000
00100000
00010000
00000000
00001000
00000000
00010000
00000000
,
00001000
00000000
00000000
00000000
;
