#TITLE:New York City;
#SUBTITLE:;
#ARTIST:Owl City;
#TITLETRANSLIT:;
#SUBTITLETRANSLIT:;
#ARTISTTRANSLIT:;
#GENRE:;
#CREDIT:MUINELIM;
#BANNER:New York City.png;
#BACKGROUND:New York City-bg.png;
#LYRICSPATH:;
#CDTITLE:;
#MUSIC:New York City.ogg;
#OFFSET:-0.232000;
#SAMPLESTART:42.604404;
#SAMPLELENGTH:14.101467;
#SELECTABLE:YES;
#DISPLAYBPM:85.000000;
#BPMS:0.000000=84.976997
;
#STOPS:154.000000=0.706070
;
#BGCHANGES:0.000=New York City.mp4=1.000=1=0=0=StretchNoLoop==CrossFade==,
99999=-nosongbg-=1.000=0=0=0 // don't automatically add -songbackground-
;
#KEYSOUNDS:;
#ATTACKS:;

//---------------dance-single - ----------------
#NOTES:
     dance-single:
     :
     Beginner:
     1:
     0.069067,0.102737,0.029301,0.000000,0.000000,66.000000,62.000000,4.000000,0.000000,0.000000,0.000000,0.069067,0.102737,0.029301,0.000000,0.000000,66.000000,62.000000,4.000000,0.000000,0.000000,0.000000:
0000
0000
0000
0000
,
0000
0000
0000
0000
,
0000
0000
0000
0000
,
1000
0000
0000
0000
,
1000
0000
0000
0000
,
0001
0000
0000
0000
,
0001
0000
0000
0000
,
1000
0000
0000
0000
,
0001
0000
0000
0000
,
1000
0000
0000
0000
,
1001
0000
0000
0000
,
0001
0000
0001
0000
,
0001
0000
0000
0000
,
1000
0000
1000
0000
,
1000
0000
0000
0000
,
0010
0000
0010
0000
,
0100
0000
0000
0000
,
0100
0000
0100
0000
,
0010
0000
0000
0000
,
0010
0000
0010
0000
,
0100
0000
0100
0000
,
0010
0000
0100
0000
,
0010
0000
0000
0000
,
1000
0000
0000
0000
,
0001
0000
0000
0000
,
1000
0000
0000
0000
,
0001
0000
0000
0000
,
1000
0000
1000
0000
,
0100
0000
0100
0000
,
0010
0000
0010
0000
,
0001
0000
0001
0000
,
1001
0000
0000
0000
,
0000
0000
0000
0000
,
1001
0000
0000
0000
,
0000
0000
0000
0000
,
1000
0000
0000
0000
,
0010
0000
0000
0000
,
0100
0000
0000
0000
,
0001
0000
0000
1000
,
0000
0001
0000
1000
,
0000
1000
0000
0001
,
0000
1000
0000
0001
,
0000
0001
0000
0100
,
0000
0010
0000
0100
,
0000
0100
0000
0010
,
0000
0100
0000
0010
,
0000
0010
0000
1001
;

//---------------dance-single - ----------------
#NOTES:
     dance-single:
     :
     Easy:
     4:
     0.119298,0.154106,0.051277,0.087904,0.000000,114.000000,107.000000,7.000000,12.000000,0.000000,0.000000,0.119298,0.154106,0.051277,0.087904,0.000000,114.000000,107.000000,7.000000,12.000000,0.000000,0.000000:
0000
0000
0000
0000
,
0000
0000
0000
0000
,
0000
0000
0000
0000
,
1000
0000
0000
0000
,
0001
0000
0000
1000
,
1000
0000
0001
0000
,
1000
0000
0001
0000
,
0100
0000
0010
0000
,
0100
0000
0010
0000
,
1000
0000
0001
0000
,
2002
0000
3003
0000
,
1000
1000
0010
0000
,
0010
0010
0100
0000
,
0100
0100
0001
0000
,
0001
0001
1000
1001
,
0001
0000
0100
0000
,
0001
0010
0001
0000
,
1000
0000
0010
0000
,
1000
0100
1000
0000
,
0001
0000
1000
0000
,
0010
0100
0020
0130
,
0010
0000
0100
0000
,
0001
1000
0002
1003
,
1001
0000
1000
0000
,
0001
0000
0200
0300
,
0100
0000
0001
0000
,
1000
0000
0020
0030
,
0010
1000
0100
0000
,
0100
0010
0001
0000
,
1000
0100
0010
0000
,
0010
0001
0100
0010
,
2002
0000
0000
0000
,
3003
0000
0000
0000
,
2002
0000
0000
0000
,
3003
0000
0000
0000
,
1000
0000
0001
0000
,
1000
0000
0001
0000
,
1000
0001
1000
0001
,
2002
0000
3003
1000
,
0010
0100
0010
1000
,
0000
1000
0000
0001
,
0100
0010
0100
0001
,
0000
0001
0000
1000
,
0100
0010
0001
0010
,
0000
0010
0000
0001
,
0010
0100
1000
0100
,
0000
0100
0010
1001
;

//---------------dance-double - ----------------
#NOTES:
     dance-double:
     :
     Easy:
     4:
     0.117205,0.154106,0.036627,0.073253,0.000000,112.000000,107.000000,5.000000,10.000000,0.000000,0.000000,0.117205,0.154106,0.036627,0.073253,0.000000,112.000000,107.000000,5.000000,10.000000,0.000000,0.000000:
00000000
00000000
00000000
00000000
,
00000000
00000000
00000000
00000000
,
00000000
00000000
00000000
00000000
,
00001000
00000000
00000000
00000000
,
00010000
00000000
00000000
00001000
,
00010000
00000000
00000100
00000000
,
00001000
00000000
00000010
00000000
,
00010000
00000000
00001000
00000000
,
00100000
00000000
00010000
00000000
,
01000000
00000000
00001000
00000000
,
00022000
00000000
00033000
00000000
,
00010000
00000100
00001000
00000000
,
00000100
00010000
00001000
00000000
,
01000000
00001000
00010000
00000000
,
00001000
01000000
00010000
10010000
,
10000000
00000000
01000000
00000000
,
00010000
00001000
00010000
00000000
,
00001000
00000000
00000010
00000000
,
00000001
00001000
00000001
00000000
,
00000100
00000000
00001000
00000000
,
00010000
00001000
00020000
00031000
,
00010000
00000000
00100000
00000000
,
10000000
00010000
20000000
30010000
,
10010000
00000000
10000000
00000000
,
00100000
00000000
00020000
00030000
,
00001000
00000000
00000010
00000000
,
00000001
00000000
00002000
00003000
,
00000001
00000100
00000010
00000000
,
00000010
00010000
00001000
00000000
,
00001000
00010000
01000000
00000000
,
01000000
10000000
00100000
00010000
,
00002000
00000000
00000000
00000000
,
00003000
00000000
00000000
00000000
,
00020000
00000000
00000000
00000000
,
00030000
00000000
00000000
00000000
,
00001000
00000000
00010000
00000000
,
00001000
00000000
00010000
00000000
,
00001000
00010000
00001000
00010000
,
00022000
00000000
00033000
00001000
,
00100000
00010000
01000000
00001000
,
00000000
00001000
00000000
00010000
,
00000100
00001000
00000010
00010000
,
00000000
00010000
00000000
00001000
,
00000100
00000010
00000100
00001000
,
00000000
00001000
00000000
00010000
,
00100000
01000000
00100000
00010000
,
00000000
00010000
00001000
00011000
;

//---------------dance-single - ----------------
#NOTES:
     dance-single:
     :
     Medium:
     7:
     0.236503,0.244848,0.124530,0.102554,0.003663,226.000000,209.000000,17.000000,14.000000,0.000000,0.000000,0.236503,0.244848,0.124530,0.102554,0.003663,226.000000,209.000000,17.000000,14.000000,0.000000,0.000000:
0000
0000
0000
0000
,
0000
0000
0000
0000
,
0000
0000
0000
1000
,
1000
1000
0000
0000
0000
0000
0001
0000
,
0001
0000
0000
0001
0000
0000
0001
0000
0000
0000
0000
0000
1001
0000
0000
0000
,
1000
1000
0001
0000
1000
0000
1000
0000
,
0001
0001
1000
0000
0001
0000
0001
0000
,
0100
0100
0010
0000
0100
0000
0100
0000
,
0010
0010
0100
0000
0010
0000
0010
0000
,
1000
0001
0000
0001
1000
0000
0010
0100
,
0220
0000
0330
1001
,
0001
0000
1000
0000
0010
0100
0010
0000
,
1000
0000
0001
0000
0010
0100
0010
0000
,
0001
0000
1000
0000
0100
0010
0100
0000
,
1000
0000
0001
0000
0100
0010
0110
0000
,
1001
0000
0001
0010
0000
0010
0001
0000
,
0010
0000
0100
0000
1000
0010
0100
0000
,
0010
0000
1000
0100
0000
0100
1000
0000
,
0100
0000
0010
0000
0001
0100
0010
0000
,
1000
0000
0001
0000
0100
0010
0100
0000
,
0001
1000
0000
0100
0010
0000
0001
2000
,
0000
3100
0000
0100
0010
0000
0010
0001
,
0000
0001
0100
0010
1000
0001
0100
0000
,
0110
0010
1000
1100
,
0100
0000
0010
0001
0020
0000
0130
0000
,
0110
0010
0001
0101
,
0100
0000
0010
0100
0020
0000
1030
0000
,
1000
0100
1000
0000
0001
0100
0001
0000
,
1000
0010
1000
0000
0001
0010
0001
0000
,
1000
0100
0010
0000
0001
0100
0010
0000
,
1000
0010
0100
0000
0001
0010
0100
0000
,
2002
0000
0000
0000
,
3003
0000
0000
0000
1000
0001
1000
0000
,
2002
0000
0000
0000
,
3003
0000
0000
0000
0001
1000
0001
0000
,
0100
0000
0010
0000
1000
0001
1000
0000
,
0100
0000
0010
0000
0001
0000
1000
0010
,
0000
0100
0001
0000
0010
0000
0100
0000
,
0220
0000
0330
1001
,
0110
0000
0010
1000
0100
0000
0001
0000
,
0100
0000
1000
0010
0100
0001
0100
0000
,
0110
0000
0100
0001
0010
0000
1000
0000
,
0010
0000
0001
0100
0010
1000
0010
0000
,
0110
0000
0010
1000
0001
0000
0010
0100
,
0000
1000
0001
0000
0010
0200
0000
1300
,
0010
0000
0010
0100
0000
0100
0001
0000
,
0001
0010
0100
1000
0001
1000
2002
0000
,
0000
0000
0000
3003
;

//---------------dance-double - ----------------
#NOTES:
     dance-double:
     :
     Medium:
     7:
     0.228131,0.227359,0.124530,0.102554,0.003663,218.000000,201.000000,17.000000,14.000000,0.000000,0.000000,0.228131,0.227359,0.124530,0.102554,0.003663,218.000000,201.000000,17.000000,14.000000,0.000000,0.000000:
00000000
00000000
00000000
00000000
,
00000000
00000000
00000000
00000000
,
00000000
00000000
00000000
00001000
,
00001000
00001000
00000000
00000000
00000000
00000000
00010000
00000000
,
00010000
00000000
00000000
00010000
00000000
00000000
00010000
00000000
00000000
00000000
00000000
00000000
00011000
00000000
00000000
00000000
,
00001000
00010000
00001000
00000000
00100000
00000000
00001000
00000000
,
00010000
00001000
00010000
00000000
00000100
00000000
00010000
00000000
,
00001000
00010000
00001000
00000000
01000000
00000000
00001000
00000000
,
00010000
00001000
00010000
00000000
00000010
00000000
00010000
00000000
,
00001000
00010000
00000000
00010000
00001000
00000000
00001000
00010000
,
00022000
00000000
00033000
00011000
,
00001000
00000000
00000100
00000000
00000001
00000010
00000001
00000000
,
00000100
00000000
00001000
00000000
00010000
00001000
00010000
00000000
,
00010000
00000000
01000000
00000000
10000000
00100000
10000000
00000000
,
01000000
00000000
00010000
00000000
00001000
00010000
00011000
00000000
,
00001000
00000000
00000010
00000001
00000000
00000100
00000001
00000000
,
00000010
00000000
00000001
00000000
00000100
00001000
00011000
00000000
,
00010000
00000000
00100000
10000000
00000000
01000000
10000000
00000000
,
00100000
00000000
10000000
00000000
01000000
00010000
00011000
00000000
,
00001000
00000000
00000010
00000000
00001000
00010000
00001000
00000000
,
00010000
01000000
00000000
00010000
00001000
00000000
00010000
02000000
,
00000000
13000000
10000000
00000000
00100000
00000000
00010000
00000000
,
00001000
00010000
00000010
00000000
00010000
00001000
01000000
00000000
,
01010000
00010000
00100000
00101000
,
00001000
00000000
00010000
00001000
00020000
00000000
00030100
00000000
,
00001100
00001000
00000010
00010010
,
00010000
00000000
00001000
00010000
00002000
00000000
01003000
00000000
,
01000000
00010000
00100000
00000000
01000000
00000000
00010000
00000000
,
00001000
00000010
00000100
00000000
00001000
00000000
00000010
00000000
,
00010000
00001000
00000100
00000000
00001000
00000000
00010000
00000000
,
00001000
00010000
01000000
00000000
00010000
00000000
00001000
00000000
,
00022000
00000000
00000000
00000000
,
00033000
00000000
00000000
00000000
00010000
00001000
00010000
00000000
,
00022000
00000000
00000000
00000000
,
00033000
00000000
00000000
00000000
00001000
00010000
00001000
00000000
,
01000000
00000000
00001000
00000000
00010000
00001000
00010000
00000000
,
00000010
00000000
00010000
00000000
00001000
00000000
00100000
01000000
,
00000000
00010000
00001000
00000000
00000010
00000000
00000100
00000000
,
00000220
00000000
00000330
00001001
,
00000001
00000000
00000100
00001000
00010000
00000000
00001000
00000000
,
00000100
00000000
00001000
00010000
01000000
00000000
10010000
00000000
,
10000000
00000000
00100000
00010000
00001000
00000000
00010000
00000000
,
00100000
00000000
00010000
00001000
00000010
00000000
00001001
00000000
,
00000001
00000000
00000100
00001000
00010000
00000000
00001000
00000010
,
00000000
00001000
00010000
00000000
00001000
00000020
00000000
00000031
,
00000001
00000100
00001000
00010000
,
00100000
10000000
01000000
00100000
00001000
00010000
00022000
00000000
,
00000000
00000000
00000000
00033000
;

//---------------dance-single - ----------------
#NOTES:
     dance-single:
     :
     Hard:
     10:
     0.350568,0.384762,0.336964,0.146506,0.168482,335.000000,289.000000,46.000000,20.000000,0.000000,0.000000,0.350568,0.384762,0.336964,0.146506,0.168482,335.000000,289.000000,46.000000,20.000000,0.000000,0.000000:
0000
0000
0000
0000
,
0000
0000
0000
0000
,
0000
0000
0000
0000
0000
0000
1000
1000
,
0001
1000
0000
0000
0000
0000
0001
0001
,
1000
0000
0000
0001
0000
0000
1000
0000
0000
0000
0000
0000
0001
1000
0001
0000
,
0100
0000
0010
0000
1000
0000
0000
0000
0001
0000
0001
0000
1000
0001
1000
0000
,
0010
0000
0100
0000
0001
0000
0000
0000
1000
0000
1000
0000
0010
0100
0010
0000
,
0100
0000
0001
0000
0010
0000
0000
0000
0001
0000
0001
0000
0100
0010
0100
0000
,
0010
0000
1000
0000
0100
0000
0000
0000
1000
0000
1000
0000
0010
0100
0010
0000
,
0100
0000
0001
0000
0000
0001
0010
0000
0000
0010
0100
0000
0010
0000
0001
0000
,
2002
0000
3003
1001
,
1000
0010
0100
0001
1000
0100
0010
0000
,
0001
0000
0100
0000
0010
0000
1000
0000
0001
0000
0010
0000
0100
0010
0100
0000
,
1000
0001
0100
0010
1000
0001
0010
0000
,
0001
1000
0010
0100
0001
1000
1001
0000
,
0001
0000
0101
0000
0000
0100
0000
0000
0110
0000
0000
0010
0000
0000
1010
0000
,
0000
0000
1000
0000
0100
0000
1000
0010
1000
0000
0001
0000
0010
0001
0000
0000
,
1000
0000
1100
0000
0000
0100
0000
0000
0110
0000
0000
0010
0000
0000
0011
0000
,
0000
0000
0001
0000
0100
0000
0001
0010
0001
0000
1000
0000
0010
1000
0000
0000
,
0000
0000
0010
0100
0001
0000
0100
0010
0000
0100
0001
0000
0020
0000
0000
0000
,
0031
0101
0000
1000
0100
1100
0000
2002
,
3003
0000
0101
0000
0000
0110
0000
0000
1010
0000
0000
0110
0000
0000
1001
0000
,
0000
0000
1000
0000
0010
1000
0100
0000
1000
0000
0010
0000
0100
0001
0000
0000
,
0010
0000
0011
0000
0001
0100
0110
0000
,
0010
0000
1010
0000
1000
0001
1001
0000
,
1000
0000
1010
0000
0010
0100
0101
0000
,
0001
0000
0011
0000
0010
0100
0110
0000
,
0010
0100
1000
0001
0100
0010
1000
1000
,
0001
0010
0100
1000
0010
0100
0001
0001
,
1000
0010
0001
0010
1000
0100
0010
0010
,
0001
0100
1000
0100
0001
0010
0100
0100
,
0220
0000
0000
0000
,
0330
0000
0000
0000
0000
0000
0000
0000
0001
0000
1000
0000
0001
1000
0000
0000
,
2002
0000
0000
0000
,
3003
0000
0000
0000
0000
0000
0000
0000
0100
0000
0010
0000
0100
0010
0000
0000
,
0000
0000
0100
0000
0100
0000
0001
0010
0000
0100
1000
0000
0001
0000
0000
0000
,
1000
1100
0000
0001
0100
0101
0000
2002
,
3003
0000
0011
0000
0000
0110
0000
0000
1100
0000
0000
0110
0000
0000
1001
0000
,
0220
0000
0000
0000
0330
0000
1001
1000
,
0100
0001
0100
1000
0010
0001
0010
1000
,
0100
1000
0100
0000
0001
0000
0100
0000
1000
0010
0000
0000
1001
0000
0001
0000
,
0010
1000
0010
0001
0100
1000
0100
0001
,
0010
0001
0010
0000
1000
0000
0010
0000
0001
0100
0000
0000
0110
0000
0010
1000
,
0001
0000
0100
0001
0000
1000
0010
0000
0200
0000
0000
0000
0301
0010
0001
0010
,
0000
0000
0100
1000
0100
1000
0000
0000
0001
0000
2002
0000
3003
0000
1010
0000
,
0000
0101
0000
0000
1100
0000
0000
0011
0000
0000
0220
0000
0330
0000
0100
0000
,
1000
0010
1000
0010
0100
0000
0001
0000
1000
0100
0010
0000
2002
0000
0000
0000
,
0000
0000
0000
3003
;

//---------------dance-double - ----------------
#NOTES:
     dance-double:
     :
     Hard:
     9:
     0.324407,0.349784,0.271036,0.161157,0.117205,310.000000,273.000000,37.000000,22.000000,0.000000,0.000000,0.324407,0.349784,0.271036,0.161157,0.117205,310.000000,273.000000,37.000000,22.000000,0.000000,0.000000:
// measure 0
00000000
00000000
00000000
00000000
,  // measure 1
00000000
00000000
00000000
00000000
,  // measure 2
00000000
00000000
00000000
00000000
00000000
00000000
00010000
00010000
,  // measure 3
00001000
00010000
00000000
00000000
00000000
00000000
00001000
00001000
,  // measure 4
00010000
00000000
00000000
00001000
00000000
00000000
00010000
00000000
00000000
00000000
00000000
00000000
00001000
00010000
00001000
00000000
,  // measure 5
00010000
01000000
10000000
00000000
00010000
10000000
01000000
00010000
,  // measure 6
00001000
00000010
00000001
00000000
00001000
00000001
00000100
00001000
,  // measure 7
00010000
00100000
10000000
00000000
00010000
10000000
00100000
00010000
,  // measure 8
00001000
00000100
00000001
00000000
00001000
00000001
00000100
00001000
,  // measure 9
00010000
00000000
00100000
00000000
00000000
00100000
10000000
00000000
00000000
10000000
01000000
00000000
00010000
00000000
00001000
00000000
,  // measure 10
00022000
00000000
00033000
00011000
,  // measure 11
00010000
00000100
00001000
00000010
00010000
00001000
00100000
00000000
,  // measure 12
00001000
00100000
00010000
01000000
00001000
00010000
00011000
00000000
,  // measure 13
00001000
00000100
00000010
00001000
00000100
00000010
00001000
00000000
,  // measure 14
00010000
01000000
00100000
00010000
01000000
00100000
00020000
00000000
,  // measure 15
00031000
00000000
01001000
00000000
00000000
00010000
00000000
00000000
00010100
00000000
00000000
00001000
00000000
00000000
00101000
00000000
,  // measure 16
00000000
00000000
00100000
00000000
01000000
00000000
10000000
00000000
00100000
00000000
00010000
00000000
00001000
00010000
00000000
00000000
,  // measure 17
00010000
00000000
00010100
00000000
00000000
00001000
00000000
00000000
01001000
00000000
00000000
00010000
00000000
00000000
00010010
00000000
,  // measure 18
00000000
00000000
00000010
00000000
00000100
00000000
00000001
00000000
00000010
00000000
00001000
00000000
00010000
00001000
00000000
00000000
,  // measure 19
00001000
00000000
00010000
00001000
00010000
00000000
01000000
10000000
00000000
00100000
10000000
00000000
02000000
00000000
00000000
00000000
,  // measure 20
03010000
00001000
00000000
00010000
00001000
00011000
00000000
00022000
,  // measure 21
00033000
00000000
00010100
00000000
00000000
01001000
00000000
00000000
00010010
00000000
00000000
00101000
00000000
00000000
00011000
00000000
,  // measure 22
00000000
00000000
00010000
00000000
00001000
00010000
00001000
00000000
00000100
00000000
00000001
00000000
00000010
00000100
00000000
00000000
,  // measure 23
00001001
00000000
00000001
00000100
00001000
00010000
01000000
00000000
,  // measure 24
00100000
00000000
00010000
10000000
01000000
00000000
01100000
00000000
,  // measure 25
10010000
00000000
10000000
01000000
00010000
00001000
00000100
00000000
,  // measure 26
00000010
00000000
00001000
00000001
00000100
00000000
00000110
00000000
,  // measure 27
00000001
00001000
00000010
00010000
00001000
00100000
00010000
00000000
,  // measure 28
10000000
00010000
01000000
00001000
00010000
00000100
00001000
00000000
,  // measure 29
00000001
00000100
00000010
00001000
00010000
01000000
00100000
00000000
,  // measure 30
10000000
01000000
00100000
00010000
00001000
00000100
00000010
00000000
,  // measure 31
00002002
00000000
00000000
00000000
,  // measure 32
00003003
00000000
00000000
00000000
00000000
00000000
00000000
00000000
00001000
00000000
00000010
00000000
00010000
00001000
00000000
00000000
,  // measure 33
00022000
00000000
00000000
00000000
,  // measure 34
00033000
00000000
00000000
00000000
00000000
00000000
00000000
00000000
00010000
00000000
00001000
00000000
01000000
00010000
00000000
00000000
,  // measure 35
00000000
00000000
10000000
00000000
10000000
00000000
00100000
01000000
00000000
00100000
01000000
00000000
00020000
00000000
00000000
00000000
,  // measure 36
00130000
00001000
00000000
00010000
00000100
00001100
00000000
00002002
,  // measure 37
00003003
00000000
00000101
00000000
00000000
00000110
00000000
00000000
00001010
00000000
00000000
00001100
00000000
00000000
00010100
00000000
,  // measure 38
00022000
00000000
00000000
00000000
00033000
00000000
00001000
00010000
,  // measure 39
01000000
10000000
00100000
10000000
01000000
00010000
00001000
00100000
,  // measure 40
01000000
00010000
00001000
00000010
00001000
00000000
00010000
00001000
,  // measure 41
00000100
00000001
00000010
00000001
00000100
00001000
00010000
00000010
,  // measure 42
00000100
00000000
00001000
00000000
00010000
00000000
00100000
00000000
00010000
00000000
00000000
00000000
00001000
00000000
00010000
00001000
,  // measure 43
00010000
00000000
00000010
00001000
00000000
00000001
00000100
00000000
00000020
00000000
00000000
00000000
00001030
00000100
00010000
00000000
,  // measure 44
00001000
00000000
00100000
00010000
01000000
00000000
00100000
00000000
00000000
00000000
20020000
00000000
30030000
00000000
10100000
00000000
,  // measure 45
00000000
01001000
00000000
00000000
00011000
00000000
00000000
00010100
00000000
00000000
00002020
00000000
00003030
00000000
00000010
00000000
,  // measure 46
00000100
00000001
00000010
00000000
00001000
00000000
00010000
00000000
01000000
10000000
00000000
00000000
20020000
00000000
00000000
00000000
,  // measure 47
00000000
00000000
00000000
30030000
;

//---------------dance-single - ----------------
#NOTES:
     dance-single:
     :
     Challenge:
     13:
     0.467773,0.559654,0.300338,0.410217,0.575037,447.000000,406.000000,41.000000,56.000000,0.000000,0.000000,0.467773,0.559654,0.300338,0.410217,0.575037,447.000000,406.000000,41.000000,56.000000,0.000000,0.000000:
0000
0000
0000
0000
,
0000
0000
0000
0000
,
0000
0000
0000
0000
0000
0000
0000
0000
0000
0000
0000
1000
0001
0100
0001
0010
,
0002
0000
0103
0000
0000
0000
0000
0000
0000
0000
0000
0001
1000
0010
1000
0100
,
1000
0000
0000
1010
0000
0000
0101
0000
0000
0001
0020
0000
0031
0100
0010
0000
,
1000
0100
1000
0000
0100
0000
0010
0100
0000
0010
0001
0000
0010
0100
0010
0000
,
0001
0000
0100
0000
0010
0000
0100
0001
0000
0100
0010
0000
0100
0001
0100
0000
,
0010
0000
1000
0000
0100
0000
0010
0001
0000
0010
0100
0000
0010
0001
0010
0000
,
0100
0000
1000
0000
0010
0000
0100
0010
0000
1000
0010
0000
0100
0010
0100
0000
,
0001
0000
0010
0000
0100
0010
0200
0000
0000
1300
0010
0100
0001
0000
1000
0000
,
2002
0000
3003
1001
,
0001
0100
0010
0000
0100
0000
0001
0000
0010
0000
0001
0000
0101
0000
0100
0000
,
0010
1000
0100
0000
1000
0000
0010
0000
0100
0000
0010
0000
1010
0000
0000
0000
,
1000
0100
0010
0000
0100
0000
1000
0001
0000
0100
0001
0010
0001
0000
0001
1000
,
0000
0010
1000
0100
1000
0000
1000
0001
0000
0100
0010
0100
2002
0000
3003
0000
,
1001
0000
0002
0000
0000
0203
0000
0000
2300
0000
0000
3200
0000
0000
0302
0000
,
0000
0000
0013
0000
0010
0001
0100
0001
0010
0000
1000
0000
0010
0001
0000
0000
,
1001
0000
2000
0000
0000
3020
0000
0000
0032
0000
0000
0023
0000
0000
2030
0000
,
0000
0000
3100
0000
0100
1000
0010
1000
0100
0000
0001
0000
0100
1000
0000
0000
,
1001
0000
0001
0100
0010
0000
0001
0010
0000
1000
0010
0000
0220
0000
0330
0000
,
0100
0001
0010
0100
0000
0100
1000
0010
0100
0002
0000
0000
1003
0000
1001
0000
,
0000
0000
2000
0000
0000
3020
0000
0000
0032
0000
0000
0203
0000
0000
2300
0000
,
0000
0000
3010
0000
0010
0100
0001
0100
0010
1000
0100
0010
0001
0100
0010
0000
,
0220
0300
0000
1030
0100
0010
0100
1000
0000
0010
0000
0001
0010
0000
1000
0000
,
1100
0000
0000
0001
0010
0100
0010
0002
0000
0000
0103
0000
1010
0000
0000
0000
,
1001
0000
0000
0001
0100
1000
0100
0001
0000
0010
0000
0100
0010
0000
0001
0000
,
0101
0000
0000
1000
0010
0001
0010
1000
0000
0100
0100
1000
2020
0000
3030
0000
,
0010
1000
0100
0010
0100
1000
0010
0100
0010
1000
0100
0010
0001
0100
0020
0000
,
0130
0001
0010
0100
0010
0001
0100
0010
0100
0001
0010
0100
1000
0010
0200
0000
,
0301
0010
0100
0010
0001
0100
0010
0100
0001
0010
1000
0010
0001
0100
0020
0000
,
1030
0100
0010
0100
1000
0010
0100
0010
1000
0100
0001
0100
1000
0010
0100
0000
,
2002
0000
0000
0000
,
3003
0000
0000
0000
0001
1000
0010
0100
0001
0000
1000
0000
0010
0010
0000
0000
,
2002
0000
0000
0000
,
3003
0000
0000
0000
1000
0010
0100
0001
1000
0000
0010
0000
0100
0100
0000
0000
,
0110
0000
0010
1000
0100
0000
0001
0100
0000
1000
0100
0000
0020
0000
0030
0000
,
0001
0100
0010
1000
0000
1000
0001
0010
0100
2000
0000
0000
3010
0000
0101
0000
,
0000
0000
0011
0000
0000
1010
0000
0000
0101
0000
0000
1100
0000
0000
1001
0000
,
0220
0000
0000
0000
0000
0000
0000
0000
0330
0000
0000
0000
1001
0000
0001
0100
,
1000
0000
0100
0001
0000
0010
0100
0010
0002
0000
0103
0000
0100
0010
1000
0001
,
0010
1000
0010
0100
1000
0000
1010
0000
0010
0100
0000
0000
1001
0000
1000
0010
,
0001
0000
0010
1000
0000
0100
0010
0100
2000
0000
3010
0000
0010
0100
0001
1000
,
0100
0001
0100
0010
0001
0000
0101
0000
0100
0010
0000
0000
0110
0000
0100
0001
,
0010
0000
1000
0010
0000
0001
0100
0000
0220
0000
0330
0000
0010
1000
0001
0100
,
0000
1000
0100
0001
0010
0200
0000
0000
1300
0000
0011
0000
0000
0000
0202
0303
,
0000
2200
3300
0000
0022
0033
0000
2020
3030
0000
1001
0000
0001
0000
1000
0000
,
0010
0100
0001
1000
0010
0001
0010
0100
1000
0100
0001
0000
2002
0000
0000
0000
,
0000
0000
0000
3003
;

//---------------dance-double - ----------------
#NOTES:
     dance-double:
     :
     Challenge:
     13:
     0.459402,0.559654,0.285687,0.417543,0.549398,439.000000,400.000000,39.000000,57.000000,0.000000,0.000000,0.459402,0.559654,0.285687,0.417543,0.549398,439.000000,400.000000,39.000000,57.000000,0.000000,0.000000:
// measure 0
00000000
00000000
00000000
00000000
,  // measure 1
00000000
00000000
00000000
00000000
,  // measure 2
00000000
00000000
00000000
00000000
00000000
00000000
00000000
00000000
00000000
00000000
00000000
00001000
00010000
00000100
00010000
00001000
,  // measure 3
00020000
00000000
00030010
00000000
00000000
00000000
00000000
00000000
00000000
00000000
00000000
00010000
00001000
00100000
00001000
00010000
,  // measure 4
00001000
00000000
00000000
01001000
00000000
00000000
00010100
00000000
00000000
00000100
00002000
00000000
00003010
00000100
00000001
00000000
,  // measure 5
00000010
00000001
00000100
00000000
00001000
00000000
00010000
00001000
00000000
00001000
00100000
00000000
00100000
00010000
01000000
00000000
,  // measure 6
00100000
00000000
10000000
00000000
01000000
00000000
00100000
01000000
00000000
01000000
00010000
00000000
00010000
00001000
00000100
00000000
,  // measure 7
00000001
00000000
00000010
00000000
00000100
00000000
00000010
00001000
00000000
00001000
00010000
00000000
00010000
00100000
10000000
00000000
,  // measure 8
01000000
00000000
00100000
00000000
01000000
00000000
00010000
00001000
00000000
00001000
00000010
00000000
00000010
00000100
00001000
00000000
,  // measure 9
00000001
00000000
00000010
00000000
00001000
00010000
00002000
00000000
00000000
00013000
01000000
00000000
10000000
00000000
00100000
00000000
,  // measure 10
02200000
00000000
03300000
10010000
,  // measure 11
00010000
01000000
00100000
00000000
10000000
00000000
00010000
00000000
00100000
00000000
01000000
00000000
00020000
00000000
00031000
00000000
,  // measure 12
00001000
00010000
00000010
00000000
00000100
00000000
00000001
00000000
00001000
00000000
00000100
00000000
00000020
00000000
00000031
00000000
,  // measure 13
00000001
00000100
00001000
00000000
00010000
00000000
00001000
00100000
00000000
00010000
00100000
00010000
10000000
00000000
01000000
10000000
,  // measure 14
00000000
00100000
10000000
00100000
01000000
00000000
00100000
00010000
00000000
00001000
00010000
00001000
00022000
00000000
00033000
00000000
,  // measure 15
00011000
00000000
00020000
00000000
00000000
00032000
00000000
00000000
00003200
00000000
00000000
00000302
00000000
00000000
00000023
00000000
,  // measure 16
00000000
00000000
00000130
00000000
00000010
00000001
00001000
00000100
00000010
00000000
00001000
00000000
00010000
00001000
00000000
00000000
,  // measure 17
00011000
00000000
00002000
00000000
00000000
00023000
00000000
00000000
02030000
00000000
00000000
23000000
00000000
00000000
30200000
00000000
,  // measure 18
00000000
00000000
01300000
00000000
00100000
10000000
00010000
01000000
00100000
00000000
00010000
00000000
00001000
00010000
00000000
00000000
,  // measure 19
00011000
00000000
00001000
00010000
00000100
00000000
00001000
00000100
00000000
00001000
00000001
00000000
00002002
00000000
00003003
00000000
,  // measure 20
00001000
00000010
00010000
00001000
00000000
00001000
00010000
00100000
01000000
00200000
00000000
00000000
10300000
00000000
10010000
00000000
,  // measure 21
00000000
00000000
20000000
00000000
00000000
32000000
00000000
00000000
03020000
00000000
00000000
00030200
00000000
00000000
00000302
00000000
,  // measure 22
00000000
00000000
00000103
00000000
00000100
00000010
00000001
00000100
00001000
00000000
00010000
00000000
00100000
01000000
00100000
00000000
,  // measure 23
02200000
03000000
00000000
10300000
01000000
00100000
00010000
00100000
00000000
00001000
00000000
00010000
00000100
00000000
00001000
00000000
,  // measure 24
00001001
00000000
00000000
00000001
00000100
00000010
00001000
00000200
00000000
00000000
00010300
00000000
00010010
00000000
00000000
00000000
,  // measure 25
00000220
00000030
00000000
00000301
00000010
00000100
00001000
00000100
00000000
00010000
00000000
00001000
00100000
00000000
00010000
00000000
,  // measure 26
10010000
00000000
00000000
10000000
00100000
01000000
00010000
00100000
00000000
01000000
00010000
00001000
00022000
00000000
00033000
00000000
,  // measure 27
00010000
00000010
00001000
00000010
00010000
00001000
00010000
00000100
00001000
00000100
00010000
00001000
00000100
00000010
00010000
00000000
,  // measure 28
00001000
00100000
00010000
00100000
00001000
00010000
00001000
01000000
00010000
01000000
00001000
00010000
01000000
00100000
00001000
00000000
,  // measure 29
00010000
00100000
01000000
00100000
00010000
00001000
00100000
01000000
00100000
00010000
01000000
00100000
00010000
00001000
00100000
00000000
,  // measure 30
00001000
00000010
00000100
00000010
00001000
00010000
00000010
00000100
00000010
00001000
00000100
00000010
00001000
00010000
00000010
00000000
,  // measure 31
00002002
00000000
00000000
00000000
,  // measure 32
00003003
00000000
00000000
00000000
00000001
00000100
00001000
00000000
00010000
00000000
00100000
00000000
10000000
10000000
00000000
00000000
,  // measure 33
20020000
00000000
00000000
00000000
,  // measure 34
30030000
00000000
00000000
00000000
10000000
01000000
00010000
00000000
00001000
00000000
00000010
00000000
00000001
00000001
00000000
00000000
,  // measure 35
00001001
00000000
00001000
00000010
00010000
00000000
00001000
00000100
00000000
00010000
01000000
00000000
00200000
00000000
00300000
00000000
,  // measure 36
10000000
01000000
00100000
00010000
00000000
00100000
00001000
00010000
00001000
00000020
00000000
00000000
00000031
00000000
00000101
00000000
,  // measure 37
00000000
00000000
00001100
00000000
00000000
00010010
00000000
00000000
00101000
00000000
00000000
01010000
00000000
00000000
00011000
00000000
,  // measure 38
00022000
00000000
00000000
00000000
00000000
00000000
00000000
00000000
00033000
00000000
00000000
00000000
00011000
00000000
00010000
01000000
,  // measure 39
10000000
00000000
01000000
00010000
00000000
00001000
00010000
00100000
02000000
00000000
03010000
00000000
00010000
00100000
01000000
00010000
,  // measure 40
00001000
00000000
00010000
00001000
00000100
00000000
00000101
00000000
00000001
00000010
00000000
00000000
00011000
00000000
00001000
00000100
,  // measure 41
00000001
00000000
00000100
00001000
00000000
00010000
00001000
00000010
00000200
00000000
00001300
00000000
00001000
00000010
00000100
00001000
,  // measure 42
00010000
00000000
00001000
00010000
01000000
00000000
11000000
00000000
10000000
00100000
00000000
00000000
01100000
00000000
01000000
00010000
,  // measure 43
00100000
00000000
01000000
00010000
00000000
00000100
00001000
00000000
00000220
00000000
00000330
00000000
00000001
00000100
00001000
00010000
,  // measure 44
00000000
00010000
00100000
10000000
01000000
00020000
00000000
00000000
00031000
00000000
00011000
00000000
00000000
00000000
02002000
03003000
,  // measure 45
00000000
00020200
00030300
00000000
00202000
00303000
00000000
00020020
00030030
00000000
00011000
00000000
00001000
00000000
00000100
00000000
,  // measure 46
00000001
00000010
00000100
00001000
00000010
00010000
00100000
10000000
01000000
00010000
00001000
00000000
00022000
00000000
00000000
00000000
,  // measure 47
00000000
00000000
00000000
00033000
;
