#TITLE:New World;
#SUBTITLE:;
#ARTIST:Pure 100%;
#TITLETRANSLIT:;
#SUBTITLETRANSLIT:;
#ARTISTTRANSLIT:;
#GENRE:;
#CREDIT:;
#MUSIC:New World.ogg;
#BANNER:New World.png;
#BACKGROUND:New World-bg.png;
#CDTITLE:;
#SAMPLESTART:12.750;
#SAMPLELENGTH:12.000;
#SELECTABLE:YES;
#OFFSET:-0.750;
#BPMS:0.000=160.000;
#STOPS:131.000=0.188
,134.500=0.188
,170.000=0.188
,173.500=0.188
;
#JACKET:New World-jacket.png;
#BGCHANGES:-2.000=New World.avi=1.000=1=0=0=StretchNoLoop==CrossFade==;
#FGCHANGES:;

//--------------- dance-single - ----------------
#NOTES:
     dance-single:
     :
     Beginner:
     5:
     0,0,0,0,0:
0000
0000
0000
0000
,
0000
0000
0000
0000
,
0000
0000
0000
0000
,
0000
0000
0000
0000
,
1000
1000
1001
0000
,
0001
0001
1001
0000
,
0010
0010
0010
0010
,
0010
0000
0000
0000
,
1000
0100
1000
0000
,
0001
0010
0001
0000
,
1000
0010
1000
0000
,
0010
0100
0001
0000
,
1000
0000
0100
0000
,
1000
0001
1000
0000
,
0002
0000
0000
0000
,
0200
0000
0000
0000
,
0303
0000
0000
0000
,
0001
0010
0001
0000
,
1000
0100
1000
0000
,
0001
0010
0100
0000
,
1000
0000
0001
0000
,
0001
1000
0001
0000
,
0010
0010
0010
0000
,
0001
0000
0100
0000
,
0010
0000
0000
0000
,
0000
0000
0000
0000
,
1001
0000
0000
0000
,
0000
0000
0000
0000
,
1001
0000
1000
0000
,
0100
0000
0010
0000
,
1001
0000
0001
0000
,
0100
0000
0010
0000
,
1000
0000
1000
0000
1000
0000
0000
0001
,
0000
0001
0000
0001
0000
0000
1000
0000
,
0001
1000
0001
1000
,
0000
0000
0000
0000
,
0000
0000
0000
0000
,
0000
0000
0000
0002
,
1003
0100
0010
0000
,
0100
1000
0010
0000
,
0100
0001
0010
0000
,
0010
0001
0100
0001
,
0000
0000
0000
0000
0000
1000
0000
0000
,
0000
0000
0001
0000
,
1000
0000
0100
0010
,
0100
0000
1001
0000
,
0000
0000
0000
0000
,
0000
0000
0000
0000
,
0000
0000
0000
0000
,
0000
0000
0000
0000
,
0000
0000
0000
0000
,
0000
0000
0000
0000
,
0000
0000
0000
0000
,
0000
0000
0001
0000
,
0100
0000
0010
0000
,
1000
0000
0001
0001
,
0001
0000
1000
1000
,
1000
0000
0100
0000
,
0010
0000
0001
0000
,
1000
0000
0010
0010
,
0010
0000
0100
0000
,
0100
0100
0000
0001
,
1000
0001
1000
0100
,
1000
0100
0000
1000
,
0001
1000
0001
0100
,
0001
0100
0000
0001
,
1000
0100
0000
0010
,
0001
1000
0000
0010
,
0100
0001
1000
1000
,
0000
1001
0000
0001
,
1000
0001
0000
1000
,
0001
1000
0000
0001
,
0010
0001
1000
0010
,
0100
0001
0000
1000
,
0010
1000
0000
0001
,
0100
0001
0001
0001
,
1000
1000
1000
0001
,
1000
0000
1001
0000
;

//--------------- dance-single - ----------------
#NOTES:
     dance-single:
     :
     Easy:
     10:
     0,0,0,0,0:
0000
0000
0000
0000
,
0000
0000
0000
0000
,
0000
0000
0000
0000
,
0000
0000
0000
0000
,
1000
0100
1000
0100
0010
0001
1000
0000
,
0001
0100
0001
0100
0010
1000
0002
0000
,
0013
0000
0010
0000
0010
0010
0010
0000
,
0110
0000
0000
0000
1000
0100
0010
0001
,
0100
0000
0100
0000
0100
0001
1000
0000
,
0100
0000
0100
0000
0100
1000
0010
0000
,
0100
0000
0110
0000
1000
0001
1001
0000
,
0001
0000
0010
0000
0100
0000
1000
0000
0020
0000
0000
0100
0000
0100
0000
0000
,
1030
0000
1001
0000
0001
0010
0100
0000
,
1000
0010
1000
0010
0100
0000
0100
0000
,
0001
0000
0001
1000
0000
1000
0200
0000
,
0000
0000
0000
0000
0000
0000
0000
0000
0010
0000
0000
0010
0000
0310
0000
0000
,
0000
0000
0000
0000
1000
0000
0100
0000
0020
0000
0000
0001
0000
0031
0000
0000
,
1000
0010
0100
0001
0010
0000
0001
0000
,
0100
0010
1000
0100
0010
0000
0100
0000
,
1000
0100
0001
0100
1000
0000
1001
0000
,
0001
0000
0010
0000
0100
1000
0010
0000
,
0100
0001
0100
1000
0100
0001
1000
0000
,
0001
0010
0001
0010
0001
0010
0002
0000
,
2003
3020
0230
0302
,
1003
0000
0000
0000
,
0000
0000
1000
1000
,
1100
0000
0000
0000
,
0000
0000
0001
0001
,
0101
1000
1000
0100
,
0100
0010
0011
0011
,
1001
1000
1000
0010
,
0010
0100
0001
0101
,
0001
0000
0000
0000
1000
0000
0000
0000
0001
0000
0000
0000
1000
0000
0000
0000
0001
0000
0000
0000
1000
0000
0000
0000
0002
0003
0000
0000
0010
0000
0000
0000
,
0100
0000
0000
0000
0010
0000
0000
0000
0100
0000
0000
0000
0010
0000
0000
0000
0100
0000
0000
0000
0020
0030
0000
0000
0001
0000
0000
0000
0100
0000
0000
0000
,
0010
1000
0100
0010
0001
1000
0010
0010
,
0100
0100
0001
0000
0001
1000
1001
0000
,
0000
0000
0000
0000
,
0000
0000
0000
2000
,
3100
0001
0100
1000
0001
1000
1001
0000
,
0001
0100
1000
0100
0001
1000
1001
0000
,
1000
0001
0010
0001
1000
0010
0110
0000
,
0001
1000
0010
1000
0001
0010
0100
0000
,
0100
0000
0000
0000
1000
0000
0000
0000
0000
0000
0000
0000
1000
0000
0000
0000
0002
0003
0000
0000
0100
0000
0000
0000
0010
0000
0000
0000
0000
0000
0000
0000
,
0010
0000
0000
0000
0100
0000
0000
0000
0001
0000
0000
0000
0020
0030
0000
0000
0001
0000
0000
0000
0000
0000
0000
0000
0001
0000
0000
0000
0000
0000
0000
0000
,
1000
0000
1000
0000
0010
0100
0010
0100
,
0001
0010
0200
0000
2000
0000
0000
0000
,
0000
0000
0000
0000
,
0000
0000
0000
0000
,
0000
0000
3300
0000
,
0000
0000
0000
0000
0001
0000
0000
0100
,
0000
0000
0010
0000
0000
1000
0000
0000
,
2002
0000
0000
0000
,
0000
0000
0000
0000
,
3003
0000
1000
1000
,
0100
0010
0001
0000
0001
0000
0001
0000
,
0100
0010
1000
0000
0001
0000
0001
0000
,
0001
0001
1000
1000
,
1000
0000
1000
0000
0001
0010
0001
0000
,
0010
0100
1000
0000
0001
0100
0001
0000
,
0100
0010
1000
0001
1000
0100
1000
0100
,
0010
0001
0100
0010
1000
1000
0000
0000
,
0001
0001
2000
3002
1003
0100
0001
0100
,
1000
0010
1000
0000
0001
0010
1000
0010
,
0001
0100
0001
0000
0001
0100
0010
0000
,
0010
1000
0100
0000
0100
1000
0001
0010
,
0100
1000
1001
0000
0001
0100
1000
0100
,
0001
0010
0001
0000
1000
0010
0001
0010
,
1000
0100
1000
0100
0010
0000
0010
0000
,
0001
0001
1000
0010
,
1000
0100
0110
0000
1001
0000
0002
0000
,
0103
1000
0100
0000
0002
0000
2003
0000
,
3100
0001
0100
0000
2000
0000
3010
0000
,
0100
0001
0010
0000
0100
1000
0100
0010
,
0001
0011
2000
3020
,
0130
0001
2000
0000
3002
0000
0023
0000
,
0130
1000
0001
0000
0100
0001
1000
0000
,
0100
1000
0001
0000
2000
0000
3020
0000
,
0230
0000
0301
1000
2002
0000
0000
0000
,
0000
0000
0000
0000
,
0000
0000
3003
0000
;

//--------------- dance-single - ----------------
#NOTES:
     dance-single:
     :
     Medium:
     13:
     0,0,0,0,0:
0000
0000
0000
0000
,
0000
0000
0000
0000
,
0000
0000
0000
0000
,
0000
0000
0000
0000
,
0001
0000
0000
0100
0010
0000
1000
0000
0100
0000
1000
0000
0100
0000
0010
0000
,
0000
0010
0000
0010
0001
1000
0010
1000
,
0001
0000
1000
0000
0001
0000
1000
0000
0001
0000
1000
0000
0010
0000
0000
0100
0000
0000
0001
0000
0000
0010
0000
0000
,
0110
0000
0000
0000
1000
0100
0010
0001
,
1000
0000
0000
0000
0101
0000
0000
0000
2100
0000
0000
0001
0000
3001
0000
0000
,
1000
0000
0010
0000
0100
0000
0001
0000
0020
0000
0000
0100
0000
0100
0000
0000
,
0031
0000
0100
0000
0010
0000
1000
0000
2010
0000
0000
0001
0000
3001
0000
0000
,
1000
0000
0001
0000
0010
0000
0100
0000
0110
0000
0000
0110
0000
1001
0000
0000
,
0010
0000
0100
0000
1001
0000
1000
0000
0020
0000
0000
0100
0000
0130
0000
0000
,
0010
0000
1000
0000
0001
0000
0010
0000
0200
0000
0000
1000
0000
1300
0000
0000
,
0011
0000
1000
1010
0000
0001
2002
0000
,
0000
0000
3003
0000
0001
1000
0001
1000
0001
0000
0000
0000
0000
0000
0000
0000
,
2000
0000
0000
0000
3100
0010
0100
0010
0100
0000
0000
1000
0000
0001
0000
0000
,
1000
0000
0010
0000
0100
0000
0001
0000
0010
0000
0000
0011
0000
0101
0000
0000
,
0001
0000
0100
0000
0010
0000
1000
0000
0100
0000
0000
1100
0000
1010
0000
0000
,
1000
0000
0010
0000
0001
0000
0010
0000
1000
0000
0000
0110
0000
1001
0000
0000
,
1000
0000
0010
0000
0100
0000
0001
0000
0010
0000
0100
1000
0000
1000
0100
0000
,
0010
0000
0001
0000
1000
0000
0010
0000
0100
0000
0001
1000
0000
1000
0001
0000
,
1000
0010
0001
0010
1000
0010
0002
0000
,
0023
2030
3200
0310
,
1001
0000
1000
0100
1000
0000
1000
0100
,
1000
0100
1000
0000
1100
0000
1001
0000
,
0101
0000
0001
0100
0001
0000
0001
0100
,
0001
0100
0001
0000
0101
0000
1001
0000
,
1010
0000
1000
0010
0100
0000
1000
0010
,
0100
0010
1000
0000
1010
0000
1001
0000
,
0011
0000
0001
0010
0100
0000
0001
0010
,
0100
0010
0001
0000
0011
0000
0101
0000
,
1000
0000
0001
0000
1000
0000
0000
0000
0001
0000
1000
0000
0001
0000
0000
0000
1000
0000
0001
0000
1000
0000
0000
0000
2002
3003
0000
0000
0001
0000
0100
0000
,
0001
0000
0000
0000
0100
0000
0001
0000
0100
0000
0000
0000
0001
0000
0100
0000
0001
0000
0000
0000
2002
3003
0000
0000
1000
0000
0000
0000
0100
0000
0000
0000
,
0010
0001
0100
0010
1000
0001
0010
0010
,
0100
1000
0002
0000
1000
1000
1003
0000
,
0000
0000
0000
0000
,
0000
0000
0000
0010
0100
0000
0110
0000
,
1001
1000
0100
0010
0100
1000
0010
0000
,
0100
0001
0010
0001
0100
0001
0010
0000
,
0100
0001
0100
1000
0100
0001
0100
0000
,
1000
0001
0100
1000
0100
0001
0010
0010
,
0001
0000
0000
0000
0000
0000
0000
0000
0100
0000
0000
0000
0000
0000
0000
0000
0001
0000
0000
0000
0000
0000
0000
0000
1000
0000
0000
0000
0000
0000
0000
0000
0100
0000
0000
0000
0000
0000
0000
0000
1000
0000
0000
0000
0000
0000
0000
0000
2002
0000
0000
3003
0000
0000
0000
0000
0000
0000
0000
0000
1000
0000
0000
0000
0000
0000
0000
0000
0000
0000
0000
0000
0100
0000
0000
0000
0000
0000
0000
0000
0000
0000
0000
0000
0010
0000
0000
0000
0000
0000
0000
0000
0000
0000
0000
0000
,
0100
0000
0000
0000
1000
0000
0000
0000
0001
0000
0000
0000
0200
0300
0000
0000
0010
0000
0000
0000
0000
0000
0010
0000
0100
0000
0000
0000
0001
0000
0000
0000
,
0010
0000
0000
0010
0100
0000
1000
0000
0001
0000
0100
0000
0010
0000
1000
0000
,
0100
0010
0002
0000
2000
0000
0000
0000
,
0000
0000
0000
0000
,
3003
0000
1000
1000
,
1000
1000
0001
0001
,
0001
0000
0001
0000
0200
0000
0000
0320
,
0000
2000
0000
0000
,
3030
0000
0000
0000
0010
0010
0000
0000
,
0000
0000
0000
0000
1000
1000
0000
0000
,
0000
0002
1003
0100
,
0001
0100
1000
0000
0001
0000
0100
0000
,
1000
0100
0001
0000
0010
0000
0010
0000
,
0010
0010
0100
0100
,
0100
0000
0100
0000
1000
0010
1000
0000
,
0001
0010
0001
0000
1000
0100
1000
0000
,
0001
0100
0001
0000
1000
0001
1000
0001
,
0010
0000
0100
0000
0010
0000
0100
0000
1000
0000
1000
0000
0000
0000
0001
0100
,
0010
1000
0001
0010
0001
1000
0010
0100
,
0001
0010
0100
0010
0001
1000
0100
0010
,
0001
1000
0001
0100
0001
1000
0001
1000
,
0010
0100
0010
0100
0001
0010
1000
0010
,
0001
1000
0020
0000
1030
0001
0010
0100
,
1000
0010
0100
0010
1000
0100
0010
0001
,
1000
0100
1000
0001
1000
0020
0032
2003
,
3200
0000
0302
0000
0023
0000
0230
0000
1000
0000
1300
0000
0001
1000
0001
0000
,
0100
0001
0100
0000
0002
0000
0000
0000
1003
0000
0001
0000
0010
0000
0100
1000
,
0000
0100
1000
0000
0001
0000
0010
0000
0001
0000
1000
0000
0010
0000
0100
0001
,
0000
0100
0001
0000
1000
0000
0100
0000
1000
0000
0001
0000
0010
0000
0100
1000
,
0000
1000
0001
0000
0100
0000
0010
0000
1000
0000
0100
0000
0001
0000
0100
0000
,
1000
0000
0010
0000
0200
0000
0000
0000
0301
0000
1000
0000
0010
0000
0100
0001
,
0000
0001
1000
0000
0100
0000
0001
0000
0100
0000
1000
0000
0010
0000
1000
0001
,
0000
0001
0010
0000
0100
0000
1000
0000
0100
0000
0001
0000
0100
0000
1000
0000
,
0010
0001
0010
1000
0001
0010
0100
1000
,
0010
0000
0100
0000
0001
1000
0001
2000
0002
0000
0000
0000
0000
0000
0000
0000
,
0000
0000
0000
0000
,
0000
0000
3003
0000
;

//--------------- dance-single - ----------------
#NOTES:
     dance-single:
     :
     Hard:
     16:
     0,0,0,0,0:
0000
0000
0000
0000
,
0000
0000
0000
0000
,
0000
0000
0000
0000
,
0000
0000
0000
0000
,
1000
0100
0010
0001
0100
0001
0010
0001
,
1000
0010
0100
0001
0010
0100
1000
0010
,
1000
0000
0000
0000
0100
0000
0000
0000
1000
0000
0000
0000
0001
0000
0000
0000
0100
0000
0000
0000
0001
0000
0000
0000
1000
0000
0000
0001
0000
0000
1000
0000
0000
0001
0000
0000
0010
0000
0000
0100
0000
0000
1000
0000
0000
0010
0000
0000
,
0200
0000
0000
0000
0301
0100
0010
1000
,
0001
0000
1000
0000
0100
0000
1000
0000
0010
0000
1000
0100
0000
0010
0001
0000
,
1000
0000
0010
0000
0001
0000
0010
0000
1000
0000
0001
0010
0000
0100
1000
0000
,
0010
0000
0100
0000
1000
0000
0100
0000
0001
0000
1000
0100
0000
0010
0001
1000
,
0010
0000
0100
0000
0001
0000
0010
0000
0011
0000
0000
1100
0000
2001
0000
0000
,
3010
0000
1000
0000
0001
0000
0010
0000
0001
0000
0100
0010
0000
1000
0001
0000
,
0010
0000
1000
0000
0010
0000
0001
0000
1000
0000
0001
0010
0000
0001
0100
0000
,
0011
0001
0100
1010
1000
0100
2002
0000
,
0000
0000
3003
0000
1000
0001
1000
0001
2000
0000
0000
0010
0000
0010
0000
0000
,
3000
0000
0000
0000
0001
1000
0100
0010
0002
0000
0000
0100
0000
0103
0000
0000
,
1002
0000
0013
0000
0100
0000
1000
0000
0010
0000
0100
0001
0000
1000
0100
0000
,
0001
0000
0100
0000
1000
0000
0010
0000
1000
0000
0001
0100
0000
0010
1000
0100
,
0010
0000
0001
0000
1000
0000
0010
0000
1010
0000
0000
0110
0000
1001
0000
0000
,
0001
0000
1000
0000
0010
0000
1000
0000
0100
0000
1000
0001
0000
0100
1000
0000
,
0100
0000
0001
0000
0010
0000
0100
0000
1000
0000
0100
0001
0000
0100
1000
0000
,
0001
0010
0100
1000
0001
0010
0100
1000
0001
0010
0001
1000
0020
0000
0000
0000
,
0130
0001
0100
0001
0000
0000
1000
0001
1000
0002
0000
0000
0013
0000
0100
0000
1000
0000
0010
0000
0000
1000
0000
0000
,
0100
0000
0000
0000
0100
0010
0100
0000
1000
0000
0000
0000
0100
0010
0100
0000
,
0100
0010
0100
0000
1000
0000
0000
0000
0001
0000
0000
0000
0001
0000
0000
0000
,
0101
0000
0000
0000
0100
0010
0100
0000
0001
0000
0000
0000
0100
0010
0100
0000
,
0100
0010
0100
0000
0001
0000
0000
0000
0101
0000
0000
0000
1010
0000
0000
0000
,
1001
0000
0000
0000
1000
0100
1000
0000
0001
0000
0000
0000
1000
0100
1000
0000
,
1000
0100
1000
0000
0001
0000
0000
0000
0110
0000
0000
0000
0110
0000
0000
0000
,
1001
0000
0000
0000
0001
0010
0001
0000
1000
0000
0000
0000
0001
0010
0001
0000
,
0001
0010
0001
0000
1000
0000
0000
0000
1010
0000
0000
0000
0011
0000
0000
0000
,
1000
0000
0100
0000
0010
0000
0000
0000
0100
0000
0010
0000
0001
0000
0000
0000
0001
0000
1000
0000
0010
0000
0000
0000
2002
3003
0000
0000
1000
0000
0010
0000
,
0100
0000
0000
0000
0010
0000
0100
0000
0001
0000
0000
0000
0001
0000
1000
0000
0100
0000
0000
0000
2002
3003
0000
0000
1000
0000
0100
0000
1000
0000
0100
0000
,
0010
0001
0010
0001
1000
0010
0100
0001
0010
0100
0010
0001
2000
0000
3020
0000
,
0230
0302
2003
0000
3001
1000
0110
0000
,
0010
0010
0000
0000
0010
0010
0000
0000
,
0010
0000
0010
0000
0000
0000
0010
0000
0110
0000
0000
0000
2000
3002
2003
3002
,
1003
0100
0010
0000
0001
0100
0010
0000
1000
0000
0001
0000
0010
0000
0100
0000
,
1000
0001
0010
0000
0100
1000
0010
0000
0100
0000
0001
0000
1001
0000
1000
0000
,
0001
0100
1000
0000
1000
0100
0001
0000
0010
0000
0100
0000
1000
0000
0010
0000
,
1000
0100
0001
0000
0001
0100
1000
0000
0010
0000
1000
0000
1002
0000
0100
0000
,
1003
0000
0000
0000
0000
0000
0000
0000
0100
0000
0000
0000
0000
0000
0000
0000
0010
0000
0000
0000
0000
0000
0000
0000
0001
0000
0000
0000
0000
0000
0000
0000
0100
0000
0000
0000
0000
0000
0000
0000
0010
0000
0000
0000
0000
0000
0000
0000
0220
0000
0000
0330
0000
0000
0000
0000
0000
0000
0000
0000
2001
0000
0000
0000
0000
0000
0000
0000
0000
0000
0000
0000
3100
0000
0000
0000
0000
0000
0000
0000
0000
0000
0000
0000
1002
0000
0000
0000
0000
0000
0000
0000
0000
0000
0000
0000
,
0103
0000
0000
0000
0101
0000
0000
0000
0100
0000
0001
0000
0020
0030
0000
0000
1010
0000
0000
0000
0000
0000
1000
0000
0100
0000
0000
0000
0010
0000
0000
0000
,
0011
0000
0000
0001
0100
0000
0010
0000
1000
0001
1000
0001
0010
0001
0010
0001
,
1000
0010
0100
0001
0020
0000
0000
0000
0230
0000
0000
0000
0000
0000
0001
0000
,
0000
2300
0000
0000
,
0000
0000
0010
0010
,
0010
0010
0001
0001
,
0001
0000
0001
0000
3002
0000
0000
0023
,
0000
0000
0032
0000
0000
0203
0000
0000
,
0000
0000
0000
0000
1000
1000
0000
0000
,
0000
0000
0000
0000
0010
0010
0000
0000
,
0301
0002
0010
0000
1003
0100
0010
0001
,
0100
0001
1000
0010
0100
0100
0001
0010
,
0100
1000
0010
0010
1000
0100
0010
0100
,
0001
0100
0010
0100
1000
0010
0100
0010
,
0001
0010
0100
0010
1000
0001
0100
0001
,
1000
0000
0001
0000
0010
0000
0100
1000
0100
0000
0010
0000
0001
0000
1000
0001
,
0100
0001
0100
0001
1000
0010
1000
0010
1000
0001
0010
0100
1000
0010
0100
0001
,
1000
0100
0010
0001
0100
0010
1000
0100
0010
0000
0010
0000
0000
0000
0001
1000
,
0001
0100
0010
1000
0100
0001
0100
1000
,
0010
0000
0100
0001
0010
0000
0100
0000
1000
0000
0010
0000
1000
0000
0001
0100
,
0001
1000
0010
1000
0100
0001
0100
1000
,
0001
0000
0010
0001
0100
0000
0010
0000
1000
0000
0100
0000
1000
0000
0001
0010
,
0001
1000
0010
0100
0001
1000
0010
1000
,
0100
0000
0001
0100
1000
0000
0001
0000
0100
0000
0010
0000
1000
0000
0001
0100
,
1000
0100
0001
1000
0100
2000
3020
0230
,
0302
0000
0023
0000
0230
0000
2300
0000
3001
0000
0001
0000
0100
0010
0100
0010
,
2000
0000
0000
0000
0000
0000
0010
0000
0000
0000
0000
0000
3001
0000
0000
0000
1000
0000
0100
0000
0010
0000
0001
0000
1000
0000
0000
0000
0000
0000
0010
0000
0000
0000
0000
0000
1000
0000
0000
0000
0000
0000
0100
0000
0000
0010
0000
0000
,
0000
0001
1000
0000
0010
0000
0100
0001
0010
0000
0100
0000
1000
0000
0001
0100
,
0000
0010
1000
0000
0001
1000
0100
0000
1000
0000
0010
0000
0001
0000
0010
1000
,
0000
0001
0010
0000
0100
1000
0100
1000
0001
0010
0000
1000
0000
0010
0000
0001
,
0000
1000
0010
0000
1000
0001
1000
0001
0100
0000
0001
0000
1000
0000
0010
0000
,
0100
0001
0000
1000
0100
0000
0010
0001
0010
0000
0100
0000
1000
0000
0001
0100
,
0000
0001
1000
0000
0100
0010
0001
0000
0100
0010
1000
0000
0100
0010
0001
0000
,
0100
0001
0010
0000
0100
1000
0010
0000
1000
0001
1000
0001
0100
0001
0100
0001
,
1000
0000
0000
0010
0000
0000
0100
0000
0000
0001
0000
0000
0010
0000
0100
0000
1000
0000
0001
0000
0010
0000
0100
0000
2000
0000
0000
0000
0000
0000
0000
0000
0000
0000
0000
0000
0000
0000
0000
0000
0000
0000
0000
0000
0000
0000
0000
0000
,
0000
0000
0000
0000
,
0000
0000
3000
0000
;
