#TITLE:Never Again;
#SUBTITLE:;
#ARTIST:Milk Inc.;
#TITLETRANSLIT:;
#SUBTITLETRANSLIT:;
#ARTISTTRANSLIT:;
#GENRE:;
#CREDIT:Braeden;
#MUSIC:Never Again.ogg;
#BANNER:ban.png;
#BACKGROUND:bg.png;
#JACKET:jacket.png;
#CDTITLE:;
#SAMPLESTART:52.460;
#SAMPLELENGTH:12.700;
#SELECTABLE:YES;
#OFFSET:-0.182;
#BPMS:0.000=140.000;
#STOPS:;
#BGCHANGES:;
#FGCHANGES:;

//--------------- dance-single - Superior ----------------
#NOTES:
     dance-single:
     Superior:
     Easy:
     6:
     0.269,0.289,0.199,0.05,0:
0000
0000
0000
0000
,
0000
0000
0000
0000
,
0000
0000
0000
0000
,
0000
0000
0000
0000
,
0000
0000
0000
0000
0001
1000
0001
0000
,
0100
0000
0010
1000
,
0001
0000
0000
0000
1000
0010
1000
0000
,
0001
0000
0100
0010
,
1000
0001
1001
1000
,
0010
0000
0100
0001
,
1000
0000
0000
0000
0001
1000
0001
0000
,
0100
0000
0010
1000
,
0001
0000
0000
0000
0100
0010
0100
0000
,
0001
0000
1000
0010
,
0100
0000
0000
0000
0001
1000
0001
0000
,
0100
0000
0010
1000
,
0001
0000
1001
1000
,
0001
0000
0100
0000
0010
0000
1000
0001
,
0000
0000
1000
0010
0000
0000
0000
0000
,
0100
0001
0100
0010
,
1000
0000
0010
0100
,
0001
0000
0010
0000
0100
0000
0000
1000
,
0000
0001
0000
0100
0000
0000
0000
0001
,
0000
1000
0000
0010
0000
1000
0000
0100
,
0000
0010
0000
0000
1001
0000
0000
0001
,
0000
1000
0000
0010
0000
0100
0000
0001
,
0000
0000
1001
1000
,
0010
0100
0001
0100
,
0010
1000
1000
0000
,
0000
0000
0001
0000
,
1000
0001
1001
1000
,
0010
0000
0100
0001
,
0100
0000
0010
1000
,
0001
0000
0010
0100
,
1000
0000
0001
0100
,
0010
0000
1000
0001
,
0100
0000
0010
1000
,
0001
0000
1000
0100
,
0010
0000
0000
0000
0001
1000
0001
0000
,
0100
0010
1000
0001
,
0010
0000
0100
0000
0010
0001
0010
0000
,
0100
0010
0100
1000
,
0001
0000
1000
0000
0010
1000
0010
0000
,
0100
0001
0010
0100
,
1000
0000
0001
0000
0100
0010
0100
0000
,
0001
1000
0010
0100
,
0001
1000
1001
0001
,
0100
0000
0010
0000
1000
0000
0001
1000
,
0000
0000
0010
0100
0000
0000
0001
0000
,
1000
0010
1000
0001
,
1000
0000
1000
0100
,
0010
0000
0001
0000
1000
0000
0000
0001
,
0000
0100
0000
0010
0000
1000
0000
0001
,
0000
1000
0000
0010
0000
1000
0000
0001
,
0000
0000
1001
1000
,
0010
0100
0001
0010
,
0100
1000
0001
0100
,
0001
0010
0001
1000
,
0010
0100
0001
0000
,
0000
0000
0001
0000
,
1000
0010
1001
1000
,
0001
0000
0100
0010
,
1000
0000
0001
0010
,
0100
0000
1000
0001
,
0100
0000
0010
1000
,
0001
0000
0010
0100
,
0010
0000
0100
0001
,
0100
0000
0010
1000
,
0001
0000
0000
0000
0001
0100
0100
0000
;

//--------------- dance-single - Paramount XO ----------------
#NOTES:
     dance-single:
     Paramount XO:
     Medium:
     9:
     0.352,0.402,0.199,0.158,0:
0000
0000
0000
0000
,
0000
0000
0000
0000
,
0000
0000
0000
0000
,
0000
0000
0000
0000
,
0000
0000
0000
0000
1000
0001
1000
0000
,
0001
0000
0000
0100
0000
0000
0001
0000
0100
0000
0000
0000
0110
0000
0000
0000
,
0010
0000
0000
1000
0000
0000
0010
0000
1000
0000
0001
0000
1000
0000
0000
0000
,
0001
0000
0000
0010
0000
0000
0001
0000
1000
0000
0000
0000
0010
0000
0000
0000
,
1000
0100
0010
0001
1000
0010
1000
0000
,
0001
0000
0000
0100
0000
0000
1000
0000
0100
0000
0000
0000
0001
0000
0000
0000
,
1000
0000
0000
0010
0000
0000
0001
0000
0010
0000
0100
0000
0001
0000
0000
0000
,
1000
0000
0000
0010
0000
0000
0100
0000
0001
0000
0000
0000
1001
0000
0000
0000
,
1000
0000
0000
0010
0000
0000
0001
0000
0010
0000
0100
0000
0001
0000
0000
0000
,
1000
0000
0000
0010
0000
0000
1000
0000
0001
0000
0000
0000
1001
0000
0000
0000
,
1000
0000
0000
0100
0000
0000
0010
0000
0100
0000
0010
0000
0001
0000
0000
0000
,
1000
0000
0000
0010
0000
0000
0100
0000
0001
0000
0000
0000
0101
0000
0000
0000
,
0100
0000
0000
0010
0000
0000
1000
0000
1001
0000
0000
0000
0001
0000
0000
0000
,
0100
0000
0001
1000
0010
0000
0100
0001
,
0100
0000
0010
1000
0001
0000
0010
0000
,
0100
1000
0001
0100
,
0010
1000
0000
0010
1000
0000
0100
0000
,
0001
0000
0100
0010
0001
0100
0000
0010
,
0000
1000
0000
0001
1000
0000
0010
0000
,
1000
0001
0100
0010
,
1000
0000
0001
0100
0010
1000
0000
0001
,
0000
0010
0001
0100
0000
0010
1000
0010
,
0000
0100
0000
0001
1000
0000
0010
1000
,
0000
1100
0000
0010
0000
0011
0000
0001
,
0000
1001
0000
1000
0010
0000
0000
0000
,
0000
0000
1000
0000
,
0001
1000
0001
1000
1010
0000
0010
0000
,
1000
0000
0000
0100
0000
0000
0001
0000
0100
0000
0000
0000
1000
0000
0000
0000
,
0001
0100
0010
1000
0001
0000
0100
0001
,
0100
0010
0000
1000
0000
0001
0000
0100
,
0001
0000
0000
0100
0000
0000
0010
0000
0001
0000
0000
0000
0010
0000
0100
0000
,
0010
0000
0100
0001
0100
0000
1001
0000
,
0001
0100
0010
1000
0001
0000
0101
0000
,
0001
0010
0000
0100
1000
0000
1001
0000
,
0001
0000
0000
0100
0000
0000
0010
0000
1000
0000
0001
0000
1000
0000
0000
0000
,
0010
0100
0001
0010
,
0100
0000
0010
0000
0100
1000
0001
0000
,
0100
0010
1000
0001
,
0010
0000
0100
0000
1000
1000
0010
0000
,
0100
0001
0100
0000
0010
1000
0010
0100
,
0001
0010
0001
0000
0100
0100
0010
0000
,
1000
0001
1000
0001
0010
0001
1000
0100
,
0010
0001
0010
0000
1001
1000
0000
0010
,
0000
0100
0000
0001
0100
0000
0010
1000
,
0010
0000
0100
0001
1000
0000
0001
0000
,
0010
0100
1000
0010
,
0100
0001
0000
0100
0010
1000
0010
0000
,
0100
0001
0100
0000
0101
0000
0001
1000
,
0000
0010
0000
1000
0001
0000
0010
0000
,
0001
0100
0010
1000
,
0001
0000
0100
0000
0110
0010
0000
1000
,
0000
0001
0100
0010
0000
1000
0010
0100
,
0000
0001
0010
0001
1000
0000
0010
0100
,
0000
0001
0000
0110
0000
1000
0000
0110
,
0000
1000
0000
0010
0100
0000
0000
0000
,
0000
0000
0010
0000
,
1000
0001
0010
0001
1001
0000
1000
0000
,
0001
0000
0000
0100
0000
0000
1000
0000
0100
0000
0000
0000
0001
0000
0000
0000
,
1000
0010
1000
0001
1000
0000
0010
1000
,
0001
0100
0000
0010
1000
0010
0100
0001
,
1000
0000
0000
0010
0000
0000
0100
0000
0001
0000
0010
0000
0001
0000
1000
0000
,
0001
0000
0100
0010
1000
0000
0011
0000
,
0010
0100
0010
0100
0010
0000
1001
0000
,
1000
0010
0000
0100
0001
0000
0010
0000
,
0100
1000
0000
0001
1000
1000
0010
0000
;

//--------------- dance-single - Catastrophic XO ----------------
#NOTES:
     dance-single:
     Catastrophic XO:
     Hard:
     13:
     0.491,0.488,0.357,0.307,0.087:
0000
0000
0000
0000
,
0000
0000
0000
0000
,
0000
0000
0000
0000
,
0000
0000
0000
0000
,
0000
0000
0000
0000
0000
0000
0000
0000
1000
0001
1000
0001
1000
0000
0000
0000
,
0001
0000
0000
0010
0000
0000
0100
0000
1000
0000
0000
0000
1001
0000
0000
0000
,
0001
0000
0000
0010
0000
0000
0100
0000
1000
0010
1000
0010
1000
0000
0000
0000
,
0100
0000
0000
0010
0000
0000
0100
0000
1000
0000
0000
0000
1001
0000
0000
0000
,
0001
0000
0010
0000
1000
0000
0010
0000
0001
0000
1000
0001
1000
0000
0100
0010
,
0100
0000
0000
1000
0000
0000
0100
0000
0100
0000
1000
0100
1000
0000
0001
0010
,
0001
0000
0000
0100
0000
0000
0010
0000
1000
0001
1000
0001
1000
0000
0010
0000
,
0100
0000
0000
1000
0000
0000
0100
0000
0001
0000
0010
0100
0010
0000
0001
1000
,
0001
0000
0000
1000
0000
0000
0010
0000
0100
0001
0100
0001
0100
0000
0001
0000
,
1000
0000
0000
0010
0000
0000
0001
0000
0010
0000
1000
0001
0010
0000
0100
0010
,
0001
0000
0000
0100
0000
0000
0010
0000
1000
0001
1000
0001
1000
0000
0001
0000
,
0010
0000
0000
1000
0000
0000
0010
0000
0100
0000
1000
0001
1000
0000
0100
0010
,
0001
0000
0000
1000
0000
0000
0001
0000
1001
0000
0000
0000
1000
0000
0000
0000
,
0001
0000
1000
0100
0001
0000
0100
0010
,
0001
0000
0100
0010
1000
0001
1000
0000
,
0100
0010
0100
0000
1000
0001
1000
0000
,
0001
0001
0000
0010
0010
0100
1000
0000
,
0001
0100
0001
0010
1000
0010
0001
0010
,
0100
1000
0010
0100
0001
0000
1000
0000
,
0100
0010
0001
0000
0010
0100
1000
0000
,
0001
0000
1000
0001
1001
1000
0010
0100
,
0001
0001
0010
1000
0010
0100
1000
0001
,
0000
1000
0000
0010
0001
0000
0010
1000
,
0000
0001
0010
0001
0010
0100
1000
0001
,
1000
0100
0010
0001
1000
0000
0000
0000
,
0000
0000
0001
1000
,
0001
0000
0010
0000
0001
0000
1000
0000
1001
0000
0001
0100
0001
0000
1000
0010
,
1000
0000
0000
0000
0010
0000
0001
0000
0010
0000
1000
0001
1000
0000
0100
0010
,
0001
0000
0010
0000
1000
0000
0010
0000
0100
0000
1000
0010
1000
0000
0001
0100
,
0001
0100
0010
0001
0010
0100
0001
1000
,
0001
0000
0000
1000
0000
0000
0010
0000
1000
0000
0001
0010
0001
0000
1000
0100
,
1000
0000
0000
0000
0010
0000
0100
0000
0001
0000
1000
0100
0010
0000
0001
0010
,
0100
0000
1000
0000
0010
0000
0001
0000
0010
0000
1000
0001
1000
0000
0100
0010
,
0100
0000
1000
0000
0000
0000
0001
0000
1000
0000
0010
0100
0010
0000
1000
0001
,
1000
0000
0000
0010
0000
0000
0100
0000
0001
1000
0001
1000
0001
0000
0000
0000
,
0010
0100
1000
0001
,
0100
0000
0000
0000
0010
0000
0000
0000
1000
0001
1000
0001
1000
0000
0000
0000
,
0100
0010
0001
0100
,
0010
0000
0100
0000
0001
0000
0000
0000
1000
0001
1000
0001
1000
0000
0000
0000
,
0100
0010
0001
0010
0100
1000
0010
0100
,
0001
0000
1000
0000
0001
0000
0000
0000
1000
0100
1000
0100
1000
0000
0000
0000
,
0001
0010
0100
0010
0001
1000
0010
0100
,
0001
1000
0100
0010
0011
0001
0000
1000
,
0000
0010
0000
0100
1000
0100
0001
1000
,
0100
0000
0010
0001
1000
0100
0000
0010
,
0000
0001
0000
0100
0000
0010
0000
1000
,
0001
0001
0000
0100
0010
1000
0000
0001
,
0000
1000
0000
0010
0001
0010
0100
0010
,
1000
0100
0001
0100
0010
0100
1000
0100
,
0000
1000
0001
1000
0000
0001
0100
0010
,
0000
1000
0100
1000
1100
0100
0000
0010
,
0000
0001
0010
0100
0000
1000
0100
0010
,
0001
0100
0001
0100
1000
0000
0100
0010
,
0000
0100
0001
1000
0000
0100
0010
0001
,
0000
0100
0010
1000
0100
0000
0000
0000
,
0000
0000
1000
0001
,
1000
0000
0010
0000
0100
0000
0001
0000
1001
0000
1000
0010
1000
0000
0001
0100
,
0001
0000
1000
0100
0000
0000
0010
0000
0010
0000
0001
0100
0001
0000
1000
0100
,
1000
0000
0001
0010
0000
0000
0100
0000
1000
0000
0001
0100
0010
0000
1000
0010
,
0100
0000
0001
1000
0000
0000
0010
0000
1000
0000
0010
0000
0001
0000
0010
0000
,
0100
0000
0000
0001
0000
0000
1000
0000
0001
0000
1000
0100
0010
0000
0001
0010
,
0001
0000
1000
0100
0000
0000
0010
0000
0010
0000
0001
0100
0010
0000
1000
0010
,
0100
0000
0001
1000
0000
0000
0100
0000
1000
0000
0001
0100
0001
0000
1000
0100
,
0010
0000
0001
0100
0000
0000
0001
0000
1000
0000
0100
0010
0100
0000
1000
0001
,
1000
0000
0000
0010
0000
0000
0100
0000
0001
1000
0001
1000
0001
0000
0000
0000
;

//--------------- dance-single - STR XO+ FS SJ RH BU- ----------------
#NOTES:
     dance-single:
     STR XO+ FS SJ RH BU-:
     Challenge:
     17:
     0.608,0.574,0.232,0.249,0.324:
0000
0000
0000
0000
,
0000
0000
0000
0000
,
0000
0000
0000
0000
,
0000
0000
0000
0000
,
0000
0000
0000
0000
0000
0000
0000
0000
1000
0001
1000
0001
1000
0100
0010
0001
,
1000
0010
1000
0001
0010
0001
1000
0100
0010
0001
0010
0100
1000
0001
0100
0001
,
1000
0100
1000
0001
0100
0001
1000
0100
0010
0001
0010
0001
1000
0010
0100
0001
,
1000
0010
1000
0001
0010
0100
1000
0001
1000
0010
0100
0010
1000
0001
0010
0001
,
1000
0100
0010
0001
1000
0010
0100
0001
1000
0000
0001
0100
0001
0000
0100
0010
,
0001
0000
0010
0100
0000
0000
0001
0000
1001
0000
1000
0100
0010
0000
0001
0100
,
1000
0000
0100
0010
0000
0000
0100
0000
0001
1000
0001
1000
0001
0000
0100
0010
,
1000
0000
0010
0100
1000
0000
0100
0000
0010
0000
1000
0001
1000
0000
0001
0100
,
1000
0000
0100
0010
0000
0000
1000
0000
0001
0100
0001
0100
0010
0000
1000
0001
,
0100
0000
0010
1000
0000
0000
0001
0000
1001
0000
1000
0100
0010
0000
0001
0010
,
1000
0000
0010
0100
0000
0000
1000
0000
0001
0100
0001
0100
0001
0000
1000
0010
,
0100
0000
0001
0100
0000
0000
0001
0000
1001
0000
1000
0010
0100
0000
0010
1000
,
0001
0000
0100
0010
1000
0100
0010
0001
0011
0000
0010
0100
0000
0000
1000
0001
,
0000
0000
0100
0001
0100
0000
0010
0000
0010
0000
1000
0001
0100
0000
0100
0010
,
1000
0000
0001
0000
1000
0000
1000
0010
0100
0000
0001
0100
0010
0000
1000
0100
,
1000
0000
0001
0010
0001
0000
0010
0100
1000
0000
0001
0100
0010
0000
1000
0000
,
1010
0000
0110
0000
0100
0000
0001
0000
1001
0000
1000
0100
1000
0000
0001
0010
,
0001
0000
1000
0010
1000
0000
0100
0000
1100
0000
0010
0000
0001
0000
1001
0000
,
1000
0000
1010
0000
0010
0000
0100
0001
0100
0000
0001
0010
0001
0000
1000
0010
,
0100
0000
0001
0100
0010
0000
1000
0010
1000
0000
0001
0100
0001
0000
1000
0010
,
1000
0000
0000
1000
0000
0000
0010
0000
0000
1000
0000
0000
1001
0000
0000
0001
0000
0000
0100
0000
0000
1000
0000
0001
,
1000
0000
0000
0100
0000
0000
0010
0000
0000
1000
0000
0000
0010
0000
0000
0100
0000
0000
1000
0000
0000
0001
0000
1000
,
0001
0000
0000
0000
0000
0000
0100
0000
0000
0001
0000
0000
0100
0000
0000
0010
0000
0000
1000
0000
0000
0010
0000
0000
0100
0000
0000
0000
0000
0000
0001
0000
0000
0000
0000
0000
0100
0000
0000
0000
0000
0000
0001
0000
0000
0000
0100
0000
,
0010
0000
0000
1000
0000
0000
0100
0000
0000
0001
0000
0000
0100
0000
0000
1000
0000
0000
0010
0000
0000
0010
0000
1000
,
0001
0000
0100
0010
0100
0000
0001
1000
0001
0000
0000
0000
0000
0000
0000
0000
,
0000
0000
0000
0000
0000
0000
0000
0000
1000
0100
0010
0001
1000
0010
0100
0001
,
1000
0000
0001
0000
0100
0000
0001
0000
1001
0000
1000
0010
0100
0000
0001
0100
,
1000
0000
0100
0010
0000
0000
1000
0000
1100
0000
0010
0001
1000
0000
0100
0010
,
1000
0000
0010
0100
0000
0000
1000
0000
1010
0000
0010
0100
0001
0000
1000
0100
,
0001
0000
0100
0010
0000
0000
0100
0000
1100
0000
1000
0100
0010
0000
0001
0010
,
1000
0000
0010
0100
1000
0010
1000
0001
1000
0000
0001
0100
0010
0000
0100
0010
,
0001
0000
0010
0100
0001
0010
0001
1000
0100
0000
0010
0001
0010
0000
0001
0100
,
1000
0000
0100
0010
1000
0001
0010
0100
1000
0000
0001
0100
0010
0000
0100
1000
,
0100
0000
0010
1000
0001
0000
1000
0000
1001
0000
0001
0010
0100
0000
1000
0100
,
0001
0000
0100
1000
0001
0000
0100
0000
0001
1000
0001
1000
0010
0000
1000
0100
,
1000
0000
0001
0100
0001
0000
1000
0010
1000
0000
0001
0100
0010
0000
1000
0100
,
0010
0000
0001
0100
0001
0000
0100
0010
1000
0001
1000
0001
0100
0000
0010
1000
,
0001
0000
1000
0100
1000
0000
0001
0100
0010
0000
1000
0001
1000
0000
0001
0100
,
0001
0000
1000
0000
1001
0000
0001
0000
1000
0100
1000
0100
0010
0000
0001
1000
,
0010
0000
1000
0000
1010
0000
0010
1000
0001
0010
0100
1000
0001
0100
0010
1000
,
0001
0000
1001
0000
1001
0000
0010
0000
1000
0001
1000
0001
0100
0000
0001
0010
,
0100
0000
1000
0000
1001
0000
0001
1000
0001
0010
0100
1000
0001
0100
0010
1000
,
0001
0000
0000
0010
0000
0000
0001
0000
0000
1000
0000
0000
0100
0000
0010
0000
0001
0000
1000
0000
0010
0000
1000
0000
0001
0000
0000
0000
0000
0000
1000
0000
0000
0010
0000
0000
0000
0000
0000
0000
0000
0000
0100
0000
0000
0001
0000
0000
,
0000
0000
1000
0001
1000
0100
1000
0001
1000
0000
0001
0100
0010
0000
0110
0000
,
0100
0000
0001
0000
1000
0000
1000
0100
0010
0000
0001
0100
0001
0000
1000
0100
,
0000
0000
0010
0001
1000
0000
0001
0100
0000
0000
0010
1000
0010
0000
1000
0000
,
1010
0000
0110
0000
0100
0000
0001
0000
1001
0000
1000
0100
0100
0000
0001
1000
,
0001
0000
1000
0010
0010
0001
0100
0001
1000
0000
0001
0010
0100
0000
1000
0100
,
0100
0000
0001
0010
0100
0000
1000
0010
0010
0000
0001
0100
0001
0000
1000
0100
,
0100
0000
0001
0100
0010
1000
0001
1000
0100
0000
0010
0001
1000
0000
0001
0100
,
0010
0000
0000
1000
0000
0000
0001
0000
0000
0010
0000
0000
0001
0000
0000
0000
0000
0000
1000
0000
0000
0001
0000
0000
1001
0000
0000
0000
0000
0000
1000
0000
0000
0000
0000
0000
0010
0000
0000
0000
0000
0000
0100
0000
0000
0000
0010
0000
,
1000
0000
0000
1010
0000
0000
0010
0000
0000
0110
0000
0000
0100
0000
0000
0101
0000
0000
0001
0000
0000
0100
0000
0010
,
1000
0000
0000
0000
0000
0000
0001
0000
0000
0010
0000
0000
0100
0000
0000
1000
0000
0000
0001
0000
0000
0100
0000
0000
0001
0000
0000
0000
0000
0000
1000
0000
0000
0000
0000
0000
1100
0000
0000
0000
0000
0000
0100
0000
0000
0000
0010
0000
,
0001
0000
1000
0100
1000
0001
0010
0001
1000
0000
1001
0000
0001
0000
0101
0000
,
0100
0110
0010
1000
1001
0000
0000
0000
,
0000
0000
0000
0000
0000
0000
0000
0000
0001
0010
0100
1000
0001
0100
0010
1000
,
0001
0000
0100
0000
0010
0000
1000
0001
1001
0000
1000
0100
0010
0000
0001
0010
,
1000
0000
0010
0100
0000
0000
1000
0000
1001
0000
0001
0100
0001
0000
1000
0100
,
0001
0000
0100
0010
0000
0000
0001
0000
1001
0000
1000
0010
0100
0000
0001
0100
,
1000
0000
0100
0010
0000
0000
1000
0000
1010
0000
0010
1000
0001
0000
0100
0010
,
0001
0000
0010
0100
0000
0000
0001
0000
1001
0000
1000
0001
0100
0000
0100
0010
,
1000
0000
1000
0100
0010
0000
0001
0000
0101
0000
0100
0010
1000
0000
1000
0100
,
0010
0000
0010
0001
1000
0000
0001
0000
1001
0000
1000
0100
0010
0000
0010
0001
,
1000
0000
1000
0010
0100
0000
0001
0000
1000
0100
1000
0010
0100
0001
0100
0010
,
1000
0100
0010
0001
1000
0001
1000
0010
1000
0001
1000
0001
0010
0000
0000
0000
;

//--------------- dance-double - Catastrophic ----------------
#NOTES:
     dance-double:
     Catastrophic:
     Hard:
     13:
     0,0,0,0,0:
00000000
00000000
00000000
00000000
,
00000000
00000000
00000000
00000000
,
00000000
00000000
00000000
00000000
,
00000000
00000000
00000000
00000000
,
00000000
00000000
00000000
00000000
00000000
00000000
00000000
00000000
00010000
00001000
00010000
00001000
00010000
00000000
00000000
00000000
,
00001000
00000000
00000000
01000000
00000000
00000000
00100000
00000000
01000000
00000000
00100000
00000000
10000000
00000000
01000000
00000000
,
00100000
00000000
00000000
00001000
00000000
00000000
00010000
00000000
00000100
00001000
00000100
00001000
00000100
00000000
00001000
00000000
,
00000010
00000000
00000000
00001000
00000000
00000000
00000100
00000000
00000100
00000000
00001000
00000000
00000100
00000000
00000010
00000000
,
00000001
00000000
00000100
00000000
00000010
00000000
00010000
00000000
00011000
00000000
00000000
00001000
01000000
00000000
00100000
10000000
,
00100000
00000000
00000000
10000000
00000000
00000000
00100000
00000000
01000000
00000000
00001000
00010000
00001000
00000000
00100000
00010000
,
00100000
00000000
00000000
00001000
00000000
00000000
00010000
00000000
00000100
00001000
00000100
00001000
00000100
00000000
00001000
00000000
,
00000001
00000000
00000000
00000100
00000000
00000000
00001000
00000000
00010000
00000000
00001000
00100000
00001000
00000000
00100000
00010000
,
00100000
00000000
00000000
00010000
00000000
00000000
10000000
00000000
00100000
10000000
00100000
10000000
00100000
00000000
01000000
00000000
,
00001000
00000000
00000000
00010000
00000000
00000000
00100000
00000000
00010000
00000000
00001000
00010000
00001000
00000000
00010000
00000100
,
00010000
00000000
00000000
00000100
00000000
00000000
00000010
00000000
00000001
00001000
00000001
00001000
00000001
00000000
00000100
00000000
,
00000010
00000000
00000000
00001000
00000000
00000000
00010000
00000000
00001000
00000000
00000010
00001000
00000010
00000000
00010000
00001000
,
00010000
00000000
00000000
00001000
00000000
00000000
01000000
00000000
10010000
00000000
00010000
10000000
00000000
00000000
00001000
00010000
,
00000000
00000100
00010000
00000010
00000010
00000000
00001000
00001000
,
00000010
00000000
00000100
00000001
00001000
00000100
00000010
00000001
,
00001000
00000010
00000100
00000010
00010000
00000100
00001000
00000010
,
00010000
00000000
00010000
00000000
00000000
00000000
00001000
00000000
00100000
00000000
00010000
10000000
00000000
00000000
00100000
01000000
,
00000000
00000000
00001000
00010000
00000000
00000000
00001000
00000000
00010000
00000000
00001000
00000000
00000000
00000000
00010000
00000000
,
00000000
00000100
00000000
00001000
00000001
00000100
00000010
00000100
,
00000001
00000010
00000100
00001000
00010000
00100000
00001000
00100000
,
00010000
10000000
00000000
00010000
10010000
10000000
00000000
01000000
,
00000000
00010000
00000000
00001000
00000000
00000010
00000000
00000001
,
00001000
00000010
00001000
00000001
00000100
00000000
00000010
00010000
,
00000000
00001000
00000000
01000000
00000000
00100000
00000000
10000000
,
00000000
00010000
00000000
10000000
00010000
00000000
00000000
00000000
,
00000000
00000000
00000000
00000000
10000000
00010000
10000000
00010000
,
00100000
00001000
00010000
00000010
00010010
00010000
00000010
00001000
,
00000010
00000000
00000000
00001000
00000000
00000000
00000001
00000000
00000100
00000000
00000010
00010000
00000010
00000000
00010000
00001000
,
00010000
00000000
00001000
00000000
01000000
00000000
00001000
00000000
00010000
00000000
00001000
00100000
00001000
00000000
00010000
00000000
,
10000000
01000000
00010000
00001000
00010000
00001000
01000000
00010000
,
10000000
00000000
00000000
01000000
00000000
00000000
00010000
00000000
00001000
00000000
00010000
00000000
00000010
00000000
00010000
00000000
,
00010000
00000100
00010000
00010000
00001000
01000000
00100000
00010000
,
00100000
01000000
00010000
10000000
00010000
00100000
00001000
00010000
,
00000010
00000000
00000000
00001000
00000000
00000000
00000010
00000000
00001000
00000000
00000100
00000000
00000001
00000000
00000100
00000000
,
00001000
00000000
00000000
00000010
00000000
00000000
00010000
00000000
00001000
00010000
00001000
00010000
00001000
00000000
01000000
00000000
,
00100000
01000000
00100000
01000000
00010000
00001000
00010000
00000010
,
00000100
00000000
00000010
00000000
00001000
00000000
00000001
00000000
00001000
00000100
00001000
00000100
00001000
00000000
00000010
00000000
,
00000100
00000001
00000010
00000100
00001000
00000100
00010000
00001000
,
00100000
00000000
00010000
00000000
10000000
00000000
00000000
00000000
00010000
10000000
00010000
10000000
00010000
00000000
00000000
00000000
,
00100000
00000000
00001000
00000000
00010000
00000000
00001000
00000000
00010000
00001000
00010000
00000000
00000100
00001000
00000100
00000000
,
00001000
00000000
00000001
00000000
00001001
00000000
00000000
00000000
00001000
00000100
00001000
00000100
00001000
00000000
00000000
00000000
,
00000001
00000000
00000100
00000000
00000010
00000000
00001000
00000000
00000100
00001000
00000100
00000000
00010000
00001000
00010000
00000000
,
00001000
00100000
00001000
00000000
01001000
01000000
00000000
00100000
,
00000000
10000000
00000000
00010000
00100000
00001000
00010000
00000100
,
00001000
00000000
00000001
00001000
00000010
00000100
00000000
00000001
,
00000000
00000100
00001000
00010000
00000000
00100000
10000000
00010000
,
00100000
00100000
00000000
00001000
00010000
00000010
00000000
00000100
,
00000000
00000001
00000000
00001000
00001000
00000000
00000010
00000010
,
00000000
00100000
00000000
00001000
00000000
01000000
00000000
00010000
,
01000000
00100000
00000000
10000000
00000000
00010000
00000000
10000000
,
00000000
00010000
00000000
10000000
10010000
00010000
01000000
00100000
,
01000000
00001000
00010000
00001000
00000100
00001000
00010000
00000100
,
00001000
00000000
00000001
00001000
00000100
00000000
00010000
00001000
,
00000000
00100000
00000000
00010000
00000000
10000000
00000000
00001000
,
00000000
00010000
00000000
00000010
00010000
00000000
00000000
00000000
,
00000000
00000000
00000000
00000000
00001000
00010000
00001000
00010000
,
00001000
01000000
00100000
10000000
10010000
00010000
01000000
10000000
,
01000000
00000000
00000000
00010000
00000000
00000000
00100000
00000000
00001000
00000000
00010000
00000000
00100000
00000000
00010000
00000000
,
00001000
00000000
00000000
00010000
00000000
00000000
00000010
00000000
00001000
00000000
00000100
00000000
00000001
00000000
00000100
00000000
,
00001000
00000100
00010000
00001000
00000100
00001000
00010000
00000100
,
00010000
00000000
00000000
00001000
00000000
00000000
01000000
00000000
00010000
00000000
01000000
00000000
10000000
00000000
01000000
00000000
,
00100000
00000000
00000000
10000000
00000000
00000000
00100000
00000000
00010000
00000000
00001000
00000000
00010000
00000000
00000100
00000000
,
00001000
00000100
00000010
00000001
00001000
00000010
00000100
00000010
,
00100000
00000000
00000000
00001000
00000000
00000000
01000000
00000000
00100000
00000000
10000000
00000000
01000000
00000000
00100000
00000000
,
00001000
00000000
00000000
00010000
00000000
00000000
00001000
00000000
10000000
00010000
10000000
00010000
10000000
00000000
00000000
00000000
;
