#TITLE:Nasty;
#SUBTITLE:;
#ARTIST:Tinashe;
#TITLETRANSLIT:;
#SUBTITLETRANSLIT:;
#ARTISTTRANSLIT:;
#GENRE:;
#CREDIT:;
#MUSIC:Nasty-Edit.ogg;
#BANNER:nasty-banner.png;
#BACKGROUND:nasty-bg.png;
#CDTITLE:;
#SAMPLESTART:0.000;
#SAMPLELENGTH:0.000;
#SELECTABLE:YES;
#OFFSET:-0.019;
#BPMS:0.000=100.008;
#STOPS:;
#BGCHANGES:;
#FGCHANGES:;

//--------------- dance-single - Evergreen ----------------
#NOTES:
     dance-single:
     Evergreen:
     Hard:
     12:
     0,0,0,0,0:
0000
0000
0000
0000
,
0000
0000
0000
0000
,
0000
0000
0000
0000
,
0000
0000
0000
0000
,
1000
0000
0000
0010
0000
0000
0100
0000
0001
0000
0010
0000
0100
0000
0100
0000
,
1000
0000
0000
0100
0000
0000
0010
0000
0001
0000
0100
0000
0010
0000
0010
0000
,
1000
0000
0000
0001
0000
0000
0100
0000
0001
0000
1000
0000
0100
0000
0100
0000
,
1000
0001
0100
0100
0010
0010
1000
1000
,
0001
0000
1000
0100
1000
0000
0001
0100
0001
0000
2000
0000
3001
0000
0010
0000
,
0001
0000
1000
0010
1000
0000
0001
0010
0001
0000
2000
0000
3001
0000
0100
0000
,
0010
0000
1000
0100
0010
0000
0001
0100
0010
0000
2000
0000
0010
0000
3010
0000
,
1000
0000
0001
0010
0001
1000
0010
0000
0100
0001
1000
0100
0010
0000
0001
0000
,
0011
0000
0010
0001
0010
0000
0100
1000
0100
0000
2000
0000
0010
0000
0001
0000
,
3010
0000
1000
0010
1000
0000
0001
0100
0001
0000
0020
0000
0001
0000
0100
0000
,
0031
0000
1000
0001
0010
0000
0001
1000
0010
0000
0100
0000
0001
0000
0001
0000
,
1000
0100
1000
0100
0010
0001
0010
0000
0001
0000
1000
0010
1000
0000
0001
0000
,
0100
0000
0010
0100
0001
0000
1000
0000
0100
0000
0020
0000
0001
0000
0030
0000
,
0010
0000
0100
0000
1000
0001
1000
0000
0010
0000
0100
0000
0001
0000
1000
0000
,
0100
0000
0010
0100
1000
0000
0001
0000
0100
0000
0020
0000
1000
0000
0030
0000
,
0010
0000
0100
0000
0001
1000
0001
0000
0010
0000
0100
0000
1000
0000
0100
0000
,
0010
0000
0001
0010
0001
0000
1000
0000
0010
0000
0100
0000
0001
0000
0100
0000
,
0010
0000
1000
0001
0010
0000
0100
0000
1000
0000
0001
0000
0010
0000
0001
0000
,
0100
0000
0010
0100
0001
0000
1000
0000
0001
0000
0010
0000
0100
0000
1000
0000
,
0010
0000
0100
0010
1000
0000
0001
0000
0010
0000
0000
0000
1000
0000
0001
0000
,
0010
0000
0001
0010
0001
0000
1000
0000
0020
0000
0000
0000
0100
0000
0130
0000
,
0001
0000
1000
0010
1000
0000
0001
0000
0020
0000
0000
0000
0100
0000
0130
0000
,
1000
0000
0001
0100
0010
0000
0100
0000
0002
0000
0000
0000
1000
0000
1003
0000
,
0010
0000
1000
0100
2000
0000
3001
0000
2000
0000
3010
0000
2000
0000
3001
0000
,
0100
0000
0001
0100
0001
0000
1000
0000
0200
0000
0000
0000
0010
0000
0310
0000
,
0001
0000
1000
0100
1000
0000
0001
0000
0200
0000
0000
0000
0010
0000
0310
0000
,
1000
0000
0001
0010
0100
0000
0010
0000
0002
0000
0000
0000
1000
0000
1003
0000
,
0100
0000
1000
0010
2000
0000
3001
0000
2000
0000
3100
0000
2000
0000
3001
0000
,
1000
0000
0010
0000
0000
0000
1000
0000
0010
0000
0100
0001
0010
0000
0010
0000
,
0001
1000
0010
1000
0001
0000
1000
0000
0010
0000
0100
0001
0010
0000
0010
0000
,
0001
0000
0100
0010
0100
0000
0001
0000
1000
0000
0100
1000
0010
0000
0010
0000
,
0100
0000
0001
0100
0001
0000
1000
0100
1000
0001
0010
0001
1000
0000
0010
0100
,
0001
0000
0010
0000
0000
0000
0001
0000
0010
0000
0100
1000
0010
0000
0010
0000
,
1000
0001
0010
0001
1000
0000
0001
0000
0010
0000
0100
1000
0010
0000
0010
0000
,
1000
0000
0100
0010
0100
0000
1000
0000
0001
0000
0100
0001
0010
0000
0010
0000
,
0100
0000
1000
0100
1000
0001
0100
0001
1000
0000
0000
0000
0001
0000
1000
0000
,
0100
0000
0010
0100
1000
0000
0001
0000
0100
0000
0020
0000
1000
0000
0030
0000
,
0010
0000
0100
0000
0001
1000
0001
0000
0010
0000
0100
0000
1000
0000
0001
0000
,
0100
0000
0010
0100
0001
0000
1000
0000
0100
0000
0020
0000
0001
0000
0030
0000
,
0010
0000
0100
0000
1000
0001
1000
0000
0010
0000
0100
0000
0001
0000
0100
0000
,
0010
0000
1000
0010
1000
0000
0001
0000
0010
0000
0100
0000
1000
0000
0100
0000
,
0010
0000
0001
1000
0010
0000
0100
0000
0001
0000
1000
0000
0010
0000
1000
0000
,
0100
0000
0010
0100
1000
0000
0001
0000
1000
0000
0010
0000
0100
0000
0001
0000
,
0010
0000
0100
0010
0001
0000
1000
0000
0010
0000
0000
0000
0001
0000
1000
0000
,
0010
0000
1000
0010
1000
0000
0020
0000
0000
0000
1030
0000
0001
0000
1000
0000
,
0100
0000
0010
0001
1000
0000
1000
0000
0001
0000
0001
0000
1000
0000
1000
0000
,
0001
0000
1000
0100
1000
0000
0020
0000
0000
0000
0130
0000
0001
0000
1000
0000
,
0100
0000
0010
0001
1000
0000
1000
0000
0001
0000
0001
0000
1000
0100
1000
0000
,
0001
0000
0100
0001
0100
0000
0020
0000
0000
0000
0130
0000
0001
0000
1000
0000
,
0100
0000
0010
0001
0010
0000
0010
0000
0100
0000
0100
0000
0010
0000
0010
0000
,
0001
0000
1000
0100
1000
0000
0020
0000
0000
0000
1030
0000
0010
0000
1000
0000
,
0001
0000
0010
0001
0100
0000
0100
0000
0010
0000
0010
0000
0100
0000
0100
0000
;

//--------------- dance-single - Evergreen ----------------
#NOTES:
     dance-single:
     Evergreen:
     Challenge:
     14:
     0,0,0,0,0:
0000
0000
0000
0000
,
0000
0000
0000
0000
,
0000
0000
0000
0000
,
0000
0000
0000
0000
,
1000
0000
0000
0001
0000
0000
0010
0000
0001
0000
1000
0000
0100
M00M
0100
0000
,
0001
0000
0000
1000
0000
0000
0010
0000
1000
0000
0001
0000
0100
M00M
0100
0000
,
1000
0000
0000
0001
0000
0000
0100
0000
0001
0000
1000
0000
0100
M00M
0100
0000
,
0001
0000
1000
0001
2000
0000
0010
0000
3002
0000
0010
0000
1003
0000
0100
0000
,
1000
0000
0001
1000
0100
0100
0001
1000
0100
0000
0020
0000
1030
0000
0010
0000
,
0001
0000
1000
0001
0100
0100
1000
0001
0100
0000
0020
0000
0031
0000
0010
0000
,
1000
0000
0001
1000
0010
0010
0001
1000
0001
0000
0200
0000
0010
0000
0301
0000
,
1000
0000
0001
0010
0001
1000
0010
0000
0100
0001
1000
0100
0010
0000
0001
0000
,
0011
0000
0010
0001
0100
0100
1000
0001
0100
0000
0020
0000
0031
0000
0010
0000
,
1000
0000
0001
1000
0100
0100
0001
1000
0100
0000
0020
0000
1030
0000
0010
0000
,
0001
0000
1000
0001
0010
0010
1000
0001
1000
0000
0200
0000
0010
0000
1300
0000
,
0001
1000
0100
0100
0001
1000
0010
0000
1000
0000
0001
0010
0001
0000
1000
0000
,
0001
0000
0010
0100
1000
0000
0001
0000
0100
0000
0020
0000
1000
0000
0130
0000
,
0001
0000
1000
0100
1000
0000
0100
0000
1100
0000
0000
0000
1000
0000
0001
0000
,
1000
0000
0010
0100
0001
0000
1000
0000
0100
0000
0020
0000
0001
0000
0130
0000
,
1000
0000
0001
0100
0001
0000
0100
0000
0101
0000
0000
0000
0001
0000
0010
0000
,
0011
0000
0001
1000
0010
0000
1000
0000
1010
0000
0101
0000
0001
0000
0010
0000
,
0011
0000
0010
0100
2000
0000
0010
0000
3001
0000
1000
0000
0001
0000
0010
0000
,
0011
0000
0001
0010
0100
0000
1000
0000
0100
0000
0020
0000
0001
0000
0130
0000
,
1000
0000
0001
0100
0001
0000
1000
0000
0100
0000
1000
0000
0001
0000
0100
0000
,
0010
0000
1000
0001
0020
0000
0100
0000
0002
0030
1000
0000
0013
0000
0001
0000
,
0010
0000
0001
1000
0020
0000
0100
0000
2000
0030
0001
0000
3010
0000
1000
0000
,
0001
0000
1000
0001
0200
0000
0010
0000
0002
0300
1000
0000
0103
0000
0001
0000
,
0010
0000
0001
1000
0200
0000
0310
0000
0200
0000
1300
0000
0002
0000
1003
0000
,
0010
0000
1000
0001
0020
0000
0100
0000
0031
0000
1000
0000
0100
M00M
0100
0000
,
0010
0000
1000
0001
0200
0000
0010
0000
0301
0000
1000
0000
0100
M00M
0100
0000
,
0010
0000
1000
0001
2000
0000
0100
0000
3001
0000
1000
0001
0100
M00M
0100
0000
,
0010
0000
0001
1000
0020
0000
0130
0000
0020
0000
1030
0000
0002
0000
1003
0000
,
0001
0000
0100
0000
0000
0000
0001
0000
0010
0000
0100
1000
0010
M00M
0010
0000
,
0001
1000
0100
1000
0001
0000
0100
0000
0010
0000
1000
0001
0010
M00M
0010
0000
,
1000
0000
0100
1000
0100
0000
0010
0000
0001
0000
0010
0001
0100
M00M
0100
0000
,
1000
0000
0010
1000
0010
1000
0001
0000
1000
0001
0010
M00M
0010
1000
0001
0000
,
1000
0000
0001
0010
0100
0000
1000
0000
0010
1000
0001
1000
0010
M00M
0010
0000
,
0001
0000
1000
0010
0100
0000
0001
0000
0010
0100
1000
0001
0010
M00M
0010
0000
,
1000
0000
0001
1000
0001
0000
1000
0000
0100
0010
0001
1000
0100
M00M
0100
0001
,
0010
M00M
0010
1000
0001
0100
0100
1000
0001
0000
1000
0001
1000
0000
0001
0000
,
1000
0000
0010
0100
0001
0000
1000
0000
0100
0000
0020
0000
0001
0000
0130
0000
,
1000
0000
0001
0100
0001
0000
0100
0000
0101
0000
0000
0000
0001
0000
1000
0000
,
0001
0000
0010
0100
1000
0000
0001
0000
0100
0000
0020
0000
1000
0000
0130
0000
,
0001
0000
1000
0100
1000
0000
0100
0000
1100
0000
0000
0000
1000
0000
0010
0000
,
1010
0000
1000
0001
0010
0000
0001
0000
0011
0000
1100
0000
1000
0000
0010
0000
,
1010
0000
0010
0100
0002
0000
0010
0000
1003
0000
0001
0000
1000
0000
0010
0000
,
1010
0000
1000
0010
0100
0000
0001
0000
0100
0000
0020
0000
1000
0000
0130
0000
,
0001
0000
1000
0100
1000
0000
0001
0000
0100
0000
0001
0000
1000
0000
0100
0000
,
0010
0000
0001
0010
0001
0000
0020
0000
0000
0000
0031
0000
1000
0000
0001
0000
,
0100
0000
0010
1000
0002
0000
0010
0000
2003
0000
0010
0000
3002
0000
0010
0000
,
1003
0000
0001
0100
0001
0000
0020
0000
0000
0000
0130
0000
1000
0000
0001
0000
,
0100
0000
0010
1000
0002
0000
0100
0000
2003
0000
0100
0000
3001
0100
0100
0000
,
1000
0000
0100
1000
0100
0000
0020
0000
0000
0000
0130
0000
1000
0000
0001
0000
,
0100
0000
0010
1000
0002
0000
0010
0000
2003
0000
0010
0000
3002
0000
0010
0000
,
1003
0000
0001
0100
0001
0000
0020
0000
0000
0000
0031
0000
0010
0000
0001
0000
,
1000
0000
0010
1000
0002
0000
0100
0000
2003
0000
0100
0000
3001
0000
1000
0000
;
