#VERSION:0.83;
#TITLE:Narcissus;
#SUBTITLE:;
#ARTIST:Vylet Pony;
#TITLETRANSLIT:;
#SUBTITLETRANSLIT:;
#ARTISTTRANSLIT:;
#GENRE:;
#CREDIT:D0omsday;
#MUSIC:Narcissus.ogg;
#BANNER:;
#BACKGROUND:;
#JACKET:;
#DISCIMAGE:;
#CDIMAGE:;
#SELECTABLE:YES;
#LYRICSPATH:;
#CDTITLE:;
#SAMPLESTART:44.392;
#SAMPLELENGTH:22.197;
#OFFSET:0.000;
#BPMS:0.000=173.000;
#STOPS:;
#WARPS:;
#DELAYS:;
#SPEEDS:0.000=0.500=0.000=0,
29.250=1.000=2.750=0,
120.000=0.500=2.000=0,
122.000=1.000=4.000=0,
184.000=0.600=6.000=0,
191.000=1.000=1.000=0
;
#SCROLLS:0.000=1.000,
28.000=0.000,
29.250=0.250,
30.125=0.500,
31.000=0.750,
32.000=1.000,
120.000=0.750,
126.000=0.000,
127.000=1.000,
254.000=0.000,
255.000=1.000
;
#TICKCOUNTS:;
#TIMESIGNATURES:;
#LABELS:;
#COMBOS:;
#FAKES:;
#BGCHANGES:;
#FGCHANGES:;
#ATTACKS:;

//---------------dance-single - ---------------
#NOTEDATA:;
#CHARTNAME:;
#CHARTSTYLE:;
#CREDIT:;
#STEPSTYPE:dance-single;
#DESCRIPTION:;
#DIFFICULTY:Medium;
#METER:9;
#METERF:9;
#RADARVALUES:0,0,0,0,0;
#NOTES:
// measure 0
0000
0000
0000
0000
,  // measure 1
0000
0000
0000
0000
,  // measure 2
0000
0000
0000
0000
,  // measure 3
0000
0000
0000
0000
,  // measure 4
0000
0000
0000
0000
,  // measure 5
0000
0000
0000
0000
,  // measure 6
0000
0000
0000
0000
,  // measure 7
0000
0000
0000
0000
,  // measure 8
1000
0000
0000
0000
0020
0030
0000
0000
0000
0000
0000
0000
1000
0000
0000
0000
,  // measure 9
0200
0000
0000
0000
0310
0000
0000
0000
0000
0000
0000
0000
0002
0003
0000
0000
,  // measure 10
0100
0010
0100
0000
0001
0000
0010
0000
,  // measure 11
0100
0000
0000
0000
1000
0001
1000
0000
,  // measure 12
0001
0000
0000
0000
0200
0300
0000
0000
0000
0000
0000
0000
0001
0000
0000
0000
,  // measure 13
0020
0000
0000
0000
0130
0000
0000
0000
0000
0000
0000
0000
2000
3000
0000
0000
,  // measure 14
0010
0100
0010
0000
1000
0000
0100
0000
,  // measure 15
0010
0000
0000
0000
0001
0000
1000
0010
,  // measure 16
1000
0000
0000
0000
,  // measure 17
0000
0110
2002
3003
,  // measure 18
0001
0000
0010
0001
0010
0000
0100
0000
,  // measure 19
1000
0010
0000
0000
,  // measure 20
1000
0000
0000
0001
0010
0000
0001
0000
,  // measure 21
0100
0010
1000
0000
,  // measure 22
0100
0100
0010
0010
,  // measure 23
0000
0000
0001
1000
,  // measure 24
0000
0000
0000
0010
,  // measure 25
0200
0000
0301
0000
1000
0100
1000
0000
,  // measure 26
0001
0000
0100
0010
,  // measure 27
1000
1000
0001
0001
,  // measure 28
0010
0001
0000
0100
,  // measure 29
0020
0000
1030
0000
0001
0010
0001
0000
,  // measure 30
2002
0000
3003
0000
,  // measure 31
0000
0000
0110
0000
,  // measure 32
1000
1000
0001
0010
,  // measure 33
0001
0100
0010
0100
,  // measure 34
0001
0001
0010
0100
,  // measure 35
1000
0010
1000
0001
,  // measure 36
0010
0010
0100
1000
,  // measure 37
0001
0100
0010
1000
,  // measure 38
0100
0100
1000
0001
,  // measure 39
0100
0001
1000
0100
,  // measure 40
0010
0010
0001
0100
,  // measure 41
0010
0001
0010
0100
,  // measure 42
0001
0001
0010
0100
,  // measure 43
0010
1000
0010
0100
,  // measure 44
1000
1000
0001
0010
,  // measure 45
0100
0001
0100
0010
,  // measure 46
0001
0001
0100
0010
,  // measure 47
0100
1000
0200
0300
,  // measure 48
0110
0010
1000
0000
,  // measure 49
1000
0000
0100
0000
0010
0000
0001
1000
,  // measure 50
0001
0010
0100
0000
,  // measure 51
0100
0000
0010
0000
0001
0000
1000
0001
,  // measure 52
1000
0010
0100
0000
,  // measure 53
0100
0000
0001
0000
0010
0000
0100
0010
,  // measure 54
0100
1000
0001
0000
,  // measure 55
0001
0000
0010
0000
0001
0000
1000
0010
,  // measure 56
1000
0010
0100
1000
,  // measure 57
0100
0000
0010
0000
1000
0000
0001
0010
,  // measure 58
0001
0100
0010
0001
,  // measure 59
0010
0000
0100
0000
0001
0000
0010
0100
,  // measure 60
0010
0001
0010
1000
,  // measure 61
0010
0000
0100
0000
1000
0000
0001
1000
,  // measure 62
0001
0001
0100
0100
,  // measure 63
0020
0000
0030
0000
,  // measure 64
1001
1000
0100
0010
,  // measure 65
1000
0010
0100
1000
,  // measure 66
1001
0001
0100
0010
,  // measure 67
0001
0010
1000
0100
,  // measure 68
0110
0010
0001
0100
,  // measure 69
1000
0100
0010
1000
,  // measure 70
1001
0001
0010
0100
,  // measure 71
0001
0100
0010
0001
,  // measure 72
1001
1000
0010
0001
,  // measure 73
0010
0100
0001
0010
,  // measure 74
0110
0100
0001
0100
,  // measure 75
1000
0010
0100
0001
,  // measure 76
1001
1000
0010
0001
,  // measure 77
0010
1000
0100
0010
,  // measure 78
0110
0100
1000
0010
,  // measure 79
0100
0000
1000
0000
0100
0000
0001
0001
;

//---------------dance-single - ---------------
#NOTEDATA:;
#CHARTNAME:;
#CHARTSTYLE:;
#CREDIT:;
#STEPSTYPE:dance-single;
#DESCRIPTION:;
#DIFFICULTY:Hard;
#METER:11;
#METERF:11;
#RADARVALUES:0,0,0,0,0;
#NOTES:
// measure 0
0000
0000
0000
0000
,  // measure 1
0000
0000
0000
0000
,  // measure 2
0000
0000
0000
0000
,  // measure 3
0000
0000
0000
0000
,  // measure 4
0000
0000
0000
0000
,  // measure 5
0000
0000
0000
0000
,  // measure 6
0000
0000
0000
0000
,  // measure 7
0000
0000
0000
0000
,  // measure 8
1000
0000
0000
0000
0020
0030
0000
0000
0110
0000
0000
0000
0100
0000
0000
0000
,  // measure 9
2000
0000
0000
0000
3100
0000
0000
0000
0001
0000
0000
0000
0020
0030
0000
0000
,  // measure 10
0100
1000
0001
0100
0010
0000
1000
0000
,  // measure 11
0001
0010
0001
0000
1000
0010
1000
0000
,  // measure 12
0001
0000
0000
0000
0200
0300
0000
0000
0110
0000
0000
0000
0010
0000
0000
0000
,  // measure 13
0002
0000
0000
0000
0013
0000
0000
0000
1000
0000
0000
0000
0200
0300
0000
0000
,  // measure 14
0010
0001
1000
0010
0100
0000
0001
0000
,  // measure 15
1000
0100
1000
0000
0001
0000
0010
0100
,  // measure 16
0010
0001
0100
0010
,  // measure 17
1000
1010
0202
0303
,  // measure 18
0001
0010
0100
0010
0001
0000
1000
0000
,  // measure 19
0010
0100
1000
0000
,  // measure 20
0100
0000
0010
1000
0001
0000
0010
0100
,  // measure 21
1000
0100
0001
0000
,  // measure 22
0100
0000
0010
0001
1000
0000
0010
0000
,  // measure 23
0100
0000
1000
0100
,  // measure 24
0001
0000
0000
0000
0020
0030
0000
0000
0110
0000
0000
0000
0100
0000
0000
0000
,  // measure 25
0002
0000
0000
0000
0103
0000
0000
0000
1000
0000
0000
0000
0020
0030
0000
0000
,  // measure 26
0100
0001
1000
0100
0010
0000
0001
0000
,  // measure 27
0100
0010
0100
0000
0010
1000
0010
0000
,  // measure 28
0100
0000
0000
0000
0002
0003
0000
0000
0011
0000
0000
0000
0010
0000
0000
0000
,  // measure 29
2000
3010
0100
0001
,  // measure 30
0200
0000
0310
0000
,  // measure 31
0000
0000
1001
0000
,  // measure 32
1010
0000
1010
0000
0010
0100
0010
0000
,  // measure 33
1000
0100
0010
0000
,  // measure 34
0011
0000
0011
0000
0010
0100
0010
0000
,  // measure 35
0001
0000
0100
0001
1000
0000
0100
0000
,  // measure 36
0110
0000
0110
0000
0100
1000
0100
0000
,  // measure 37
0010
0001
0100
0000
,  // measure 38
0101
0000
0101
0000
0100
0010
0100
0000
,  // measure 39
0001
0000
1000
0100
0010
0000
0001
0000
,  // measure 40
1001
0000
1001
0000
1000
0010
0100
0000
,  // measure 41
0001
1000
0100
0000
0010
0000
0000
0000
,  // measure 42
0011
0000
0011
0000
0001
0100
0010
0100
,  // measure 43
0001
0000
1000
0100
0010
0000
0001
0000
,  // measure 44
0101
0000
0101
0000
0100
0010
1000
0000
,  // measure 45
0001
0010
0100
0000
1000
0000
0000
0000
,  // measure 46
1010
1010
0010
0100
,  // measure 47
0001
1000
0100
0010
0002
0000
0003
0000
,  // measure 48
1100
0000
0001
0000
0100
0000
0010
0001
,  // measure 49
0010
1000
0100
0010
,  // measure 50
0011
0000
1000
0000
0010
0000
0100
1000
,  // measure 51
0100
0010
1000
0100
,  // measure 52
0110
0000
0001
0000
0010
0000
0100
0001
,  // measure 53
0100
0010
0001
1000
,  // measure 54
1010
0000
1000
0000
0001
0000
0010
1000
,  // measure 55
0010
0001
0100
0010
,  // measure 56
1001
0000
0001
0000
0010
0100
0001
0100
,  // measure 57
0010
0001
1000
0010
,  // measure 58
0101
0000
0100
0000
0010
0001
0010
0100
,  // measure 59
0001
1000
0001
0010
,  // measure 60
1100
0000
0100
0000
1000
0010
0100
1000
,  // measure 61
0100
0010
1000
0001
,  // measure 62
0011
0010
0110
0100
,  // measure 63
1000
0001
1000
0001
1000
0001
0000
0000
0000
0000
0000
0000
,  // measure 64
1010
0000
0001
0010
0001
0100
0010
0100
,  // measure 65
1000
0100
0010
1000
0001
0010
0100
0000
,  // measure 66
0110
0000
1000
0001
0100
0010
1000
0100
,  // measure 67
0001
0100
0010
0100
1000
0010
0100
0000
,  // measure 68
1001
0000
0001
0100
0010
1000
0100
0010
,  // measure 69
1000
0010
0100
1000
0001
0100
0010
0000
,  // measure 70
0110
0000
1000
0001
0010
0100
1000
0100
,  // measure 71
0001
0100
0010
0001
1000
0010
0100
0000
,  // measure 72
1001
0000
1000
0100
0010
1000
0010
0100
,  // measure 73
1000
0010
0100
1000
0100
0010
1000
0000
,  // measure 74
0101
0000
0001
0010
0100
0001
0100
0010
,  // measure 75
0001
0100
0010
0001
0010
0100
0001
0000
,  // measure 76
1100
0000
1000
0100
0001
0100
1000
0001
,  // measure 77
0100
1000
0100
0001
1000
0100
0010
0000
,  // measure 78
0101
0000
0001
1000
0010
0001
0010
1000
,  // measure 79
0001
0010
1000
0010
0001
1000
0010
0010
;

//---------------dance-single - ---------------
#NOTEDATA:;
#CHARTNAME:;
#CHARTSTYLE:;
#CREDIT:D0omsday;
#STEPSTYPE:dance-single;
#DESCRIPTION:;
#DIFFICULTY:Challenge;
#METER:14;
#METERF:14;
#RADARVALUES:0,0,0,0,0;
#NOTES:
// measure 0
0000
0000
0000
0000
,  // measure 1
0000
0000
0000
0000
,  // measure 2
0000
0000
0000
0000
,  // measure 3
0000
0000
0000
0000
,  // measure 4
0000
0000
0000
0000
,  // measure 5
0000
0000
0000
0000
,  // measure 6
0000
0000
0000
0000
,  // measure 7
0000
0000
0000
0000
,  // measure 8
1000
0000
0000
0000
0000
0000
0000
0000
0001
0100
0001
0000
0000
0000
0000
0000
1000
0000
0000
0000
0100
0000
0000
0000
0010
0001
0000
0000
0000
0000
0000
0000
,  // measure 9
1000
0020
0000
0000
0000
0000
0000
0000
0031
0000
0000
0000
0000
0000
0000
0000
0010
0000
0000
0000
0000
0000
0000
0000
1000
0001
1000
0000
0000
0000
0000
0000
,  // measure 10
0100
0000
0010
0000
0001
0000
0100
0000
0010
0000
0000
0000
1000
0001
0000
0000
,  // measure 11
0010
0000
0100
0000
1000
0001
1000
0000
0010
0000
0100
0000
1000
0100
0000
0000
,  // measure 12
0001
0000
0000
0000
0000
0000
0000
0000
1000
0100
1000
0000
0000
0000
0000
0000
0001
0000
0000
0000
0100
0000
0000
0000
0010
1000
0000
0000
0000
0000
0000
0000
,  // measure 13
0001
0020
0000
0000
0000
0000
0000
0000
1030
0000
0000
0000
0000
0000
0000
0000
0010
0000
0000
0000
0000
0000
0000
0000
0001
1000
0001
0000
0000
0000
0000
0000
,  // measure 14
0100
0000
0010
0000
1000
0000
0100
0000
0010
0000
0000
0000
0001
1000
0000
0000
,  // measure 15
0010
0000
0100
0000
0001
1000
0001
0000
0010
0000
0000
0000
0100
0000
0100
0000
,  // measure 16
0100
0000
0000
0000
1000
0000
0001
0000
0000
0100
0000
0000
0010
0000
0000
0001
0000
0000
0010
0000
0000
0000
0000
0000
,  // measure 17
1000
1010
2200
3300
,  // measure 18
0010
0001
1000
0001
0100
0000
0010
0000
,  // measure 19
1100
0000
0011
0000
1000
0001
0000
0000
,  // measure 20
1000
0000
0000
0000
0000
0000
0000
0000
0001
0010
0001
0000
0000
0000
0000
0000
0100
0000
0000
0000
0010
0000
0000
0000
0100
0000
0000
0000
0001
0000
0000
0000
,  // measure 21
0010
0000
0100
0000
0001
0100
0000
0000
,  // measure 22
1000
0001
0100
0010
0001
0000
0010
0000
,  // measure 23
1000
0000
1000
0000
0001
0100
1000
0000
,  // measure 24
0100
0000
0000
0000
0000
0000
0000
0000
0010
1000
0010
0000
0000
0000
0000
0000
0100
0000
0000
0000
0001
0000
0000
0000
1000
0100
0000
0000
0000
0000
0000
0000
,  // measure 25
0010
0002
0000
0000
0000
0000
0000
0000
1003
0000
0000
0000
0000
0000
0000
0000
0010
0000
0000
0000
0000
0000
0000
0000
0100
0001
0100
0000
0000
0000
0000
0000
,  // measure 26
0010
0000
1000
0000
0100
0000
0010
0000
1000
0000
0010
0000
0100
1000
0000
0000
,  // measure 27
0010
0000
0001
0000
0010
0000
1000
0100
,  // measure 28
0010
0000
0000
0000
0000
0000
0000
0000
0001
1000
0001
0000
0000
0000
0000
0000
0100
0000
0000
0000
0000
0000
0000
0000
0010
1000
0000
0000
0000
0000
0000
0000
,  // measure 29
0001
0020
0000
0000
0000
0000
0000
0000
0130
0000
0000
0000
0000
0000
0000
0000
1000
0000
0000
0000
0100
0000
0000
0000
0001
0000
0000
0000
0000
0000
0000
0000
,  // measure 30
0120
0000
0031
0000
,  // measure 31
0000
0000
1001
0000
,  // measure 32
1010
0000
0000
0000
0000
0000
0000
0000
0010
1000
0010
0000
0000
0000
0000
0000
1000
0000
0000
0000
0001
0000
0000
0000
0010
0000
0000
0000
1000
0000
0000
0000
,  // measure 33
0010
0000
0100
0000
1000
0010
0100
0000
,  // measure 34
0101
0000
0000
0000
0000
0000
0000
0000
0100
0001
0100
0000
0000
0000
0000
0000
0010
0000
0000
0000
1000
0000
0000
0000
0100
0000
0000
0000
0001
0000
0000
0000
,  // measure 35
0100
0000
0000
0000
0010
0000
0001
1000
0001
0000
0010
0000
0100
0000
0000
0000
,  // measure 36
1100
0000
0000
0000
0000
0000
0000
0000
0100
1000
0100
0000
0000
0000
0000
0000
0010
0000
0000
0000
0001
0000
0000
0000
0100
0000
0000
0000
0000
0000
0000
0000
,  // measure 37
1000
0000
0100
0000
0010
1000
0001
0000
,  // measure 38
0011
0000
0000
0000
0000
0000
0000
0000
0010
0001
0010
0000
0000
0000
0000
0000
0100
0000
0000
0000
0001
0000
0000
0000
0100
0000
0000
0000
1000
0000
0001
0000
,  // measure 39
1000
0000
0000
0000
0010
0000
0100
0001
0100
0000
0010
0000
1000
0000
0000
0000
,  // measure 40
1100
0000
0000
0000
0000
0000
0000
0000
1000
0100
1000
0000
0000
0000
0000
0000
0100
0000
0000
0000
0010
0000
0000
0000
1000
0000
0000
0000
0010
0000
0000
0000
,  // measure 41
0001
0000
1000
0000
0010
0100
0001
0000
,  // measure 42
0101
0000
0000
0000
0000
0000
0000
0000
0001
0100
0001
0000
0000
0000
0000
0000
0010
0000
0000
0000
0100
0000
0000
0000
0010
0000
0000
0000
1000
0000
0000
0000
,  // measure 43
0010
0000
0000
0000
0001
0000
1000
0010
1000
0000
0100
0000
0010
0000
0001
0000
,  // measure 44
0011
0000
0000
0000
0000
0000
0000
0000
0010
0001
0010
0000
0000
0000
0000
0000
0100
0000
0000
0000
1000
0000
0000
0000
0010
0000
0000
0000
0000
0000
0000
0000
,  // measure 45
0001
0000
0010
0000
1000
0001
0010
0100
,  // measure 46
1100
0000
1000
0001
0100
0000
0010
0000
,  // measure 47
0001
0010
0100
0010
2000
0000
3000
0000
,  // measure 48
1001
0000
0000
0000
0000
0000
0000
0000
0001
0010
0001
0000
0000
0000
0000
0000
1000
0000
0000
0000
0010
0000
0000
0000
0100
0000
0000
0000
0000
0000
0000
0000
,  // measure 49
1000
0000
0000
0000
0100
0000
0000
0000
0001
0000
0010
0000
0100
0000
1000
0100
,  // measure 50
1000
0000
0000
0000
0000
0000
0000
0000
0001
0100
0001
0000
0000
0000
0000
0000
0010
0000
0000
0000
0000
0000
0000
0000
1000
0000
0000
0000
0010
0000
0000
0000
,  // measure 51
0100
0000
0000
0000
1000
0000
0000
0000
0001
0000
0100
0000
0010
0000
1000
0001
,  // measure 52
1000
0000
0000
0000
0000
0000
0000
0000
0100
0010
0100
0000
0000
0000
0000
0000
1000
0000
0000
0000
0001
0000
0000
0000
0100
0000
0000
0000
0010
0000
0000
0000
,  // measure 53
0001
0000
0000
0000
0010
0000
0000
0000
1000
0000
0100
0000
0010
0000
0001
0100
,  // measure 54
0001
0000
0000
0000
0000
0000
0000
0000
1000
0100
1000
0000
0000
0000
0000
0000
0001
0000
0000
0000
0000
0000
0000
0000
0010
0000
0000
0000
0100
0000
0000
0000
,  // measure 55
0001
0000
0000
0000
0100
0000
0010
0001
0010
0000
0001
0000
0100
0000
0010
1000
,  // measure 56
0010
0000
0000
0000
0000
0000
0000
0000
0100
0001
0100
0000
0000
0000
0000
0000
0010
0000
0000
0000
0000
0000
0000
0000
1000
0000
0000
0000
0100
0000
0000
0000
,  // measure 57
0001
0000
0000
0000
1000
0000
0010
0000
0001
0000
1000
0000
0010
0000
0100
0001
,  // measure 58
0100
0000
0000
0000
0000
0000
0000
0000
0001
0010
0001
0000
0000
0000
0000
0000
1000
0000
0000
0000
0010
0000
0000
0000
0001
0000
0000
0000
0010
0000
0000
0000
,  // measure 59
1000
0000
0000
0000
0100
0000
0000
0000
0010
0000
1000
0000
0010
0000
0100
1000
,  // measure 60
0100
0000
0000
0000
0000
0000
0000
0000
0010
0001
0010
0000
0000
0000
0000
0000
0001
0000
0000
0000
0100
0000
0000
0000
1000
0000
0000
0000
0000
0000
0000
0000
,  // measure 61
0001
0000
0010
0000
1000
0000
0000
0000
0100
0000
0010
0000
0100
0000
1000
0001
,  // measure 62
1000
0010
0101
0001
,  // measure 63
0010
0100
0010
0100
0010
0100
0000
0000
0000
0000
0000
0000
,  // measure 64
1100
0000
0000
0000
0000
0000
0000
0000
1000
0001
1000
0000
0000
0000
0000
0000
0010
0000
0000
0000
0100
0000
0000
0000
1000
0000
0000
0000
0100
0000
0000
0000
,  // measure 65
0001
0000
0010
0000
0100
0000
0001
0000
0100
0000
0010
0000
0001
0000
1000
0010
,  // measure 66
1000
0000
0000
0000
0000
0000
0000
0000
0001
0010
0001
0000
0000
0000
0000
0000
1000
0000
0000
0000
0010
0000
0000
0000
1000
0000
0000
0000
0100
0000
0000
0000
,  // measure 67
0010
0000
1000
0000
0010
0000
0100
0000
0001
0000
0100
0000
0010
0000
0001
1000
,  // measure 68
0001
0000
0000
0000
0000
0000
0000
0000
0100
0010
0100
0000
0000
0000
0000
0000
0001
0000
0000
0000
0100
0000
0000
0000
1000
0000
0000
0000
0100
0000
0000
0000
,  // measure 69
0010
0000
1000
0000
0100
0000
0001
0000
0100
0000
0010
0000
0001
0000
1000
0010
,  // measure 70
1000
0000
0000
0000
0000
0000
0000
0000
0001
0100
0001
0000
0000
0000
0000
0000
1000
0000
0000
0000
0100
0000
0000
0000
0010
0000
0000
0000
0001
0000
0000
0000
,  // measure 71
0100
0000
0010
0000
0001
0000
0010
0000
0100
0000
1000
0000
0100
0000
0010
1000
,  // measure 72
0010
0000
0000
0000
0000
0000
0000
0000
1000
0100
1000
0000
0000
0000
0000
0000
0001
0000
0000
0000
0010
0000
0000
0000
0100
0000
0000
0000
0001
0000
0000
0000
,  // measure 73
1000
0000
0010
0000
0100
0000
1000
0000
0001
0000
0100
0000
0010
0000
1000
0001
,  // measure 74
1000
0000
0000
0000
0000
0000
0000
0000
0100
0010
0100
0000
0000
0000
0000
0000
1000
0000
0000
0000
0010
0000
0000
0000
0100
0000
0000
0000
0010
0000
0000
0000
,  // measure 75
0001
0000
1000
0000
0100
0000
0010
0000
0100
0000
0001
0000
1000
0000
0100
0010
,  // measure 76
0100
0000
0000
0000
0000
0000
0000
0000
1000
0010
1000
0000
0000
0000
0000
0000
0001
0000
0000
0000
0100
0000
0000
0000
0010
0000
0000
0000
0001
0000
0000
0000
,  // measure 77
1000
0000
0100
0000
0010
0000
1000
0000
0001
0000
0010
0000
0100
0000
1000
0001
,  // measure 78
1000
0000
0000
0000
0000
0000
0000
0000
0010
0100
0010
0000
0000
0000
0000
0000
1000
0000
0000
0000
0100
0000
0000
0000
0010
0000
0000
0000
0100
0000
0000
0000
,  // measure 79
0001
1000
0010
0100
0010
0001
1000
1000
;
