#VERSION:0.83;
#TITLE:Motteke! Sailor Fuku;
#SUBTITLE:;
#ARTIST:Lucky Star Cast;
#TITLETRANSLIT:;
#SUBTITLETRANSLIT:;
#ARTISTTRANSLIT:;
#GENRE:;
#CREDIT:;
#MUSIC:Motteke! Sailor Fuku.ogg;
#BANNER:Motteke! Sailor Fuku.png;
#BACKGROUND:Motteke! Sailor Fuku-bg.png;
#CDTITLE:;
#SAMPLESTART:58.357;
#SAMPLELENGTH:12.600;
#SELECTABLE:YES;
#OFFSET:-0.757;
#BPMS:0.000=150.000;
#STOPS:;
#BGCHANGES:-1.892=Motteke! Sailor Fuku.avi=1.000=1=0=0=StretchNoLoop==CrossFade==;
#FGCHANGES:;

//--------------- dance-single - ----------------
#NOTEDATA:;
#STEPSTYPE:dance-single;
#DESCRIPTION:;
#DIFFICULTY:Beginner;
#METER:3;
#RADARVALUES:0,0,0,0,0;
#CREDIT:Kikoia;
#NOTES:
0000
0000
0000
0000
,
0000
0000
0000
0000
,
0000
0000
0000
0000
,
0000
0000
0000
0000
,
0010
0000
0010
0000
,
0100
0100
0100
0000
,
0001
0000
1000
0000
,
0001
0001
0001
0000
,
2002
0000
0000
0000
,
0000
0000
0000
0000
,
3003
0000
0000
0000
,
0000
0000
0000
0000
,
1000
0000
1000
0000
,
0100
0000
0100
0000
,
0001
0000
0001
0000
,
0100
0000
0100
0000
,
1000
0000
0001
0000
,
1000
0000
0001
0000
,
0100
0000
0010
0000
,
0100
0000
0010
0000
,
1000
0000
1000
0000
,
0001
0000
0001
0000
,
0010
0000
0010
0000
,
0100
0000
0100
0100
,
0100
0000
0000
0000
,
0000
0000
0000
0000
,
0000
0000
0000
0000
,
0000
0000
0000
0000
,
1001
0000
1000
0000
,
0100
0000
0100
0000
,
1000
0000
0001
0000
,
0100
0000
0100
0000
,
0000
1001
0000
0000
0000
0000
0000
0000
,
0001
0000
0001
0000
,
1000
0000
1000
0000
,
0010
0010
0010
0000
,
0100
0000
0001
0000
,
1000
0000
0100
0000
,
1000
0000
0001
0000
,
1000
0000
0010
0000
,
1000
0000
0001
0000
,
1000
0000
0001
0000
,
2002
0000
3003
0000
,
0010
0010
0010
0000
,
1000
0000
1000
0000
,
0100
0000
0100
0000
,
0010
0000
0010
0000
,
0001
0000
0001
0000
,
0100
0000
0100
0000
,
0010
0000
0010
0000
,
1000
0000
1000
0000
,
0001
0000
0001
0000
,
1001
0000
0000
0000
,
0110
0000
0000
0000
,
1001
0000
0000
0000
,
0110
0000
0000
0000
,
0001
0000
0000
0000
,
0100
0000
0000
0000
,
1000
0000
0000
0000
,
0100
0000
0000
0000
,
1000
0000
1000
0000
,
0001
0000
0001
0000
,
0100
0000
0100
0000
,
0010
0010
0010
0000
;

//--------------- dance-single - ----------------
#NOTEDATA:;
#STEPSTYPE:dance-single;
#DESCRIPTION:;
#DIFFICULTY:Easy;
#METER:5;
#RADARVALUES:0,0,0,0,0;
#CREDIT:Kikoia;
#NOTES:
0000
0000
0000
0000
,
0000
0000
0000
0000
,
0000
0000
0000
0000
,
0000
0000
0000
0000
,
0001
0000
0001
0000
,
1000
0000
1000
0000
,
0100
0000
0010
0000
,
0001
0100
0010
1000
,
0001
0001
1000
0000
,
1000
1000
0001
0000
,
1000
1000
0100
0000
,
0010
0010
0001
0001
,
1000
1000
0010
0000
,
0001
0001
0010
0000
,
0001
0010
0100
1000
,
0010
0010
0100
0100
,
0110
0100
0001
1000
,
0100
0010
0001
1000
,
0010
0010
1000
1000
,
0001
0010
0100
1000
,
0001
0100
0001
0100
,
0010
1000
0010
1000
,
0100
0001
0100
1000
,
0010
0100
0001
0002
,
0003
0000
0000
0000
,
0000
0000
0000
0000
,
0000
0000
0000
0000
,
1000
0001
1000
0001
,
0100
0000
0000
0000
0110
0000
0000
0110
,
0000
0000
0000
0000
1000
0000
0000
1001
,
0000
0000
0000
0000
0001
0000
0000
1001
,
0000
0000
0000
0000
0010
0000
0000
0110
,
0000
1001
0000
0000
0001
0000
0100
0000
,
0010
1000
0001
0010
,
0001
0001
1000
1000
,
0010
0100
0001
0010
,
0100
0100
1000
1000
,
0001
0100
2000
3000
,
0100
0100
0001
0001
,
1000
0100
0002
0003
,
0100
0100
0010
0010
,
0100
1000
0002
0003
,
0100
0100
0010
0010
,
1000
0000
0001
0000
1000
0001
1000
0000
,
0100
0100
0010
0010
,
0001
0010
2000
3000
,
0010
0010
0001
0001
,
1000
0010
0002
0003
,
0100
0100
0010
0010
,
0100
0001
2000
3000
,
0001
0001
1000
1000
,
1000
0010
0100
0001
,
0010
0000
0010
0000
,
0100
0000
0110
0000
,
1000
0000
1000
0000
,
0001
0000
1001
0000
,
0100
0000
0100
0000
,
0010
0000
0110
0000
,
0001
0000
0001
0000
,
1000
0000
1001
0000
,
1000
0100
0010
0000
,
0001
0100
0010
0000
,
1000
0000
1001
0000
,
0002
0023
0230
0000
,
0300
0000
0000
0000
;

//--------------- dance-single - ----------------
#NOTEDATA:;
#STEPSTYPE:dance-single;
#DESCRIPTION:;
#DIFFICULTY:Medium;
#METER:8;
#RADARVALUES:0,0,0,0,0;
#CREDIT:Kikoia;
#NOTES:
0000
0000
0000
0000
,
0000
0000
0000
0000
,
0000
0000
0000
0000
,
0000
0000
0000
0000
,
1001
0010
1001
0010
,
1000
0020
0000
0130
0001
0000
0001
1000
,
0100
0000
0000
0100
1000
0000
0000
1000
,
0001
0100
0020
0030
0020
0030
0220
0000
,
0000
0000
0000
0000
,
0000
0000
0000
0330
,
0001
0000
0100
0000
0010
1000
0010
0000
,
1000
0000
0100
0000
0010
0001
0010
0000
,
0001
0000
1000
0000
0010
0100
0010
0000
,
1000
0000
0100
0000
0010
0100
0010
0000
,
0100
1000
0001
0100
,
0010
0010
0020
0030
,
1000
0001
1000
0000
1000
0100
1000
0000
,
1000
0100
0001
0000
0001
0100
1000
0000
,
0001
1000
0001
0000
0001
0100
0001
0000
,
0001
0100
1000
0000
1000
0100
0001
0000
,
2000
0010
3002
0010
,
2003
0010
3002
0100
,
2003
0100
3002
0100
,
1003
0000
0001
0000
0100
0010
0200
0000
,
0301
0100
0010
1000
,
0100
0001
0100
1000
,
0010
0001
0100
1000
,
0001
0010
0100
1000
,
0001
0000
0000
0000
0100
0000
0000
0000
0001
0000
0000
1000
0000
0000
0001
0000
,
0000
0000
1000
0000
1000
0000
0000
0000
0100
0000
0000
1000
0000
0000
0001
0000
,
0000
0000
0010
0000
0010
0000
0000
0000
0001
0000
0000
1000
0000
0000
0010
0000
,
0000
0000
1000
0000
1000
0000
0000
0000
0100
0000
0000
0010
0000
0000
0100
0000
,
0000
0000
1001
0000
0000
0000
0000
0000
0001
0000
0000
0010
0000
0000
0010
0000
,
0000
0000
0001
0000
0001
0000
0000
0000
1000
0000
0000
0010
0000
0000
0010
0000
,
1000
0100
1000
0000
0001
0100
0001
0000
,
0001
0010
0100
1000
,
0001
0100
0001
0100
,
1000
0100
1000
0100
,
0001
0010
0001
0010
,
1000
0000
0010
0000
1000
0010
0000
0002
,
0000
0003
0001
2000
0000
3000
1000
0020
,
0000
0230
0000
0302
0000
0003
0020
0000
,
0031
0001
1000
1000
,
1000
1000
0100
0100
0010
0010
0002
0000
,
1003
0000
0100
0000
1000
0100
0010
0000
,
0001
0000
0100
0000
0001
0100
0010
0000
,
1000
0000
0010
0000
1000
0001
0010
0000
,
0001
0000
1000
0000
0010
1000
0001
0100
,
0000
0000
0100
0010
0000
0000
0010
2000
,
0000
3002
0000
0023
0000
0030
0200
0000
,
1300
1000
0001
0001
,
0100
0100
0010
0010
1000
1000
0001
0001
,
1000
0000
1001
0000
,
1100
0000
1001
0000
,
0011
0000
1001
0000
,
1010
0000
1001
0000
,
0110
0000
1001
0000
,
0110
0000
1001
0000
,
1100
0000
0101
0000
,
0011
0000
1010
0000
,
2000
0000
0000
0000
0010
3010
0000
1000
,
0002
0000
0010
0000
0010
0003
0000
0001
,
1000
0000
0000
1000
0001
0000
0000
0001
,
0100
0010
0110
0000
;

//--------------- dance-single - ----------------
#NOTEDATA:;
#STEPSTYPE:dance-single;
#DESCRIPTION:;
#DIFFICULTY:Hard;
#METER:11;
#RADARVALUES:0,0,0,0,0;
#CREDIT:Kikoia;
#NOTES:
0000
0000
0000
0000
,
0000
0000
0000
0000
0000
0000
0000
0001
,
2000
0000
0000
0000
3200
0000
0000
0300
0001
0000
0000
0001
0000
0000
0001
0000
,
0200
0000
2300
0000
3000
1001
0000
0100
,
1000
0020
0000
0130
0001
0020
0000
0031
,
1000
0010
0100
0001
0010
0000
0011
0000
,
1100
0000
1010
0000
,
1001
0000
0001
0000
0100
0000
0010
0000
1000
0000
0001
0000
0001
0020
0000
0000
,
0000
0000
0000
0000
,
0000
0000
0000
0030
,
1000
0000
0100
0000
0010
0000
0000
0000
0001
0000
0100
0000
0010
0000
0000
1000
,
0001
0010
0100
1000
0001
0100
0101
0000
,
0001
1000
0010
0000
1000
0001
0100
0000
,
0001
1000
0100
0000
0100
1000
0001
0010
,
0100
0000
0000
0100
0000
0000
1000
0000
0000
1000
0000
0000
0001
0000
0000
0100
,
0000
0010
0010
0100
0100
0000
0110
0000
,
1001
1000
0100
0000
0001
0001
0100
0000
,
1000
0100
1000
0000
0001
0010
0001
0000
,
0001
0100
0001
0100
1000
0100
1000
0100
,
0001
0100
0010
1000
0001
0010
0000
0010
,
0001
1000
0001
0000
1000
0001
1000
0000
,
1000
0100
1000
0000
0001
0010
0100
0010
,
0001
1000
0001
0000
0001
0100
0001
0000
,
1000
0000
0100
0000
0010
0000
0001
0000
0200
0300
0200
0300
0200
0000
0300
0000
,
0001
0100
0001
0100
0010
1000
0001
0000
,
0010
0001
0010
0001
1000
0010
0100
0000
,
0001
0100
1000
0100
0001
1000
0100
0000
,
0001
0100
1000
0010
0100
0001
0100
0001
,
2000
0000
0001
0000
3001
0000
0000
0000
0101
0000
0000
0101
0000
0000
1010
0000
,
0000
0000
1000
0000
1000
0000
0000
0000
1100
0000
0000
1100
0000
0000
0011
0000
,
0000
0000
1000
0000
1000
0000
0000
0000
1010
0000
0000
1010
0000
0000
1001
0000
,
0000
0000
0010
0000
0010
0000
0000
0000
0011
0000
0000
0011
0000
0000
1001
0000
,
0000
0000
0220
0000
0000
0330
0000
0000
1001
0000
0000
1010
0000
0000
1001
0000
,
0000
0000
0100
0000
0100
0000
0000
0000
1001
0000
0000
0011
0000
0000
1001
0000
,
1000
0100
0010
0000
0001
0100
0010
0000
,
1000
0000
0001
0000
0010
0000
0100
0000
1000
0000
0000
1000
0002
0000
0000
0000
,
0103
0100
0010
0010
,
1000
0100
0001
0100
1000
0000
1000
0000
,
0001
0000
0001
0000
0100
1000
0100
0002
,
0000
0023
0000
0130
1000
0001
1000
0000
,
0010
0010
0100
0100
,
0002
0023
2030
3020
,
0031
0001
1000
1000
,
1000
0100
0010
0001
0100
0010
2000
0000
,
3100
1000
0100
1000
0001
0100
0001
0100
,
0001
1000
0100
0010
0001
0000
0011
0000
,
1000
0010
1000
0010
0100
0001
0100
0001
,
0010
0100
1000
0010
0100
0000
0110
0000
,
1001
0000
1000
0001
0000
0000
0001
1000
,
0000
1000
0000
0010
0000
0010
0100
0000
,
0001
0000
0001
0020
0000
0000
0000
0000
,
0100
0100
0100
0130
,
1001
0000
0101
0000
,
1000
0100
0010
0001
2000
0000
3010
0000
,
1001
0000
1100
0000
,
0001
0100
0010
1000
0002
0000
0013
0000
,
1010
0000
0011
0000
,
1000
0010
0100
0001
0020
0000
0130
0000
,
0110
0000
1001
0000
,
0001
1000
0001
0010
0100
1000
0010
0100
,
0001
0000
0001
0000
0100
0100
0000
0001
,
2000
0000
3200
0000
0300
0110
0000
0010
,
0001
1001
0100
1001
,
1000
0010
1000
0010
0002
0000
0000
0000
,
0003
0000
0000
0000
;

//--------------- dance-single - ----------------
#NOTEDATA:;
#STEPSTYPE:dance-single;
#DESCRIPTION:;
#DIFFICULTY:Challenge;
#METER:15;
#RADARVALUES:0,0,0,0,0;
#CREDIT:Kikoia;
#NOTES:
0000
0000
0000
0000
,
0000
0000
0000
0000
0000
0000
0000
1000
,
0002
0000
0000
0000
0203
0000
0000
0301
0010
0000
0000
0010
0000
0000
0001
0000
,
1000
0100
0000
0100
1000
0001
0100
0000
0000
0000
0110
0000
0000
0000
1000
0000
,
0001
0002
0003
0001
1000
2000
3000
0001
,
0010
0000
0200
0000
0000
0000
1300
0000
0010
0100
0000
0100
0001
0000
1000
0000
,
0100
0000
0011
0001
0100
0000
1010
0001
,
0100
0010
0100
0010
1000
0000
0001
0000
1000
0000
0100
0000
0010
0002
0000
0000
,
0103
0000
0001
0000
1000
0001
0000
0001
1000
0000
0100
0000
0010
0001
0000
0001
,
1000
0000
0010
0000
0100
0001
0000
0001
0020
0000
0100
0000
0032
0000
0100
0000
,
1003
0000
0001
0000
0100
0010
0000
0010
0100
0000
0001
0000
1000
0100
0000
0100
,
0010
0000
0001
0000
0100
1000
0000
0100
0001
0000
0010
0000
0001
1000
0001
1000
,
0100
0000
0010
0000
0001
1000
0000
1000
0001
0000
0010
0000
0001
0100
0000
0100
,
0010
0000
1000
0000
0001
1000
0000
1000
0020
0000
0100
0000
2030
0000
0100
0000
,
3001
1000
0000
1000
0010
0000
0010
0200
0000
0000
0301
0000
2000
0100
0000
0100
,
0000
0000
3001
0000
0001
0000
1000
0000
0020
0000
0000
0000
1030
0001
1000
0001
,
0010
0000
0001
0100
0001
0000
1000
0000
0001
0100
0001
0000
1000
0010
0000
0100
,
0001
0000
1000
0100
0010
0000
0001
1000
0001
0100
0000
0001
0010
0000
0001
0000
,
0100
0010
0100
0000
0001
0000
1000
0000
0100
0010
0100
0000
1000
0000
0010
0000
,
0001
0000
0010
0000
1000
0001
0000
0001
0100
0010
2000
0000
3000
0000
1000
0000
,
0010
0000
1000
0000
0100
0000
0010
0001
1000
0010
1000
0010
0100
0001
0000
0001
,
1000
0100
0010
0000
0001
0000
0100
0010
1000
0000
1010
0000
0001
0000
0101
0000
,
0001
0010
0001
0000
1000
0000
0001
0010
0000
0010
0100
0000
1000
0000
0001
0100
,
0010
1000
0100
0010
0000
0001
0100
0000
0001
1000
0001
1000
0002
0000
0000
0000
,
1003
0000
0100
0000
0010
0000
0001
0000
1000
0000
0010
0000
0100
0001
1000
0000
,
0100
1000
0010
1000
0001
0010
0100
0100
,
1000
0000
0001
0000
0010
0000
0001
0000
1000
0000
0010
0000
0100
0001
0010
0000
,
0001
1000
0001
0000
1000
0100
1000
0000
0001
1000
0001
1000
0010
0000
0100
0001
,
1000
0000
0010
0000
1010
0000
0000
0000
2000
0000
0000
3200
0000
0000
0302
0000
,
0000
0000
0103
0000
0110
0000
0000
0000
0020
0000
0000
0032
0000
0000
2003
0000
,
0000
0000
3010
0000
1010
0000
0000
0000
0020
0000
0000
0032
0000
0000
0023
0000
,
0000
0000
1030
0000
1001
0000
0000
0000
0002
0000
0000
0203
0000
0000
2300
0000
,
3000
0000
2002
0000
0000
0000
3003
0000
2000
0000
0000
3200
0000
0000
0320
0000
,
0000
0000
0031
0000
0101
0000
0000
0000
2000
0000
0000
3020
0000
0000
0130
0000
,
0001
0000
1000
0000
1000
0000
0001
0010
0100
0000
0100
0000
1000
0000
0010
0000
,
0100
0001
0000
0010
0000
0100
0000
1000
0010
0100
0001
1000
0002
0000
0000
0000
,
1003
0100
0001
0100
1000
0010
0001
0010
,
1000
0100
0010
0001
0200
0000
1300
0100
,
0001
0100
0010
0100
1000
0100
0001
0020
,
0000
0000
0230
0000
0000
0000
1300
0000
0010
0100
0000
0001
1000
0000
0001
0000
,
0010
1000
0010
0001
1000
0010
0001
0020
,
0000
2030
0000
3200
0000
0300
1001
0000
,
1000
0100
0010
0100
0001
0100
0010
0100
,
1000
0000
1000
0000
0001
1000
0001
1000
0010
0100
0001
0010
0200
0000
0000
0000
,
1300
0000
0001
0000
0100
0000
0010
0000
1000
0100
0000
0010
0001
0000
0100
0000
,
0010
0000
1000
0000
0100
0000
1000
0000
0001
0100
0000
1000
0100
0000
0010
0000
,
1000
0000
0100
0000
0010
0000
0001
0000
1000
0100
0000
0001
0100
0000
0010
0000
,
0001
0000
1000
0000
0010
0000
0100
0000
0001
1000
0100
0000
0010
0000
0220
0000
,
0000
0330
0001
2002
0000
3003
1000
0020
,
0000
0230
0000
0301
1000
0100
0001
0100
,
1000
0001
0100
1000
0001
0010
1000
0001
,
0010
0000
0100
0000
1000
0001
0000
0001
1000
0010
0100
0001
0010
0100
1000
0001
,
0200
0010
0302
0010
,
0103
0001
0100
0010
1010
0000
0101
0000
,
2000
0100
3020
0100
,
1030
0100
0010
0001
0011
0000
1100
0000
,
2001
0010
3002
0010
,
1003
0010
1000
0100
0020
0000
1000
0000
,
0032
1000
0203
1000
,
0310
0000
1000
0000
0001
0000
0010
0000
0100
1000
0001
0100
0010
1000
0001
0010
,
0200
0000
0000
0000
2300
0000
0000
0000
0010
0000
3010
0000
0000
0000
1000
0001
,
1000
0100
0000
0100
0010
0000
0001
0100
0000
0000
0110
0000
0000
0000
0100
0000
,
0001
1000
1001
0001
0010
0100
0110
1000
,
0002
0023
0032
0203
2300
0000
0000
0000
,
3000
0000
0000
0000
;
