#TITLE:Moon Song;
#SUBTITLE:(Digitalism Remix);
#ARTIST:The M Machine;
#TITLETRANSLIT:;
#SUBTITLETRANSLIT:;
#ARTISTTRANSLIT:;
#GENRE:;
#CREDIT:;
#BANNER:Moon Song (Digitalism Remix).png;
#BACKGROUND:Moon Song (Digitalism Remix)-bg.png;
#LYRICSPATH:;
#CDTITLE:;
#MUSIC:Moon Song (Digitalism Remix).ogg;
#OFFSET:-0.370000;
#SAMPLESTART:15.566407;
#SAMPLELENGTH:15.238097;
#SELECTABLE:YES;
#DISPLAYBPM:63.000000:126.000000;
#BPMS:0.000000=125.999992
,96.000000=62.999996
,120.000000=125.999992
;
#STOPS:
;
#BGCHANGES:;
#KEYSOUNDS:;
#ATTACKS:;

//---------------dance-single - ----------------
#NOTES:
     dance-single:
     :
     Hard:
     13:
     0.517024,0.616712,0.589167,0.482046,0.485871,473.000000,396.000000,77.000000,63.000000,14.000000,0.000000,0.517024,0.616712,0.589167,0.482046,0.485871,473.000000,396.000000,77.000000,63.000000,14.000000,0.000000:
// measure 0
0000
0000
0000
0000
,  // measure 1
0000
0000
0000
0000
,  // measure 2
0000
0000
0000
0000
,  // measure 3
0000
0000
0000
0000
,  // measure 4
0001
0000
0000
0001
0000
0000
0001
0000
0100
0000
0000
0100
0000
0000
0100
0000
,  // measure 5
0010
0000
0000
0010
0000
0000
0010
0000
1000
0000
0000
1000
0000
0000
1000
0000
,  // measure 6
0001
0000
0000
0100
0000
0000
0010
0000
1000
0000
0000
0001
0000
0000
0010
0000
,  // measure 7
0011
0000
0000
0011
0000
0000
0011
0000
0110
0000
0000
0110
0000
0000
0110
0000
,  // measure 8
2100
3000
0000
0000
0000
0000
0010
0000
0000
0000
0000
0000
0100
0000
0000
0000
0102
0003
0000
0000
0000
0000
0010
0000
0000
0000
0000
0000
0100
0000
0000
0000
,  // measure 9
2100
3000
0000
0000
0010
0000
0100
0000
0000
0000
0000
0000
0100
0000
0000
0000
0001
0000
0000
0000
0000
0000
0000
0000
1100
0000
0000
0000
0000
0000
0000
0000
,  // measure 10
0012
0003
0000
0000
0000
0000
0100
0000
0000
0000
0000
0000
0010
0000
0000
0000
2010
3000
0000
0000
0000
0000
0100
0000
0000
0000
0000
0000
0010
0000
0000
0000
,  // measure 11
0012
0003
0000
0000
0100
0000
0010
0000
0000
0000
0000
0000
0010
0000
0000
0000
1000
0000
0001
0000
0010
0000
0100
0000
1000
0000
0000
0000
0010
0000
0000
0000
,  // measure 12
2010
3000
0000
0000
0000
0000
0100
0000
0000
0000
0000
0000
0010
0000
0000
0000
0001
0000
0000
0000
0100
0000
0000
0000
2000
0000
0000
0000
0000
0000
0000
0000
,  // measure 13
3100
0000
0010
0100
0000
0010
0100
0001
2000
0000
0000
0000
3200
0000
0000
0000
,  // measure 14
0310
0100
0000
0010
0100
0000
1000
0000
0001
0000
0000
0100
0000
0000
1000
0000
,  // measure 15
1100
0000
0000
0000
0000
0000
0110
0000
0000
0000
0000
0000
2010
3000
0000
0000
0001
0000
0000
0000
0000
0000
0001
0000
2000
0000
0000
0000
0000
0000
0000
0000
,  // measure 16
3002
0000
0000
0013
0000
0000
0100
0000
M102
0000
0000
0013
0000
0000
0100
0000
,  // measure 17
M102
0003
0000
0000
0010
0000
0100
0000
0000
0000
0000
0000
0100
0000
0000
0000
1000
0000
0000
0000
0000
0000
0000
0000
0101
0000
0000
0000
0000
0000
0000
0000
,  // measure 18
2010
0000
0000
3100
0000
0000
0010
0000
201M
0000
0000
3100
0000
0000
0010
0000
,  // measure 19
201M
3000
0000
0000
0100
0000
0010
0000
0000
0000
0000
0000
0010
0000
0000
0000
0001
0000
0000
0000
0000
0000
0000
0000
1010
0000
0000
0000
0000
0000
0000
0000
,  // measure 20
0012
0000
0000
0103
0000
0000
0010
0000
M012
0000
0000
0103
0000
0000
0010
0000
,  // measure 21
M012
0003
0000
0000
0100
0000
0010
0000
0000
0000
0000
0000
1000
0000
0000
0000
0001
0000
0000
0000
0010
0000
0100
0000
0000
0000
0000
0000
1000
0000
0000
0000
,  // measure 22
2010
0000
0000
3100
0000
0000
0010
0000
201M
0000
0000
3100
0000
0000
0010
0000
,  // measure 23
0011
0000
0000
0000
0000
0000
0110
0000
0000
0000
0000
0000
2100
3000
0000
0000
0001
0000
0000
0000
0000
0000
0001
0000
2000
0000
0000
0000
0000
0000
0000
0000
,  // measure 24
3002
0000
0000
0000
0203
0000
0000
0000
0320
0000
0000
0030
0020
0000
0000
0000
,  // measure 25
2030
0000
0000
0000
3200
0000
0000
0000
0320
0000
0000
0030
0020
0000
0000
0000
,  // measure 26
0130
0010
0001
0000
1000
0010
0100
0000
1000
0100
1000
0000
1000
0100
1000
0000
,  // measure 27
0100
0010
1000
0000
0001
0010
0100
0000
0001
0100
0001
0000
0001
0100
0001
0000
,  // measure 28
0001
0100
1000
0000
0001
0100
0010
0000
0001
0010
1000
0000
0001
0010
1000
0010
,  // measure 29
0002
0000
1000
2003
0000
0000
0001
0002
0000
0000
0000
0000
3003
0000
0000
0000
,  // measure 30
0001
0000
0000
0001
0000
0000
0001
0000
0100
0000
0000
0100
0000
0000
0100
0000
,  // measure 31
0010
0000
0000
0010
0000
0000
0010
0000
1000
0000
0000
1000
0000
0000
1000
0000
,  // measure 32
0001
0000
0000
0100
0000
0000
0010
0000
1000
0000
0000
0001
0000
0000
0010
0000
,  // measure 33
0001
0000
0000
1000
0000
0000
0010
0000
0100
0000
0000
0001
0000
0000
0010
0000
,  // measure 34
0012
0003
0000
0000
0000
0000
0100
0000
0000
0000
0000
0000
0010
0000
0000
0000
2010
3000
0000
0000
0000
0000
0100
0000
0000
0000
0000
0000
0010
0000
0000
0000
,  // measure 35
0012
0003
0000
0000
0000
0000
0100
0000
0000
0000
0000
0000
0010
0000
0000
0000
2010
3000
0000
0000
0000
0000
0100
0000
0000
0000
0000
0000
0010
0000
0000
0000
,  // measure 36
0012
0000
0000
0103
0000
0000
0010
0000
M011
0000
0000
1001
0000
0000
1010
0000
,  // measure 37
0000
0000
0000
0011
0000
0000
0011
0000
0110
0000
0000
0110
0000
0000
0110
0000
,  // measure 38
2100
3000
0000
0000
0010
0000
0100
0000
0000
0000
0010
0000
1000
0000
0000
0000
1200
0300
0000
0000
0010
0000
0100
0000
0000
0000
1000
0000
0100
0000
0000
0000
,  // measure 39
0110
0000
0010
0001
0000
0100
0010
0000
0101
0000
0000
0000
1001
0000
0000
0000
,  // measure 40
0012
0003
0000
0000
0100
0000
0010
0000
0000
0000
0100
0000
0001
0000
0000
0000
0021
0030
0000
0000
0100
0000
0010
0000
0000
0000
0001
0000
0010
0000
0000
0000
,  // measure 41
0110
0000
0100
1000
0000
0010
0100
0000
1010
0000
0000
0000
1001
0000
0000
0000
,  // measure 42
2100
3000
0000
0000
0010
0000
0100
0000
0000
0000
1000
0000
0100
0000
0000
0000
0110
0000
0000
0000
0001
0000
0010
0000
0000
0000
0100
0000
0010
0000
0000
0000
,  // measure 43
0012
0003
0000
0000
0100
0000
0010
0000
0000
0000
0001
0000
0010
0000
0000
0000
0110
0000
0000
0000
0000
0000
0000
0000
0101
0000
0000
0000
0000
0000
0000
0000
,  // measure 44
0012
0003
0000
0000
0100
0000
0010
0000
0000
0000
0001
0000
0010
0000
0000
0000
0110
0000
0000
0000
1000
0000
0100
0000
0000
0000
0010
0000
0100
0000
0000
0000
,  // measure 45
2100
3000
0000
0000
0010
0000
0100
0000
0000
0000
1000
0000
0100
0000
0000
0000
0110
0000
0000
0000
0000
0000
1000
0000
0002
0000
0000
0000
0000
0000
0000
0000
,  // measure 46
1003
0000
0000
0100
0000
0000
0010
0000
201M
0000
0000
3100
0000
0000
0010
0000
,  // measure 47
201M
3000
0000
0000
0100
0000
0010
0000
0000
0000
0000
0000
0010
0000
0000
0000
0001
0000
0000
0000
0000
0000
0000
0000
1010
0000
0000
0000
0000
0000
0000
0000
,  // measure 48
0102
0000
0000
0013
0000
0000
0100
0000
M102
0000
0000
0013
0000
0000
0100
0000
,  // measure 49
M102
0003
0000
0000
0010
0000
0100
0000
0000
0000
0000
0000
0100
0000
0000
0000
1000
0000
0000
0000
0000
0000
0000
0000
0101
0000
0000
0000
0000
0000
0000
0000
,  // measure 50
2100
0000
0000
3010
0000
0000
0100
0000
210M
0000
0000
3010
0000
0000
0100
0000
,  // measure 51
210M
3000
0000
0000
0010
0000
0100
0000
0000
0000
0010
0000
0100
0000
0001
0000
2000
0000
0000
0000
0000
0000
0000
0000
3200
0000
0000
0000
0000
0000
0000
0000
,  // measure 52
0310
0100
0000
0010
0100
0000
1000
0000
0001
0000
0000
0100
0000
0000
1000
0000
,  // measure 53
1100
0000
0000
0000
0000
0000
0110
0000
0000
0000
0000
0000
2010
3000
0000
0000
0001
0000
0000
0000
0000
0000
0001
0000
2000
0000
0000
0000
0000
0000
0000
0000
,  // measure 54
3001
0000
0000
0001
0000
0000
0001
0000
0010
0000
0000
0010
0000
0000
0010
0000
,  // measure 55
0100
0000
0000
0100
0000
0000
0100
0000
1000
0000
0000
1000
0000
0000
1000
0000
,  // measure 56
0001
0000
0000
0001
0000
0000
0001
0000
0100
0000
0000
0100
0000
0000
0100
0000
,  // measure 57
0010
0000
0000
0010
0000
0000
0010
0000
1000
0000
0000
1000
0000
0000
1000
0000
,  // measure 58
0001
0000
0000
0010
0000
0000
1000
0000
1000
0000
0000
0010
0000
0000
0001
0000
,  // measure 59
0001
0000
0000
0100
0000
0000
1000
0000
1000
0000
0000
0100
0000
0000
0001
0000
,  // measure 60
0001
0000
0000
0010
0000
0000
1000
0000
1000
0000
0000
0001
0000
0000
1000
0000
,  // measure 61
1000
0000
0000
0010
0000
0000
0001
0000
0001
0000
0000
0100
0000
0000
2000
0000
,  // measure 62
3000
0000
0000
0000
;

//---------------dance-single - ----------------
#NOTES:
     dance-single:
     :
     Medium:
     9:
     0.299502,0.403235,0.244849,0.382576,0.160682,274.000000,242.000000,32.000000,50.000000,0.000000,0.000000,0.299502,0.403235,0.244849,0.382576,0.160682,274.000000,242.000000,32.000000,50.000000,0.000000,0.000000:
// measure 0
0000
0000
0000
0000
,  // measure 1
0000
0000
0000
0000
,  // measure 2
0000
0000
0000
0000
,  // measure 3
0000
0000
0000
0000
,  // measure 4
0002
0000
2003
0000
,  // measure 5
3020
0000
0032
0000
,  // measure 6
2003
0000
3200
0000
,  // measure 7
0301
0000
0000
0001
0000
0000
0000
0000
1000
0000
0000
1000
0000
0000
0000
0000
,  // measure 8
0001
1100
0011
1000
,  // measure 9
0010
0100
0001
0011
,  // measure 10
1000
0101
1010
0001
,  // measure 11
0010
0000
0100
0000
1000
0000
1000
0001
,  // measure 12
0000
0001
0000
0001
1000
0000
0010
0000
,  // measure 13
0100
0001
0011
1010
,  // measure 14
0001
0000
0000
0001
0000
0000
0000
0000
0010
0000
0000
0010
0000
0000
0000
0000
,  // measure 15
0100
0000
0000
0110
0000
0000
0000
0000
1000
0000
0000
0000
0002
0000
0000
0000
,  // measure 16
1003
0010
0001
0010
,  // measure 17
1000
0000
0000
1000
0000
0000
0001
0000
1000
0000
0000
0000
0110
0000
0000
0000
,  // measure 18
0001
0010
1000
0010
,  // measure 19
0001
0000
0000
0001
0000
0000
1000
0000
0001
0000
0000
0000
0110
0000
0000
0000
,  // measure 20
1000
0010
0001
0010
,  // measure 21
1000
0100
0001
0010
,  // measure 22
1000
0000
0000
1000
0000
0000
0000
0000
0100
0000
0000
0100
0000
0000
0000
0000
,  // measure 23
0010
0000
0000
0110
0000
0000
0000
0000
0001
0000
0000
0000
2000
0000
0000
0000
,  // measure 24
3002
0000
0000
0000
0203
0000
0000
0000
0320
0000
0000
0030
0020
0000
0000
0000
,  // measure 25
2030
0000
0000
0000
3200
0000
0000
0000
0320
0000
0000
0030
0020
0000
0000
0000
,  // measure 26
0032
0000
1000
0000
0023
0000
0001
0000
0230
0000
0001
0300
0200
0000
0010
0000
,  // measure 27
2300
0000
0001
0000
3020
0000
1000
0000
0230
0000
1000
0300
0200
0000
0010
0000
,  // measure 28
0302
0000
1000
0000
0023
0000
1000
0000
0032
0000
1000
0003
0002
0000
0100
0000
,  // measure 29
2003
0000
0001
0000
3020
0000
0001
0000
2030
0000
0001
3000
2000
0000
0100
0000
,  // measure 30
3002
0000
0023
0000
,  // measure 31
0230
0000
2300
0000
,  // measure 32
3002
0000
0203
0000
,  // measure 33
0320
0000
2030
0000
,  // measure 34
3001
0000
0000
0001
0000
0000
0000
0000
0010
0000
0000
0010
0000
0000
0000
0000
,  // measure 35
0100
0000
0000
0100
0000
0000
0000
0000
1000
0000
0000
1000
0000
0000
0000
0000
,  // measure 36
1001
0000
0000
1001
0000
0000
0000
0000
0110
0000
0000
0110
0000
0000
0000
0000
,  // measure 37
1000
0000
0000
1000
0000
0000
0001
0000
1000
0000
0000
1000
0000
0000
0001
0000
,  // measure 38
1000
0000
0000
1000
0000
0000
0000
0000
0011
0000
0000
0000
1010
0000
0000
0000
,  // measure 39
0001
0000
0000
0001
0000
0000
1000
0000
0001
0000
0000
0000
0110
0000
0000
0000
,  // measure 40
0001
0000
0000
0001
0000
0000
0000
0000
1010
0000
0000
0000
0011
0000
0000
0000
,  // measure 41
1000
0000
0000
1000
0000
0000
0001
0000
1000
0000
0000
0000
0110
0000
0000
0000
,  // measure 42
2000
0000
0000
0100
0000
0000
0100
0000
3200
0000
0000
0010
0000
0000
0010
0000
,  // measure 43
0320
0000
0000
0001
0000
0000
0031
0000
0020
0000
0000
0100
0000
0000
0130
0000
,  // measure 44
0020
0000
0000
0001
0000
0000
0031
0000
0020
0000
0000
0100
0000
0000
0130
0000
,  // measure 45
1000
0000
0000
1000
0000
0000
0000
0000
0001
0000
0000
0000
2000
0000
0000
0000
,  // measure 46
3001
1010
0101
1000
,  // measure 47
0100
0010
0001
0110
,  // measure 48
1000
0011
1100
0001
,  // measure 49
0100
0010
1000
0110
,  // measure 50
1000
0011
1010
0001
,  // measure 51
0010
0100
1100
0101
,  // measure 52
1000
0000
0000
1000
0000
0000
0000
0000
0010
0000
0000
0010
0000
0000
0000
0000
,  // measure 53
0100
0000
0000
0110
0000
0000
0000
0000
1000
0000
0000
0000
0002
0000
0000
0000
,  // measure 54
0203
0000
1000
0000
,  // measure 55
0001
0000
0000
0001
0000
0000
0000
0000
1000
0000
0000
0000
0000
0000
0000
0000
,  // measure 56
0001
0000
1000
0000
,  // measure 57
0001
0000
0000
0001
0000
0000
0000
0000
1000
0000
0000
0000
0000
0000
0000
0000
,  // measure 58
0301
0000
0000
0001
0000
0000
0000
0000
0010
0000
0000
0010
0000
0000
0000
0000
,  // measure 59
0100
0000
0000
0100
0000
0000
0000
0000
1000
0000
0000
1000
0000
0000
0000
0000
,  // measure 60
0001
0000
0000
0001
0000
0000
0000
0000
0100
0000
0000
0100
0000
0000
0000
0000
,  // measure 61
0010
0000
0000
0010
0000
0000
0000
0000
1000
0000
0000
1000
0000
0000
0002
0000
,  // measure 62
0003
0000
0000
0000
;

//---------------dance-single - ----------------
#NOTES:
     dance-single:
     :
     Easy:
     6:
     0.203312,0.237197,0.068864,0.451440,0.000000,186.000000,177.000000,9.000000,59.000000,0.000000,0.000000,0.203312,0.237197,0.068864,0.451440,0.000000,186.000000,177.000000,9.000000,59.000000,0.000000,0.000000:
// measure 0
0000
0000
0000
0000
,  // measure 1
0000
0000
0000
0000
,  // measure 2
0000
0000
0000
0000
,  // measure 3
0000
0000
0000
0000
,  // measure 4
2000
0000
3200
0000
,  // measure 5
0320
0000
0032
0000
,  // measure 6
2003
0000
3020
0000
,  // measure 7
0130
0100
0001
0001
,  // measure 8
1000
0100
0000
0100
,  // measure 9
0000
0110
0000
1001
,  // measure 10
0001
0100
0000
0100
,  // measure 11
0000
0110
0002
1003
,  // measure 12
0001
0010
0000
0010
,  // measure 13
0000
0110
1000
1000
,  // measure 14
0001
0001
0100
0100
,  // measure 15
1000
0100
0001
2000
,  // measure 16
3001
0001
0010
0010
,  // measure 17
1000
0000
0001
0000
,  // measure 18
1000
1000
0010
0010
,  // measure 19
0001
0000
1000
0000
,  // measure 20
0001
0001
0100
0100
,  // measure 21
1000
1000
0100
0100
,  // measure 22
0001
0001
0010
0010
,  // measure 23
1000
0010
0001
2000
,  // measure 24
3002
0000
0000
0000
0203
0000
0000
0000
0320
0000
0000
0030
0020
0000
0000
0000
,  // measure 25
2030
0000
0000
0000
3200
0000
0000
0000
0320
0000
0000
0030
0020
0000
0000
0000
,  // measure 26
0230
0000
0000
0000
2300
0000
0000
0000
3002
0000
0000
0003
0002
0000
0000
0000
,  // measure 27
2003
0000
0000
0000
3020
0000
0000
0000
0230
0000
0000
0300
0200
0000
0000
0000
,  // measure 28
0320
0000
0000
0000
2030
0000
0000
0000
3002
0000
0000
0003
0002
0000
0000
0000
,  // measure 29
0023
0230
2300
3000
,  // measure 30
0002
0000
1000
0000
,  // measure 31
0023
0000
0230
0000
,  // measure 32
2300
0000
0001
0000
,  // measure 33
3020
0000
0230
0000
,  // measure 34
0302
0000
0023
0000
,  // measure 35
2030
0000
3200
0000
,  // measure 36
0302
0000
2000
0000
,  // measure 37
3003
0001
1000
1000
,  // measure 38
0002
1000
0203
0010
,  // measure 39
2300
0000
3002
0000
,  // measure 40
0023
0100
2030
0001
,  // measure 41
3200
0000
0302
0000
,  // measure 42
2003
0001
3020
0100
,  // measure 43
0032
0003
0002
0003
,  // measure 44
0001
0001
0100
0100
,  // measure 45
1000
0100
0001
2000
,  // measure 46
3001
0100
0000
0100
,  // measure 47
0000
0110
0000
1001
,  // measure 48
1000
0100
0000
0100
,  // measure 49
0000
0110
0000
1001
,  // measure 50
1000
0010
0000
0010
,  // measure 51
0000
0110
0001
0001
,  // measure 52
1000
1000
0100
0100
,  // measure 53
0001
0100
1000
0002
,  // measure 54
1003
0000
1000
0000
,  // measure 55
1000
0000
1000
0000
,  // measure 56
0001
0000
0001
0000
,  // measure 57
0001
0000
0001
0000
,  // measure 58
1000
1000
0010
0010
,  // measure 59
0001
0001
0100
0100
,  // measure 60
1000
0010
0001
1000
,  // measure 61
0100
0000
0001
0000
1000
0000
0000
0002
,  // measure 62
0003
0000
0000
0000
;

//---------------dance-single - ----------------
#NOTES:
     dance-single:
     :
     Beginner:
     3:
     0.112587,0.213477,0.030606,0.145379,0.000000,103.000000,99.000000,4.000000,19.000000,0.000000,0.000000,0.112587,0.213477,0.030606,0.145379,0.000000,103.000000,99.000000,4.000000,19.000000,0.000000,0.000000:
// measure 0
0000
0000
0000
0000
,  // measure 1
0000
0000
0000
0000
,  // measure 2
0000
0000
0000
0000
,  // measure 3
0000
0000
0000
0000
,  // measure 4
1000
0000
0000
0000
,  // measure 5
0001
0000
0000
0000
,  // measure 6
0100
0000
0000
0000
,  // measure 7
0010
0000
0010
0000
,  // measure 8
0010
0000
0100
0000
,  // measure 9
0001
0000
0000
0000
,  // measure 10
1000
0000
0100
0000
,  // measure 11
0010
0000
0002
0003
,  // measure 12
0001
0000
0100
0000
,  // measure 13
0010
0000
0100
0000
,  // measure 14
0001
0000
0010
0000
,  // measure 15
0100
0000
1000
0000
,  // measure 16
0001
0000
0100
0000
,  // measure 17
1000
0000
0000
0000
,  // measure 18
0001
0000
0010
0000
,  // measure 19
1000
0000
0000
0000
,  // measure 20
1000
0000
0100
0000
,  // measure 21
0001
0000
0010
0000
,  // measure 22
1000
0000
0100
0000
,  // measure 23
0010
0000
0001
0000
,  // measure 24
0000
0000
0000
0000
,  // measure 25
0000
0000
0000
0000
,  // measure 26
1000
0010
0100
0100
,  // measure 27
0010
1000
0001
0001
,  // measure 28
0010
0100
1000
1000
,  // measure 29
0001
1000
0001
0000
,  // measure 30
2002
0000
0000
0000
,  // measure 31
3003
0000
0000
0000
,  // measure 32
0220
0000
0000
0000
,  // measure 33
0330
0000
0000
0000
,  // measure 34
2000
0000
3002
0000
,  // measure 35
2003
0000
3002
0000
,  // measure 36
0023
0000
0230
0000
,  // measure 37
0300
0000
0000
0000
,  // measure 38
1000
0000
0000
0110
,  // measure 39
0000
1000
0000
0001
,  // measure 40
0001
0000
0000
0110
,  // measure 41
0000
0001
0000
1000
,  // measure 42
2000
0000
3002
0000
,  // measure 43
2003
3000
2000
3000
,  // measure 44
2000
3000
2000
3000
,  // measure 45
0001
0000
0100
0000
,  // measure 46
0010
0000
0100
0000
,  // measure 47
0001
0000
0000
0000
,  // measure 48
1000
0000
0100
0000
,  // measure 49
0010
0000
0000
0000
,  // measure 50
0001
0000
0100
0000
,  // measure 51
0010
0000
0100
0000
,  // measure 52
0001
0000
0010
0000
,  // measure 53
0100
0000
1000
0000
,  // measure 54
0001
0000
0000
0000
,  // measure 55
0001
0000
0000
0000
,  // measure 56
1000
0000
0000
0000
,  // measure 57
1000
0000
0000
0000
,  // measure 58
0020
0000
1000
0000
,  // measure 59
1000
0000
1000
0000
,  // measure 60
1000
0000
1000
0000
,  // measure 61
1000
0000
2000
0000
,  // measure 62
3030
0000
0000
0000
;
