#VERSION:0.83;
#TITLE:Miracle Moon ~L.E.D.LIGHT STYLE MIX~;
#SUBTITLE:;
#ARTIST:Togo Project feat.Sana;
#TITLETRANSLIT:;
#SUBTITLETRANSLIT:;
#ARTISTTRANSLIT:;
#GENRE:;
#ORIGIN:;
#CREDIT:MUINELIM;
#BANNER:Miracle Moon ~L.E.D.LIGHT STYLE MIX~.png;
#BACKGROUND:Miracle Moon ~L.E.D.LIGHT STYLE MIX~-bg.png;
#PREVIEWVID:;
#JACKET:Miracle Moon ~L.E.D.LIGHT STYLE MIX~-jacket.png;
#CDIMAGE:;
#DISCIMAGE:;
#LYRICSPATH:;
#CDTITLE:;
#MUSIC:Miracle Moon ~L.E.D.LIGHT STYLE MIX~.ogg;
#OFFSET:0.000000;
#SAMPLESTART:34.783001;
#SAMPLELENGTH:15.000000;
#SELECTABLE:YES;
#DISPLAYBPM:138.000000;
#BPMS:0.000=138.462,
4.000=137.931,
44.000=138.007;
#STOPS:;
#DELAYS:;
#WARPS:;
#TIMESIGNATURES:0.000=4=4;
#TICKCOUNTS:0.000=4;
#COMBOS:0.000=1;
#SPEEDS:0.000=1.000=0.000=0;
#SCROLLS:0.000=1.000;
#FAKES:;
#LABELS:0.000=Song Start;
#BGCHANGES:;
#KEYSOUNDS:;
#ATTACKS:
;

//---------------dance-single - ----------------
#NOTEDATA:;
#CHARTNAME:;
#STEPSTYPE:dance-single;
#DESCRIPTION:;
#CHARTSTYLE:;
#DIFFICULTY:Beginner;
#METER:3;
#RADARVALUES:0.118956,0.139401,0.009913,0.039652,0.000000,84.000000,83.000000,1.000000,4.000000,0.000000,0.000000,0.000000,0.000000,0.000000,0.118956,0.139401,0.009913,0.039652,0.000000,84.000000,83.000000,1.000000,4.000000,0.000000,0.000000,0.000000,0.000000,0.000000;
#CREDIT:MILEN;
#DISPLAYBPM:138.000000;
#NOTES:
0000
0000
0000
0000
,
0000
0000
0000
0000
,
0000
0000
0000
0000
,
1000
0000
0000
0000
,
0000
0000
0000
0000
,
0001
0000
0000
0000
,
0000
0000
0000
0000
,
1000
0000
1000
0000
,
1000
0000
0000
0000
,
0001
0000
0001
0000
,
0001
0000
0000
0000
,
1001
0000
0000
0000
,
1000
0000
0000
0000
,
0001
0000
0000
0000
,
1000
0000
1000
0000
,
0001
0000
0001
0000
,
1000
0000
0001
0000
,
1000
0000
0001
0000
,
0100
0000
0010
0000
,
0200
0000
0300
0000
,
0001
0000
1000
0000
,
0001
0000
1000
0000
,
0010
0000
0100
0000
,
0010
0000
0100
0000
,
0001
0000
1000
0000
,
0001
0000
1000
0000
,
0010
0000
0100
0000
,
0020
0000
0030
0000
,
0010
0000
0000
0000
,
0020
0000
0030
0000
,
0010
0000
0000
0000
,
0010
0000
1000
0000
,
0010
0000
1000
0000
,
0001
0000
0100
0000
,
0001
0000
0100
0000
,
0010
0000
1000
0000
,
0100
0000
0010
0000
,
0001
0000
0100
0000
,
0001
0000
0000
0000
,
1000
0000
0010
0000
,
1000
0000
0000
0000
,
0100
0000
1000
0000
,
0100
0000
0000
0000
,
0010
0000
0001
0000
,
0010
0000
0000
0000
,
0001
0000
1000
0000
,
0010
0000
0000
0000
,
1000
0000
0001
0000
,
0100
0000
0000
0000
,
0010
0000
1000
0000
,
0100
0000
0000
0000
,
0010
0000
0001
0000
,
0100
0000
0000
0000
,
0010
0000
0100
0000
,
0010
0000
0000
0000
,
0100
0000
0010
0010
,
0020
0030
0000
0000
;

//---------------dance-single - ----------------
#NOTEDATA:;
#CHARTNAME:;
#STEPSTYPE:dance-single;
#DESCRIPTION:;
#CHARTSTYLE:;
#DIFFICULTY:Easy;
#METER:5;
#RADARVALUES:0.226582,0.277563,0.099130,0.039652,0.000000,160.000000,150.000000,10.000000,4.000000,0.000000,0.000000,0.000000,0.000000,0.000000,0.226582,0.277563,0.099130,0.039652,0.000000,160.000000,150.000000,10.000000,4.000000,0.000000,0.000000,0.000000,0.000000,0.000000;
#CREDIT:MILEN;
#DISPLAYBPM:138.000000;
#NOTES:
0000
0000
0000
0000
,
0000
0000
0000
0000
,
0000
0000
0000
0000
,
1000
0000
1000
0000
,
1000
0000
1000
0000
,
0001
0000
0001
0000
,
0001
0000
0001
0001
,
0001
0100
0001
0000
,
0100
0010
0100
0000
,
0010
1000
0010
0000
,
1000
0001
1000
0001
,
1001
0000
0000
0000
,
1000
0000
0000
0000
,
0001
0000
0000
0000
,
1000
0000
0001
0000
,
1000
0001
1000
1001
,
0001
0010
0001
0000
,
1000
0100
1000
0000
,
0010
0100
0010
0100
,
0020
0000
0030
0000
,
0010
1000
0001
0000
,
0100
0001
1000
0000
,
0010
1000
0001
0100
,
0000
0100
0020
0130
,
0000
0100
0001
1000
,
0000
0010
1000
0001
,
0100
0010
1000
0001
,
1001
0000
1000
0000
,
0010
0000
0100
0000
,
0001
0000
0010
0000
,
0100
0000
1000
0000
,
0001
0100
0001
0000
,
1000
0010
1000
0000
,
1001
0001
1000
0001
,
0100
0010
1000
0100
,
0010
0001
1000
0100
,
0020
0000
0000
0030
,
0001
0100
0010
0000
,
0010
0100
0001
0000
,
1000
0100
0010
0000
,
0010
0100
1000
0000
,
0001
0010
0100
0000
,
0100
0010
0001
0000
,
1000
0010
0100
0000
,
0100
0010
1000
1001
,
0001
0010
0100
1000
,
0100
0000
0110
0000
,
1000
0010
0100
0001
,
0100
0000
0110
0000
,
1000
0010
0001
0010
,
1000
0000
1100
0000
,
0001
0010
1000
0010
,
0001
0000
0101
0000
,
1000
0000
0010
0000
,
0001
0000
0100
0000
,
1000
0001
0020
0130
,
0110
0000
0000
0000
;

//---------------dance-double - ----------------
#NOTEDATA:;
#CHARTNAME:;
#STEPSTYPE:dance-double;
#DESCRIPTION:;
#CHARTSTYLE:;
#DIFFICULTY:Easy;
#METER:5;
#RADARVALUES:0.216669,0.277563,0.118956,0.049565,0.000000,153.000000,141.000000,12.000000,5.000000,0.000000,0.000000,0.000000,0.000000,0.000000,0.216669,0.277563,0.118956,0.049565,0.000000,153.000000,141.000000,12.000000,5.000000,0.000000,0.000000,0.000000,0.000000,0.000000;
#CREDIT:MILEN;
#DISPLAYBPM:138.000000;
#NOTES:
00000000
00000000
00000000
00000000
,
00000000
00000000
00000000
00000000
,
00000000
00000000
00000000
00000000
,
00010000
00000000
00010000
00000000
,
00010000
00000000
00010000
00000000
,
00001000
00000000
00001000
00000000
,
00001000
00000000
00001000
00001000
,
00001000
00010000
00000010
00000000
,
00010000
00001000
00100000
00000000
,
00001000
00010000
00000100
00000000
,
00010000
00001000
01000000
00001000
,
00011000
00000000
00000000
00000000
,
00010000
00000000
00000000
00000000
,
00001000
00000000
00000000
00000000
,
00010000
00000000
00001000
00000000
,
00010000
00001000
00010000
00011000
,
00001000
00010000
00100000
00000000
,
00010000
00001000
00000010
00000000
,
00001000
00010000
01000000
10000000
,
20020000
00000000
30030000
00000000
,
00010000
00000000
00100000
00000000
,
01000000
00000000
00010000
00000000
,
00001000
00000010
00000001
00000000
,
00000001
00000100
00001000
00000000
,
00010000
00000000
00000100
00000000
,
00000010
00000000
00001000
00000000
,
00010000
01000000
10000000
00010000
,
10010000
00000000
10000000
00000000
,
00100000
00000000
00010000
00000000
,
00001000
00000000
00000100
00000000
,
00000001
00000000
00000010
00000000
,
00001000
00010000
00000100
00000000
,
00010000
00001000
01000000
00000000
,
01100000
00000000
00100000
00000000
,
10000000
00000000
01000000
00000000
,
00010000
00001000
00000010
00000001
,
00002002
00000000
00000000
00003003
,
00001000
00000010
00010000
00000000
,
00001000
00010000
00000100
00000000
,
00010000
00001000
00100000
00000000
,
00001000
01000000
00010000
00000000
,
00100000
01000000
10000000
00000000
,
00100000
00010000
00001000
00000000
,
00010000
00001000
00000010
00000000
,
00000100
00000010
00000001
00001001
,
00001000
00000010
00010000
00001000
,
00100000
00000000
01100000
00000000
,
00010000
01000000
00001000
00010000
,
00000100
00000000
00000110
00000000
,
00000001
00000100
00001000
00010000
,
00100000
00000000
10100000
00000000
,
10000000
01000000
00010000
00001000
,
00000010
00000000
00000011
00000000
,
00001000
00000000
00000100
00000000
,
00000010
00000000
00001000
00000000
,
00010000
01000000
20000000
30010000
,
10010000
00000000
00000000
00000000
;

//---------------dance-single - ----------------
#NOTEDATA:;
#CHARTNAME:;
#STEPSTYPE:dance-single;
#DESCRIPTION:;
#CHARTSTYLE:;
#DIFFICULTY:Medium;
#METER:8;
#RADARVALUES:0.399351,0.420062,0.327128,0.118956,0.034695,282.000000,249.000000,33.000000,12.000000,0.000000,0.000000,0.000000,0.000000,0.000000,0.399351,0.420062,0.327128,0.118956,0.034695,282.000000,249.000000,33.000000,12.000000,0.000000,0.000000,0.000000,0.000000,0.000000;
#CREDIT:MILEN;
#DISPLAYBPM:138.000000;
#NOTES:
0000
0000
0000
0000
,
0000
0000
0000
0000
,
0000
0000
0000
0000
,
1000
1000
1000
0000
,
0001
0000
0001
0000
0001
0000
0000
1000
,
1000
0000
0001
0000
1000
0000
0000
0001
,
0001
1000
0001
1000
,
1001
0000
0001
0100
0001
0000
0010
0000
,
0100
0000
1000
0010
1000
0000
0001
0000
,
1001
0000
1000
0001
1000
0000
0010
0000
,
0110
0100
0110
0010
,
2002
0000
0000
3003
,
1010
0000
0000
0000
,
0101
0000
0000
0000
0000
0000
0000
0001
,
0011
0000
1100
0000
,
1001
0001
1001
1000
,
0010
0100
0010
0000
1000
0000
0001
0000
,
0100
0010
0100
0000
0001
0000
1000
0000
,
0010
1000
0010
0000
0100
0001
0100
0000
,
0220
0330
0000
0020
0000
0000
1030
0100
,
0010
0000
0010
0001
0100
0000
0100
0010
,
1000
0000
1000
0100
0010
0000
0010
0001
,
1000
0100
0010
0100
0000
0100
1000
0000
,
0001
0100
0010
0100
0000
0100
0001
0000
,
0001
1000
0010
0000
0010
0100
0001
0000
,
0001
0010
0100
0000
0100
1000
0010
0000
,
0010
0100
0010
0100
0001
1000
0001
1000
,
0200
0000
0000
0300
,
1000
0100
0010
0001
0000
0000
0010
0100
,
0020
0000
0000
0030
,
0001
0100
0010
1000
0000
0010
0100
0010
,
0110
1000
0100
0010
,
0110
0001
0100
0010
,
1010
1000
0011
0001
,
1100
1000
0101
0001
,
1000
0010
0100
0000
0001
0010
0100
0000
,
1000
0010
0100
0010
0100
0001
0100
0001
,
0010
0001
0100
0010
,
1010
0000
0000
0000
1000
0000
0001
0000
0010
0000
0000
0010
0000
0000
0010
0000
,
0100
1000
0010
0110
,
0100
0001
0010
0002
0000
1003
0100
1000
,
0010
0100
0001
1000
,
1010
0000
0000
0000
0010
0000
0100
0000
0001
0000
0000
0001
0000
0000
0001
0000
,
1000
0100
0010
0001
,
0101
1000
1010
0001
,
1001
0000
0000
0000
1000
0000
1000
0000
0010
0000
0000
0100
0000
0000
0001
0000
,
0010
0011
0100
1100
,
1000
0000
0000
0000
0010
0000
0100
0000
0001
0000
0000
1000
0000
0000
0010
0000
,
0100
0101
0010
1010
,
1000
0001
0010
0001
0100
0000
0010
1000
,
0100
0000
0000
0000
0001
0000
0100
0000
1000
0000
0000
0010
0000
0000
0100
0000
,
0010
0000
0000
0000
0001
0000
0010
0000
1000
0000
0000
0100
0000
0000
0010
0000
,
0100
1100
0010
0011
,
0002
0100
0000
1003
,
2000
0010
0000
3001
,
0001
0000
0010
0000
0100
0000
1000
0000
0010
0000
0000
0110
0000
0000
0101
0000
,
2002
0000
3003
0000
;

//---------------dance-double - ----------------
#NOTEDATA:;
#CHARTNAME:;
#STEPSTYPE:dance-double;
#DESCRIPTION:;
#CHARTSTYLE:;
#DIFFICULTY:Medium;
#METER:9;
#RADARVALUES:0.390854,0.420062,0.307302,0.109043,0.034695,276.000000,245.000000,31.000000,11.000000,0.000000,0.000000,0.000000,0.000000,0.000000,0.390854,0.420062,0.307302,0.109043,0.034695,276.000000,245.000000,31.000000,11.000000,0.000000,0.000000,0.000000,0.000000,0.000000;
#CREDIT:MILEN;
#DISPLAYBPM:138.000000;
#NOTES:
00000000
00000000
00000000
00000000
,
00000000
00000000
00000000
00000000
,
00000000
00000000
00000000
00000000
,
00001000
00010000
00000100
00000000
,
00010000
00000000
00001000
00000000
00100000
00000000
00000000
00001000
,
00001000
00000000
00010000
00000000
00000010
00000000
00000000
00010000
,
00010000
00001000
01000000
00001000
,
00011000
00000000
00010000
00001000
00010000
00000000
00000100
00000000
,
00001000
00000000
00000001
00000100
00000001
00000000
00001000
00000000
,
00001001
00000000
00000001
00000010
00000001
00000000
00000100
00000000
,
00000010
00001000
00010000
01000000
,
20020000
00000000
00000000
30030000
,
10010000
00000000
00000000
00000000
,
01100000
00000000
00000000
00000000
00000000
00000000
00000000
00010000
,
00011000
00000000
00000110
00000000
,
00001001
00000001
00000100
00001000
,
00010000
00001000
00010000
00000000
00000100
00000000
00000010
00000000
,
00001000
00010000
00001000
00000000
00100000
00000000
01000000
00000000
,
00010000
00001000
00000100
00000000
00001000
00010000
01000000
00000000
,
22000000
03000000
00000000
30100000
00000000
00000000
00100000
00010000
,
00001000
00000000
00010000
00001000
00000100
00000000
00001000
00000100
,
00000001
00000000
00000100
00000001
00000010
00000000
00000001
00000010
,
00000100
00000010
00000000
00000011
00000000
00001000
00000000
00001100
,
00000000
00010000
00000000
00011000
00000000
01000000
00000000
01010000
,
00000000
00010000
00100000
00000000
00010000
00100000
01000000
00000000
,
10000000
00100000
01000000
00000000
00100000
00010000
00001000
00000000
,
00010000
00000100
00001000
00000100
00000010
00000100
00000010
00000001
,
00002000
00000000
00000000
00003000
,
00000001
00000100
00000010
00001000
00000000
00000000
00000100
00010000
,
00002000
00000000
00000000
00003000
,
00100000
00010000
10000000
00100000
00000000
01000000
00001000
00010000
,
00011000
00001000
00000010
00000001
,
00001001
00001000
00000010
00010000
,
00011000
00001000
00101000
00100000
,
01100000
01000000
11000000
10000000
,
00100000
00010000
00001000
00000000
00000010
00001000
00010000
00000000
,
01000000
00010000
00001000
00010000
00001000
00000100
00000001
00000100
,
00000001
00000010
00000100
00010000
,
00011000
00000000
00000000
00000000
00001000
00000000
00100000
00000000
00010000
00000000
00000000
00010000
00000000
00000000
00010000
00000000
,
10000000
00100000
01000000
01010000
,
00010000
00100000
01000000
00020000
00000000
00031000
00000010
00000100
,
00000010
00000001
00000100
00001000
,
00011000
00000000
00000000
00000000
00010000
00000000
00100000
00000000
10000000
00000000
00000000
10000000
00000000
00000000
10000000
00000000
,
01000000
00100000
00010000
01000000
,
01001000
00001000
00011000
00010000
,
00010100
00000000
00000000
00000000
00000100
00000000
00000100
00000000
00000010
00000000
00000000
00000001
00000000
00000000
00001000
00000000
,
00000010
00000100
00000001
00000011
,
00000010
00000000
00000000
00000000
00001000
00000000
00001000
00000000
00010000
00000000
00000000
00100000
00000000
00000000
10000000
00000000
,
01000000
00100000
00010000
01010000
,
01000000
00100000
10000000
00010000
00100000
00000000
01000000
00010000
,
00001000
00000000
00000000
00000000
00010000
00000000
00001000
00000000
00000100
00000000
00000000
00000100
00000000
00000000
00000001
00000000
,
00000010
00000000
00000000
00000000
00000100
00000000
00000010
00000000
00001000
00000000
00000000
00010000
00000000
00000000
01000000
00000000
,
10000000
10100000
00100000
00110000
,
00020000
00001000
00000000
00030010
,
00002000
00010000
00000000
01003000
,
00010000
00000000
00001000
00000000
00000100
00000000
00000001
00000000
00000010
00000000
00000000
00001010
00000000
00000000
00001000
00000000
,
00022000
00000000
00033000
00000000
;

//---------------dance-single - ----------------
#NOTEDATA:;
#CHARTNAME:;
#STEPSTYPE:dance-single;
#DESCRIPTION:;
#CHARTSTYLE:;
#DIFFICULTY:Hard;
#METER:12;
#RADARVALUES:0.556542,0.646945,0.475822,0.396519,0.257737,393.000000,345.000000,48.000000,40.000000,0.000000,0.000000,0.000000,0.000000,0.000000,0.556542,0.646945,0.475822,0.396519,0.257737,393.000000,345.000000,48.000000,40.000000,0.000000,0.000000,0.000000,0.000000,0.000000;
#CREDIT:MILEN;
#DISPLAYBPM:138.000000;
#NOTES:
0000
0000
0000
0000
,
0000
0000
0000
0000
,
0000
0000
0000
0000
,
1000
0000
0000
0000
0001
0000
0000
0000
1000
0000
0000
1000
0000
0000
1000
0000
,
1000
0000
0000
0000
0001
0000
1000
0000
0001
0000
0000
0001
0000
0000
0001
0000
,
1001
0000
0000
0000
1000
0000
0001
0000
1000
0000
0000
1000
0000
0000
1000
0000
,
0001
0000
0000
0000
1000
0000
0001
0000
1000
0000
0000
0001
0000
0000
1000
0000
,
1001
0000
0000
0000
0001
0000
0001
0000
0100
0000
0000
0010
0000
0000
1000
0000
,
1010
0000
0000
0000
1000
0000
1000
0000
0100
0000
0000
0010
0000
0000
0001
0000
,
0011
0000
0000
0000
0001
0000
0001
0000
0100
0000
0000
1000
0000
0000
0100
0000
,
0101
0011
1100
1010
,
2002
0000
0000
3003
,
0011
0000
0000
0000
,
1010
0000
0000
0000
0000
0000
0000
1100
,
1100
0000
0101
0000
,
1001
0000
0000
0000
0110
0000
0000
0000
1001
0000
0000
0000
0001
1000
0001
0000
,
0010
0100
0010
0001
0100
0010
0100
0000
,
0010
0100
0010
1000
0100
0010
0100
0000
,
1000
0010
0001
0010
1000
0100
0010
0001
,
2002
0000
3003
0000
0000
0000
0220
0000
0030
0000
0000
0310
1000
0000
0010
0000
,
1010
1000
0100
0010
0100
1000
0010
0100
,
0010
1000
0100
0001
0100
1000
0020
0100
,
0130
0000
0100
0001
0010
0001
0000
0001
0000
0002
0000
0000
1000
0000
1003
0000
,
0000
0000
1000
0010
0100
0000
0001
0100
0000
0001
2000
0000
0000
0000
0000
0000
,
3010
0100
0001
0010
0100
0010
0001
0100
,
0010
0100
0001
0010
1000
0010
0001
0100
,
0020
0000
1030
0000
0002
0000
0103
0000
0100
0010
0100
0000
0001
1000
0001
0000
,
2000
0100
0000
3100
,
0100
0010
0002
0100
0003
1000
0100
0010
,
0002
0100
0000
0103
,
0001
0000
0100
0000
0020
0000
1000
0000
0030
0000
0000
0100
0001
0000
0010
0000
,
0011
0001
0100
1000
0100
0001
0010
0100
,
1100
1000
0010
0102
0000
1003
1010
0000
,
0011
0000
1100
0000
0011
0000
0110
0001
,
1001
0000
1010
0000
0101
0000
1010
0100
,
0100
0001
0010
1000
0001
0100
1000
0010
,
0100
0001
0100
0000
0001
0010
0001
0000
1000
0100
1000
0000
0010
1000
0010
1000
,
0001
0000
0010
0000
0100
0000
1000
0000
1010
0000
0000
0010
0000
0000
0100
0000
,
0101
0000
0000
0000
0001
0000
1000
0000
0020
0000
0000
0230
0000
0000
0301
0010
,
0001
0000
1000
0000
0010
0000
0100
0000
0101
0000
0000
0001
0000
0000
0010
0100
,
0010
0000
0100
0000
1000
0000
0010
0200
0000
0000
1300
0000
0100
0000
0001
0000
,
0010
0000
1000
0000
0010
0000
0001
0000
0011
0000
0000
0010
0000
0000
0100
0000
,
1100
0000
0000
0000
1000
0000
0001
0000
0020
0000
0000
0230
0000
0000
1300
0010
,
1000
0000
0001
0000
0010
0000
0100
0000
1100
0000
0000
1000
0000
0000
0010
0100
,
0010
0000
0100
0000
0001
0000
0010
0200
0000
0000
0301
0000
0100
0000
1000
0000
,
1010
0000
0010
0100
0001
0000
0010
0000
0002
0000
0000
0203
0000
0000
0310
0000
,
0110
0000
0000
0000
0100
0000
0010
0000
2000
0000
0000
3002
0000
0000
0013
0100
,
0010
0000
0100
1000
0010
0000
0100
0000
0020
0000
0000
2030
0000
0000
3001
0100
,
0001
0000
0010
0000
0100
0000
1000
0020
0000
0000
0031
0000
0010
0000
1000
0000
,
1100
0000
0100
0000
0010
0000
0001
0000
0200
0000
0000
0302
0000
0000
1003
0000
,
1001
0000
0000
0000
0001
0000
0100
0000
0020
0000
0000
2030
0000
0000
3100
0010
,
0001
0000
0100
0000
0010
0000
1000
0000
0002
0000
0000
0023
0000
0000
0130
1000
,
0001
0000
0100
0000
0010
0000
1000
0200
0000
0000
0301
0000
0100
0000
1000
0000
,
1020
0001
0000
0130
,
0201
0000
0000
0000
1000
0000
0000
0000
0000
0000
0000
0000
0310
0000
0010
1000
,
0001
0000
0010
0000
0100
0000
1000
0000
1010
0000
0000
0011
0000
0000
0101
0000
,
2002
0000
0000
3003
;

//---------------dance-double - ----------------
#NOTEDATA:;
#CHARTNAME:;
#STEPSTYPE:dance-double;
#DESCRIPTION:;
#CHARTSTYLE:;
#DIFFICULTY:Hard;
#METER:12;
#RADARVALUES:0.546629,0.590689,0.475822,0.366780,0.247824,386.000000,338.000000,48.000000,37.000000,0.000000,0.000000,0.000000,0.000000,0.000000,0.546629,0.590689,0.475822,0.366780,0.247824,386.000000,338.000000,48.000000,37.000000,0.000000,0.000000,0.000000,0.000000,0.000000;
#CREDIT:MILEN;
#DISPLAYBPM:138.000000;
#NOTES:
00000000
00000000
00000000
00000000
,
00000000
00000000
00000000
00000000
,
00000000
00000000
00000000
00000000
,
00001000
00000000
00000000
00000000
00010000
00000000
00000000
00000000
00000010
00000000
00000000
00000010
00000000
00000000
00000010
00000000
,
00000010
00000000
00000000
00000000
00010000
00000000
00001000
00000000
00100000
00000000
00000000
00100000
00000000
00000000
00100000
00000000
,
00101000
00000000
00000000
00000000
00001000
00000000
00010000
00000000
00000100
00000000
00000000
00000100
00000000
00000000
00000100
00000000
,
00000100
00000000
00000000
00000000
00010000
00000000
00001000
00000000
01000000
00000000
00000000
01000000
00000000
00000000
01000000
00000000
,
01001000
00000000
00000000
00000000
00001000
00000000
00001000
00000000
00010000
00000000
00000000
00000100
00000000
00000000
00000010
00000000
,
00000110
00000000
00000000
00000000
00000100
00000000
00000100
00000000
00000010
00000000
00000000
00000001
00000000
00000000
00001000
00000000
,
00001010
00000000
00000000
00000000
00000010
00000000
00000010
00000000
00010000
00000000
00000000
00001000
00000000
00000000
00100000
00000000
,
01100000
11000000
10100000
00110000
,
00022000
00000000
00000000
00033000
,
01001000
00000000
00000000
00000000
,
00010100
00000000
00000000
00000000
00000000
00000000
00000000
00001000
,
00101000
00000000
00010010
00000000
,
00011000
00000000
00000000
00000000
00001000
00000000
00000000
00000000
00011000
00000000
00000000
00000000
00010000
00001000
00010000
00000000
,
00000100
00001000
00000001
00001000
00000100
00000010
00000001
00001000
,
00000010
00010000
00001000
00100000
00010000
10000000
00010000
00100000
,
01000000
10000000
00100000
00010000
00001000
00000100
00000001
00001000
,
00002002
00000000
00003000
00000000
00000000
00000000
00000203
00000000
00000000
00000000
00000000
00000310
00010000
00000000
00001000
00000000
,
00011000
00010000
01000000
00000000
00011000
00001000
00000100
00000000
,
00011000
00010000
00100000
00000000
00011000
00001000
00000020
00000001
,
00000031
00000000
00000001
00001000
00000010
00001000
00000000
00001000
00000000
00002000
00000000
00000000
00000100
00000000
00003100
00000000
,
00000000
00000000
00000100
00010000
00001000
00000000
00100000
00001000
00000000
00100000
00020000
00000000
00000000
00000000
00000000
00000000
,
10030000
00100000
01100000
00000000
01000000
00001000
00011000
00000000
,
00010000
00000100
00000110
00000000
00000010
00000001
00000101
00000000
,
00000100
00000000
00001000
00000000
00010000
00000000
00100000
00000000
10000000
00000000
01000000
00000000
00010000
00001000
00010000
00001000
,
00020000
00000010
00000000
00030010
,
00000010
00001000
00000200
00000010
00000300
00000001
00000100
00010000
,
00002000
00100000
00000000
00103000
,
00100000
00000000
00010000
00000000
02000000
00000000
00100000
00000000
03000000
00000000
00000000
10000000
01000000
00000000
00010000
00000000
,
00110000
00100000
01000000
00010000
00001000
00000010
00000100
00001000
,
00001010
00000100
00000001
00000021
00000000
00000130
00010100
00000000
,
01001000
00000000
00010010
00000000
01001000
00000000
00010010
00001000
,
00101000
00000000
00010100
00000000
00101000
00000000
00010100
00001000
,
00011000
00010000
01000000
10000000
00100000
00010000
00001000
00000100
,
00000001
00000000
00000010
00000000
00001000
00010000
00001000
00000000
00010000
00000000
01000000
00000000
10000000
00010000
10000000
00010000
,
10000000
00000000
00100000
00000000
01000000
00000000
00010000
00000000
00100000
00000000
00000000
01000000
00000000
00000000
00010000
00000000
,
00011000
00000000
00000000
00000000
00001000
00000000
00000010
00000000
00000002
00000000
00000000
00002003
00000000
00000000
00003010
00000100
,
00000010
00000000
00000100
00000000
00000001
00000000
00000010
00000000
00000110
00000000
00000000
00000100
00000000
00000000
00010000
00001000
,
00010000
00000000
01000000
00000000
10000000
00000000
00100000
02000000
00000000
00000000
03010000
00000000
00100000
00000000
01000000
00000000
,
10000000
00000000
00100000
00000000
00010000
00000000
00001000
00000000
00000100
00000000
00000000
00000001
00000000
00000000
00001000
00000000
,
00001001
00000000
00000000
00000000
00000001
00000000
00000100
00000000
00000020
00000000
00000000
00020030
00000000
00000000
00031000
00100000
,
00001000
00000000
01000000
00000000
00010000
00000000
00100000
00000000
01000000
00000000
00000000
10000000
00000000
00000000
00100000
01000000
,
00100000
00000000
00010000
00000000
00001000
00000000
00000100
00000002
00000000
00000000
00000013
00000000
00000100
00000000
00000010
00000000
,
00000011
00000000
00000001
00001000
00000001
00000000
00000100
00000000
00002000
00000000
00000000
00023000
00000000
00000000
01000000
00000000
,
01030000
00000000
00000000
00000000
01000000
00000000
10000000
00000000
00200000
00000000
00000000
02300000
00000000
00000000
03001000
00010000
,
00001000
00000000
00010000
00000100
00001000
00000000
00000001
00000000
00000200
00000000
00000000
00000320
00000000
00000000
00010030
00001000
,
00010000
00000000
00100000
00000000
10000000
00000000
01000000
00200000
00000000
00000000
00310000
00000000
01000000
00000000
00001000
00000000
,
00011000
00000000
00010000
00000000
00000100
00000000
00000010
00000000
00000002
00000000
00000000
00000203
00000000
00000000
00001000
00000000
,
00001300
00000000
00000000
00000000
00001000
00000000
00010000
00000000
00000200
00000000
00000000
00000320
00000000
00000000
00001030
00010000
,
00001000
00000000
00010000
00000000
01000000
00000000
10000000
00000000
00200000
00000000
00000000
02300000
00000000
00000000
03001000
00010000
,
00000010
00000000
00001000
00000000
00000100
00000000
00000010
00000002
00000000
00000000
00000103
00000000
00001000
00000000
00010000
00000000
,
00012000
00000010
00000000
00103000
,
00021000
00000000
00000000
00000000
01000000
00000000
00000000
00000000
00000000
00000000
00000000
00000000
00030100
00000000
00000100
00000010
,
00000001
00000000
00000100
00000000
00001000
00000000
00010000
00000000
00010010
00000000
00000000
00011000
00000000
00000000
00101000
00000000
,
00022000
00000000
00000000
00033000
;

//---------------dance-single - ----------------
#NOTEDATA:;
#CHARTNAME:;
#STEPSTYPE:dance-single;
#DESCRIPTION:;
#CHARTSTYLE:;
#DIFFICULTY:Challenge;
#METER:15;
#RADARVALUES:0.689659,0.994890,0.555126,0.683995,0.589821,487.000000,431.000000,56.000000,69.000000,20.000000,0.000000,0.000000,0.000000,1.000000,0.689659,0.994890,0.555126,0.683995,0.589821,487.000000,431.000000,56.000000,69.000000,20.000000,0.000000,0.000000,0.000000,1.000000;
#CREDIT:MILEN;
#OFFSET:0.000000;
#BPMS:0.000000=138.462006
,4.000000=137.931000
,44.000000=138.007004
,256.500000=100000000.000000
,259.000000=138.000000
;
#STOPS:;
#DELAYS:;
#WARPS:77.500000=32.000000
;
#TIMESIGNATURES:0.000000=4=4
;
#TICKCOUNTS:0.000000=4
;
#COMBOS:0.000000=1
;
#SPEEDS:0.000000=999.000000=0.000000=0
,4.000000=0.000000=0.000000=0
,4.020833=0.500000=7.979000=0
,24.000000=1.000000=4.000000=0
,40.000000=0.800000=0.125000=0
,40.125000=1.000000=0.125000=0
,41.000000=0.800000=0.125000=0
,41.125000=1.000000=0.125000=0
,42.000000=0.800000=0.125000=0
,42.125000=1.000000=0.125000=0
,43.000000=0.800000=0.125000=0
,43.125000=1.000000=0.125000=0
,44.000000=1.300000=0.500000=0
,44.500000=1.000000=0.500000=0
,45.000000=1.200000=0.500000=0
,45.500000=0.800000=0.500000=0
,46.000000=1.100000=0.500000=0
,46.500000=0.600000=0.500000=0
,48.000000=0.400000=0.125000=0
,48.125000=0.500000=0.125000=0
,52.000000=0.400000=0.125000=0
,52.125000=0.500000=0.125000=0
,56.000000=0.400000=0.125000=0
,56.125000=0.500000=0.125000=0
,58.000000=0.400000=0.125000=0
,58.125000=0.500000=0.125000=0
,60.000000=1.000000=4.000000=0
,76.000000=4.000000=1.500000=0
,109.500000=1.000000=0.000000=0
,110.750000=999.000000=0.000000=0
,111.000000=1.000000=0.000000=0
,111.500000=999.000000=0.000000=0
,111.625000=1.000000=0.000000=0
,138.000000=0.700000=2.000000=0
,155.000000=1.000000=1.000000=0
;
#SCROLLS:0.000000=1.000000
,44.000000=0.000000
,47.000000=1.000000
,63.000000=2.000000
,63.125000=0.000000
,63.250000=2.000000
,63.375000=0.000000
,63.500000=2.000000
,63.625000=0.000000
,63.750000=2.000000
,63.875000=0.000000
,64.000000=1.000000
,76.000000=0.000000
,77.500000=0.250000
,109.500000=0.000000
,110.750000=0.500000
,112.000000=1.000000
,179.000000=2.000000
,179.125000=0.000000
,179.250000=2.000000
,179.375000=0.000000
,179.500000=2.000000
,179.625000=0.000000
,179.750000=2.000000
,179.875000=0.000000
,180.000000=1.000000
,210.500000=2.000000
,210.625000=0.000000
,210.750000=2.000000
,210.875000=0.000000
,211.000000=2.000000
,211.125000=0.000000
,211.250000=2.000000
,211.375000=0.000000
,211.500000=2.000000
,211.625000=0.000000
,211.750000=2.000000
,211.875000=0.000000
,212.000000=1.000000
,242.500000=2.000000
,242.625000=0.000000
,242.750000=2.000000
,242.875000=0.000000
,243.000000=2.000000
,243.125000=0.000000
,243.250000=2.000000
,243.375000=0.000000
,243.500000=2.000000
,243.625000=0.000000
,243.750000=2.000000
,243.875000=0.000000
,244.000000=1.000000
;
#FAKES:;
#LABELS:0.000000=Song Start
;
#DISPLAYBPM:138.000000;
#NOTES:
0000
0000
0000
0000
,
0000
0000
0000
0000
,
0000
0000
0000
0000
,
1001
0000
0000
0000
1001
0000
0000
0000
0002
0000
0000
0203
0000
0000
0310
0000
,
0110
0000
0000
0000
0100
0000
0010
0000
2000
0000
0000
3002
0000
0000
1003
0000
,
1001
0000
0000
0000
0001
0000
0100
0000
0020
0000
0000
2030
0000
0000
3100
0000
,
1100
0000
0000
0000
1000
0000
0100
0000
0020
0000
0000
0032
0000
0000
0103
0000
,
0101
0000
0001
0000
0010
0000
0100
0000
0010
0000
0001
0100
000M
0100
1000
0000
,
1200
0000
0300
0000
1000
0000
0010
0000
0100
0000
0001
0010
000M
0010
1000
0000
,
1001
0000
1000
0000
0010
0000
0100
0000
0010
0000
1000
0100
M000
0100
0001
0000
,
0012
0103
2010
3100
0102
0013
2100
3010
,
0220
0000
0000
0000
0000
0000
0000
0330
,
1001
0001
0000
0100
0000
1000
0000
0100
,
1001
1000
0000
0010
0000
0001
0000
0010
,
1010
1000
0000
0001
0101
0100
0000
0010
,
0110
0000
1000
0000
1010
0000
0001
0000
0101
0000
0100
0000
0001
0010
0100
1000
,
0100
M000
0000
0100
0001
0000
1000
0000
0010
M000
0000
0010
0001
0000
1000
0000
,
1100
0000
0000
0100
1000
0000
0001
0000
0010
000M
0000
0010
1000
0000
0001
0000
,
0101
0000
0000
0100
0001
0000
1000
0000
0010
M000
0000
0010
0001
0000
1000
0000
,
1001
0000
0000
0000
0000
0000
0000
0000
0000
0000
0000
0000
0000
0000
0000
0000
0000
0000
0000
0000
0000
0000
0000
0000
0000
0000
0000
0000
0000
0000
0000
0000
0000
0000
0000
00M0
0000
0000
0000
0000
0000
0000
0000
0000
0000
0000
0000
0000
0000
0000
0000
0000
0000
0000
0000
0000
0000
0000
0000
0000
0000
0000
0000
0000
,
0000
0000
0000
0000
,
0000
0000
0000
0000
,
0000
0000
0000
0000
,
0000
0000
0000
0000
,
0000
0000
0000
0000
,
0000
0000
0000
0000
,
0000
0000
0000
0000
,
0000
0000
0000
0000
,
0020
0000
0000
1030
0100
0000
1000
0000
1010
0000
M000
0010
0001
0000
0100
0000
,
0101
0000
000M
0100
1000
0000
0010
0000
1010
0000
M000
0010
0001
0000
0100
0000
,
0101
0000
0001
0010
0100
2000
0000
0010
0000
3010
0000
0000
0110
0000
0202
0000
,
0303
0000
0001
0100
0010
0000
0001
0010
0000
1000
0010
0000
0200
0000
0301
0010
,
0100
00M0
0000
0100
0001
0000
0010
0000
0011
0000
000M
0010
1000
0000
0100
0000
,
1100
0000
M000
0100
0001
0000
0010
0000
0011
0000
000M
0010
1000
0000
0100
0000
,
2100
0000
3010
0000
0210
0000
0301
0000
0001
0010
0100
0010
0100
1000
0010
0100
,
0001
0000
1000
0000
0100
0000
1000
0000
0001
0000
1000
0000
0100
1000
0100
1000
,
0002
0203
0320
2030
0000
0000
0001
3001
,
1000
0000
0001
0000
0100
0000
0001
0000
1000
0000
0001
0000
0100
0001
0100
0001
,
2000
0000
3200
0000
0320
0000
0032
0000
0000
0000
0000
0103
0010
0000
0100
0000
,
0101
0001
0010
0100
1100
1000
0100
0010
,
0011
0001
0100
2010
0000
3001
0101
0000
,
0100
0010
0100
0000
0001
0010
0001
0000
1000
0100
1000
0000
0001
1000
0001
0000
,
1000
0010
1000
0000
0001
0100
0002
0000
0023
0000
0230
0000
2300
0000
3020
0000
,
0130
0001
0010
0001
0100
0000
0110
0000
0010
1000
0100
1000
0010
0000
0110
0000
,
0100
0001
0100
0001
0010
0100
0010
0100
1000
0001
1000
0001
0100
0010
1000
0001
,
0020
0000
0130
1000
0100
0000
1000
0000
1010
0000
0000
0010
0000
0000
0100
0000
,
0101
0000
0000
0000
0001
0000
0010
0000
0200
0000
0000
0320
0000
0000
0130
1000
,
0001
0000
0100
0000
0010
0000
1000
0000
1001
0000
0000
0110
0000
0000
0010
1000
,
0001
0000
0100
0000
1000
0000
0100
0002
0000
0000
0023
0000
0100
0000
0130
0000
,
1100
0000
1000
0010
0100
0000
0001
0000
0011
0000
0000
0010
0000
0000
0100
0000
,
1100
0000
0000
0000
1000
0000
0010
0000
0200
0000
0000
0320
0000
0000
0130
0001
,
1000
0000
0100
0000
0001
0000
0100
0000
2000
0000
0000
3020
0000
0000
0130
0001
,
0010
000M
0010
1000
0100
M000
0100
0001
0010
000M
0010
1000
0100
0010
0001
0100
,
0020
0000
1030
0001
0010
0000
1000
0000
0020
0000
0000
0032
0000
0000
0100
0000
,
0103
0000
0000
0000
0110
0000
0100
0010
2000
0000
0000
3002
0000
0000
0013
0100
,
1000
0000
0001
0010
0100
0000
0001
0000
0200
0000
0000
2300
0000
0000
3010
0100
,
0001
0000
1000
0000
0010
0000
0001
0020
0000
0000
2030
0000
3200
0000
0320
0000
,
0032
0000
1003
0010
0100
0000
1000
0000
0200
0000
0000
0302
0000
0000
0010
0000
,
0013
0000
0000
0000
0110
0000
0010
0100
2000
0000
0000
3002
0000
0000
0103
0010
,
1000
0000
0001
0100
1000
0000
0100
0000
0102
0000
0000
0023
0000
0000
0130
1000
,
0010
M000
0010
0001
0100
000M
0100
1000
0010
M000
0010
0001
1000
0100
0010
0001
,
1000
0000
0010
0100
0010
0000
0001
0000
0020
0000
0000
2030
0000
0000
3001
0000
,
0101
0000
0000
0000
0100
0000
1000
0000
0200
0000
0000
0302
0000
0000
1003
0010
,
0001
0000
0010
1000
0001
0000
0010
0000
0110
0000
0000
1100
0000
0000
0101
0000
,
2002
0000
0000
3003
;

//---------------dance-double - ----------------
#NOTEDATA:;
#CHARTNAME:;
#STEPSTYPE:dance-double;
#DESCRIPTION:;
#CHARTSTYLE:;
#DIFFICULTY:Challenge;
#METER:15;
#RADARVALUES:0.678330,0.930703,0.436170,0.664169,0.495648,479.000000,435.000000,44.000000,67.000000,0.000000,0.000000,0.000000,0.000000,2.000000,0.678330,0.930703,0.436170,0.664169,0.495648,479.000000,435.000000,44.000000,67.000000,0.000000,0.000000,0.000000,0.000000,2.000000;
#CREDIT:MILEN;
#OFFSET:0.000000;
#BPMS:0.000000=138.462006
,4.000000=137.931000
,44.000000=138.007004
,256.500000=100000000.000000
,259.000000=138.000000
;
#STOPS:;
#DELAYS:;
#WARPS:77.500000=32.000000
;
#TIMESIGNATURES:0.000000=4=4
;
#TICKCOUNTS:0.000000=4
;
#COMBOS:0.000000=1
;
#SPEEDS:0.000000=999.000000=0.000000=0
,4.000000=0.000000=0.000000=0
,4.020833=0.500000=7.979000=0
,24.000000=1.000000=4.000000=0
,40.000000=0.800000=0.125000=0
,40.125000=1.000000=0.125000=0
,41.000000=0.800000=0.125000=0
,41.125000=1.000000=0.125000=0
,42.000000=0.800000=0.125000=0
,42.125000=1.000000=0.125000=0
,43.000000=0.800000=0.125000=0
,43.125000=1.000000=0.125000=0
,44.000000=1.300000=0.500000=0
,44.500000=1.000000=0.500000=0
,45.000000=1.200000=0.500000=0
,45.500000=0.800000=0.500000=0
,46.000000=1.100000=0.500000=0
,46.500000=0.600000=0.500000=0
,48.000000=0.400000=0.125000=0
,48.125000=0.500000=0.125000=0
,52.000000=0.400000=0.125000=0
,52.125000=0.500000=0.125000=0
,56.000000=0.400000=0.125000=0
,56.125000=0.500000=0.125000=0
,58.000000=0.400000=0.125000=0
,58.125000=0.500000=0.125000=0
,60.000000=1.000000=4.000000=0
,76.000000=4.000000=1.500000=0
,109.500000=1.000000=0.000000=0
,110.750000=999.000000=0.000000=0
,111.000000=1.000000=0.000000=0
,111.500000=999.000000=0.000000=0
,111.625000=1.000000=0.000000=0
,138.000000=0.700000=2.000000=0
,155.000000=1.000000=1.000000=0
;
#SCROLLS:0.000000=1.000000
,44.000000=0.000000
,47.000000=1.000000
,63.000000=2.000000
,63.125000=0.000000
,63.250000=2.000000
,63.375000=0.000000
,63.500000=2.000000
,63.625000=0.000000
,63.750000=2.000000
,63.875000=0.000000
,64.000000=1.000000
,76.000000=0.000000
,77.500000=0.250000
,109.500000=0.000000
,110.750000=0.500000
,112.000000=1.000000
,179.000000=2.000000
,179.125000=0.000000
,179.250000=2.000000
,179.375000=0.000000
,179.500000=2.000000
,179.625000=0.000000
,179.750000=2.000000
,179.875000=0.000000
,180.000000=1.000000
,210.500000=2.000000
,210.625000=0.000000
,210.750000=2.000000
,210.875000=0.000000
,211.000000=2.000000
,211.125000=0.000000
,211.250000=2.000000
,211.375000=0.000000
,211.500000=2.000000
,211.625000=0.000000
,211.750000=2.000000
,211.875000=0.000000
,212.000000=1.000000
,242.500000=2.000000
,242.625000=0.000000
,242.750000=2.000000
,242.875000=0.000000
,243.000000=2.000000
,243.125000=0.000000
,243.250000=2.000000
,243.375000=0.000000
,243.500000=2.000000
,243.625000=0.000000
,243.750000=2.000000
,243.875000=0.000000
,244.000000=1.000000
;
#FAKES:;
#LABELS:0.000000=Song Start
;
#DISPLAYBPM:138.000000;
#NOTES:
00000000
00000000
00000000
00000000
,
00000000
00000000
00000000
00000000
,
00000000
00000000
00000000
00000000
,
00011000
00000000
00000000
00000000
00011000
00000000
00000000
00000000
00020000
00000000
00000000
02030000
00000000
00000000
13000000
00000000
,
10010000
00000000
00000000
00000000
10000000
00000000
00100000
00000000
00020000
00000000
00000000
00032000
00000000
00000000
00013000
00000000
,
00011000
00000000
00000000
00000000
00010000
00000000
00001000
00000000
00000200
00000000
00000000
00000302
00000000
00000000
00001003
00000000
,
00001001
00000000
00000000
00000000
00000001
00000000
00000010
00000000
00002000
00000000
00000000
00023000
00000000
00000000
00031000
00000000
,
00011000
00000000
00010000
00000000
00000100
00000000
00001000
00000000
00000001
00000000
00000100
00000010
00000100
00000010
00000100
00000000
,
00000101
00000000
00000001
00000000
00000010
00000000
00001000
00000000
00010000
00000000
01000000
00100000
01000000
00100000
01000000
00000000
,
11000000
00000000
10000000
00000000
00010000
00000000
01000000
00000000
00100000
00000000
00010000
00001000
00010000
00001000
00010000
00000000
,
00012000
01003000
00021000
00030100
00012000
00103000
00021000
00030010
,
00022000
00000000
00000000
00000000
00000000
00000000
00000000
00033000
,
00011000
00010000
00000000
01000000
00000000
10000000
00000000
00010000
,
00011000
00001000
00000000
00000010
00000000
00000001
00000000
00001000
,
00011000
01000000
00000000
00010000
00011000
00000100
00000000
00001000
,
00011000
00000000
00100000
00000000
00101000
00000000
00000010
00000000
00010010
00000000
00010000
00000000
00001000
00010000
00001000
00010000
,
00001000
00000000
00000000
00100000
00010000
00000000
01000000
00000000
10000000
00000000
00000000
01000000
00010000
00000000
00100000
00000000
,
01000000
00000000
00000000
00010000
00001000
00000000
00010000
00000000
00100000
00000000
00000000
00010000
00001000
00000000
00000010
00000000
,
00001000
00000000
00000000
00010000
00001000
00000000
00000010
00000000
00000100
00000000
00000000
00000010
00000001
00000000
00000100
00000000
,
00011000
00000000
00000000
00000000
00000000
00000000
00000000
00000000
00000000
00000000
00000000
00000000
00000000
00000000
00000000
00000000
00000000
00000000
00000000
00000000
00000000
00000000
00000000
00000000
00000000
00000000
00000000
00000000
00000000
00000000
00000000
00000000
00000000
00000000
00000000
000MM000
00000000
00000000
00000000
00000000
00000000
00000000
00000000
00000000
00000000
00000000
00000000
00000000
00000000
00000000
00000000
00000000
00000000
00000000
00000000
00000000
00000000
00000000
00000000
00000000
00000000
00000000
00000000
00000000
,
00000000
00000000
00000000
00000000
,
00000000
00000000
00000000
00000000
,
00000000
00000000
00000000
00000000
,
00000000
00000000
00000000
00000000
,
00000000
00000000
00000000
00000000
,
00000000
00000000
00000000
00000000
,
00000000
00000000
00000000
00000000
,
00000000
00000000
00000000
00000000
,
00011000
00010000
01000000
00010000
00001000
00000100
00001000
00010000
,
01000000
10000000
00100000
00010000
00000010
00001000
00100000
00010000
,
00001000
00000000
00000010
00000100
00000010
00000002
00000000
00000100
00000000
00000103
00000000
00000000
00000110
00000000
00002020
00000000
,
00003030
00000000
00001000
00000100
00000010
00000000
00001000
00010000
00000000
01000000
10000000
00000000
00200000
00000000
01300000
00001000
,
00010000
00001000
00000100
00001000
00010000
01000000
00010000
00001000
,
00000100
00000001
00000010
00001000
00100000
00010000
00000010
00001000
,
00021000
00000000
00030100
00000000
00012000
00000000
01003000
00000000
01000000
00010000
00100000
01000000
00100000
01000000
10000000
00100000
,
01000000
00000000
00100000
00000000
00010000
00000000
00001000
00000000
00000100
00000000
00000010
00000000
00001000
00000001
00001000
00000001
,
00000200
00002300
00023000
00230000
00000000
00000000
10000000
10300000
,
10000000
00000000
00100000
00000000
00010000
00000000
00001000
00000000
00000100
00000000
00000001
00000000
00000010
00000100
00000010
00000100
,
00002000
00000000
00003020
00000000
00020030
00000000
00032000
00000000
00000000
00000000
00000000
00103000
01000000
00000000
00100000
00000000
,
00110000
00010000
10000000
00100000
00010000
00001000
00100000
01000000
,
00010000
00001000
00000010
00000210
00000000
00001300
00001001
00000000
,
00000001
00000100
00000010
00000000
00000100
00000010
00001000
00000000
00000100
00010000
00001000
00000000
00010000
00001000
00100000
00000000
,
00010000
01000000
00100000
00000000
01000000
00100000
20000000
00000000
32000000
00000000
03020000
00000000
00032000
00000000
00003020
00000000
,
00000031
00000100
00000010
00000100
00000001
00000000
00000010
00000000
00001000
00010000
00000100
00010000
00001000
00000000
01000000
00000000
,
00010000
00100000
00010000
00100000
01000000
10000000
01000000
10000000
00100000
01000000
00100000
01000000
00010000
00100000
00001000
00010000
,
00000020
00000000
00001030
00000100
00000010
00000000
00000001
00000000
00000101
00000000
00000000
00000100
00000000
00000000
00000010
00000000
,
00010010
00000000
00000000
00000000
00010000
00000000
00001000
00000000
00200000
00000000
00000000
02300000
00000000
00000000
13000000
00100000
,
01000000
00000000
10000000
00000000
01000000
00000000
00010000
00000000
00110000
00000000
00000000
11000000
00000000
00000000
10000000
00010000
,
00100000
00000000
01000000
00000000
00010000
00000000
00001000
00020000
00000000
00000000
00030200
00000000
00001000
00000000
00001300
00000000
,
00001010
00000000
00000010
00000100
00000001
00000000
00001000
00000000
00001010
00000000
00000000
00000010
00000000
00000000
00010000
00000000
,
00011000
00000000
00000000
00000000
00001000
00000000
00100000
00000000
02000000
00000000
00000000
23000000
00000000
00000000
30100000
00010000
,
00001000
00000000
00010000
00000000
01000000
00000000
00010000
00000000
00002000
00000000
00000000
00003200
00000000
00000000
00000301
00000010
,
00000100
00000000
00000100
00001000
00010000
00000000
00001000
00010000
01000000
00000000
01000000
00100000
10000000
00010000
00100000
01000000
,
20000000
00000000
30100000
01000000
00010000
00000000
10000000
00000000
00200000
00000000
00000000
00320000
00000000
00000000
00001000
00000000
,
00031000
00000000
00000000
00000000
00011000
00000000
00010000
00000100
00002000
00000000
00000000
00003002
00000000
00000000
00000103
00000010
,
00001000
00000000
00000100
00000010
00000001
00000000
00000100
00000000
00002000
00000000
00000000
00023000
00000000
00000000
00130000
10000000
,
01000000
00000000
10000000
00000000
00100000
00000000
00010000
00002000
00000000
00000000
00203000
00000000
02300000
00000000
03020000
00000000
,
00032000
00000000
00003010
00000100
00001000
00000000
00000001
00000000
00000200
00000000
00000000
00000320
00000000
00000000
00010000
00000000
,
00010030
00000000
00000000
00000000
00011000
00000000
00001000
00100000
02000000
00000000
00000000
03020000
00000000
00000000
00031000
00100000
,
00010000
00000000
01000000
00100000
00010000
00000000
00100000
00000000
20100000
00000000
00000000
32000000
00000000
00000000
03100000
00010000
,
10000000
00000000
10000000
01000000
00010000
00000000
00001000
00000100
00000001
00000000
00000010
00000100
00000010
00000100
00001000
00000001
,
00000010
00000000
00001000
00000010
00000001
00000000
00000100
00000000
00000020
00000000
00000000
00020030
00000000
00000000
00031000
00000000
,
00011000
00000000
00000000
00000000
00010000
00000000
01000000
00000000
20000000
00000000
00000000
30200000
00000000
00000000
01300000
00010000
,
00100000
00000000
01000000
00010000
00001000
00000000
00000010
00000000
00000011
00000000
00000000
00010100
00000000
00000000
01001000
00000000
,
20020000
00000000
00000000
30030000
;
