#VERSION:0.83;
#TITLE:Milly Barll;
#SUBTITLE:;
#ARTIST:ミリバルゼ;
#TITLETRANSLIT:;
#SUBTITLETRANSLIT:;
#ARTISTTRANSLIT:Milly Barllze;
#GENRE:;
#ORIGIN:;
#TAGS:;
#CREDIT:;
#BANNER:Milly Barll.png;
#BACKGROUND:Milly Barll-bg.png;
#PREVIEWVID:;
#JACKET:Milly Barll-jacket.png;
#CDIMAGE:;
#DISCIMAGE:;
#LYRICSPATH:;
#CDTITLE:cdtitle.png;
#MUSIC:Milly Barll.ogg;
#OFFSET:0.000000;
#SAMPLESTART:42.805000;
#SAMPLELENGTH:10.377000;
#SELECTABLE:YES;
#BPMS:0.000000=185.024994
;
#STOPS:;
#DELAYS:;
#WARPS:;
#TIMESIGNATURES:0.000000=4=4
;
#TICKCOUNTS:0.000000=4
;
#COMBOS:0.000000=1
;
#SPEEDS:0.000000=1.000000=0.000000=0
;
#SCROLLS:0.000000=1.000000
;
#FAKES:;
#LABELS:0.000000=Song Start
;
#BGCHANGES:;
#KEYSOUNDS:;
#ATTACKS:
;

//---------------dance-single - ----------------
#NOTEDATA:;
#CHARTNAME:;
#CHARTHASH:3562830783;
#STEPSTYPE:dance-single;
#BANNER:;
#DESCRIPTION:;
#CHARTSTYLE:;
#DIFFICULTY:Beginner;
#METER:4;
#METERF:0.000000;
#LASTSECONDHINT:105.066879;
#RADARVALUES:0.145813,0.217568,0.188022,0.000000,0.000000,114.000000,93.000000,21.000000,0.000000,0.000000,0.000000,0.000000,0.000000,0.000000,0.145813,0.217568,0.188022,0.000000,0.000000,114.000000,93.000000,21.000000,0.000000,0.000000,0.000000,0.000000,0.000000,0.000000;
#CREDIT:MEGAtive;
#NOTES:
0000
0000
0000
0000
,
0000
0000
0000
0000
,
0000
0000
0000
0000
,
0000
0000
0000
0000
,
0000
0000
0000
0000
,
1000
0000
0000
0000
,
0000
0000
0000
0000
,
0001
0000
0000
0000
,
0000
0000
0000
0000
,
1001
0000
0000
0000
,
1000
0000
0000
0000
,
0010
0000
0000
0000
,
0100
0000
0000
0000
,
0001
0000
0000
0000
,
0010
0000
0000
0000
,
0100
0000
0000
0000
,
1000
0000
0000
0000
,
0001
0000
0000
0000
,
0100
0000
0000
0000
,
0010
0000
0000
0000
,
1000
0000
0000
0000
,
0001
0000
0000
0000
,
1001
0000
0000
0000
,
1000
0000
0000
0000
,
1001
0000
0000
0000
,
1001
0000
0000
0000
,
0000
0000
0000
0000
,
0110
0000
0000
0000
,
0000
0000
0000
0000
,
1001
0000
0000
0000
,
0110
0000
0000
0000
,
1001
0000
0000
0000
,
0110
0000
0000
0000
,
1001
0000
0000
0000
,
0001
0000
0000
0000
,
0100
0000
0000
0000
,
0100
0000
0000
0100
,
0010
0000
0000
0000
,
0010
0000
0000
0000
,
1000
0000
0000
0000
,
1000
0000
0000
1000
,
0001
0000
0000
0000
,
0001
0000
0000
0000
,
0010
0000
0000
0000
,
0010
0000
0000
0010
,
0100
0000
0000
0000
,
1001
0000
0000
0000
,
0110
0000
0000
0000
,
1001
0000
0000
0000
,
0000
1001
0000
0000
,
1000
0000
0100
0000
,
0010
0000
0000
0000
,
0001
0000
1000
0000
,
0010
0000
0000
0000
,
0100
0000
0001
0000
,
1000
0000
0000
0000
,
0001
0000
0010
0000
,
0100
0000
0000
0000
,
0010
0000
0001
0000
,
1000
0000
0000
0000
,
0001
0000
0100
0000
,
0010
0000
0000
0000
,
1000
0000
0001
0000
,
0010
0000
0000
0000
,
0110
0000
0000
0000
,
1001
0000
0000
0000
,
1001
0000
0000
0000
,
0110
0000
0000
0000
,
0110
0000
0000
0000
,
1001
0000
0000
0000
,
0110
0000
0000
0000
,
1000
0000
1000
0000
,
0001
0000
0001
0000
,
0010
0000
0100
0000
,
1000
0000
0001
0000
,
1000
0000
0010
0000
,
0100
0000
0001
0000
,
0010
0000
0100
0000
,
0010
0000
0001
0000
,
1000
0000
0010
0000
,
0100
0000
0001
0000
,
0010
0000
0000
0000
;

//---------------dance-single - ----------------
#NOTEDATA:;
#CHARTNAME:;
#CHARTHASH:2886075446;
#STEPSTYPE:dance-single;
#BANNER:;
#DESCRIPTION:;
#CHARTSTYLE:;
#DIFFICULTY:Easy;
#METER:7;
#METERF:0.000000;
#LASTSECONDHINT:105.066879;
#RADARVALUES:0.310812,0.362614,0.143255,0.000000,0.000000,243.000000,227.000000,16.000000,0.000000,0.000000,0.000000,0.000000,0.000000,0.000000,0.310812,0.362614,0.143255,0.000000,0.000000,243.000000,227.000000,16.000000,0.000000,0.000000,0.000000,0.000000,0.000000,0.000000;
#CREDIT:MEGAtive;
#NOTES:
0000
0000
0000
0000
,
0000
0000
0000
0000
,
0000
0000
0000
0000
,
0000
0000
0000
0000
,
0000
0000
0000
0000
,
0001
0000
0000
0000
,
0010
0000
0000
0000
,
0100
0000
0000
0000
,
1000
0000
0000
0000
,
0001
0100
0001
0000
,
1000
1000
1000
0000
,
0001
0010
0001
0000
,
1000
0010
0010
1000
,
0001
0010
0001
0000
,
1000
1000
1000
0000
,
0001
0100
0001
0000
,
1000
0100
0100
1000
,
0001
0100
0010
0000
,
1000
1000
1000
0000
,
0001
0010
0100
0000
,
1000
0001
0001
0100
,
0010
1000
0001
0000
,
0010
0001
1000
0000
,
0010
0100
0001
1000
,
0100
0000
0000
0000
,
1001
0000
0000
0000
,
1000
0000
0000
0001
,
0101
0000
0000
0000
,
0100
0000
0000
0001
,
0011
0000
0000
1000
,
1010
0000
0000
0001
,
0001
1000
1000
0100
,
0100
0010
0001
1000
,
0001
0100
0010
0100
,
0001
1000
1000
0000
,
0100
0010
0100
1000
,
0001
0100
0100
0001
,
1000
0100
0010
0100
,
1000
0001
0001
0000
,
0100
0010
0100
0001
,
1000
0100
0100
0010
,
0001
1000
0010
0100
,
0010
1000
1000
0000
,
0001
1000
0100
1000
,
0001
0100
0100
0000
,
1001
0000
0001
0100
,
1001
0000
1000
0100
,
1001
0001
0010
0010
,
0100
0000
0000
1000
,
0001
1001
0000
1000
,
0010
0010
0100
0001
,
1000
0000
0100
0000
,
1000
1000
0001
0100
,
0010
0000
1000
0000
,
0001
0001
1000
0100
,
0010
0000
0100
0000
,
1000
1000
0001
0100
,
0010
0000
1000
0000
,
0001
0001
0010
0100
,
1000
0000
0001
0000
,
0010
0010
0001
1000
,
0010
0000
0100
0000
,
0010
0010
1000
0001
,
0010
0000
0100
0000
,
1001
0000
0000
0000
,
1001
0000
0001
0000
,
0100
0000
0100
0000
,
1001
0000
1000
0000
,
0100
0000
0100
0000
,
1001
0000
1001
0000
,
0110
0000
0110
0000
,
1001
1000
0010
1000
,
0001
0010
0001
0010
,
0100
1000
0001
1000
,
0010
0100
0010
1000
,
0001
0010
0100
0010
,
0001
1000
0010
0100
,
0001
0001
0001
0001
,
0010
0010
0010
0010
,
0100
0100
0100
0100
,
1000
1000
1000
1000
,
0001
0000
0000
0000
;

//---------------dance-single - ----------------
#NOTEDATA:;
#CHARTNAME:;
#CHARTHASH:1410949515;
#STEPSTYPE:dance-single;
#BANNER:;
#DESCRIPTION:;
#CHARTSTYLE:;
#DIFFICULTY:Medium;
#METER:10;
#METERF:0.000000;
#LASTSECONDHINT:105.066879;
#RADARVALUES:0.473253,0.507660,0.259650,0.000000,0.053721,370.000000,341.000000,29.000000,0.000000,0.000000,0.000000,0.000000,0.000000,0.000000,0.473253,0.507660,0.259650,0.000000,0.053721,370.000000,341.000000,29.000000,0.000000,0.000000,0.000000,0.000000,0.000000,0.000000;
#CREDIT:MEGAtive;
#NOTES:
0000
0000
0000
0000
,
0000
0000
0000
0000
,
0000
0000
0000
0000
,
0000
0000
0000
0000
,
0000
0000
0000
0000
,
0001
0010
0001
0000
,
1000
0010
1000
0000
,
0001
0010
0100
0000
,
1000
0010
0100
0000
,
1001
0000
0001
0000
0010
0100
0010
0000
,
0001
0000
0001
1000
0010
1000
0010
0000
,
0100
0000
0100
0000
0010
1000
0010
0000
,
1000
0000
1000
0001
0010
0001
0010
0000
,
0001
0000
0001
0000
0010
0100
0010
0000
,
0001
0000
0001
1000
0010
1000
0010
0000
,
0100
0000
0100
0000
0010
1000
0010
0000
,
0100
0000
0100
0001
1000
0000
0100
0000
,
1001
0000
0001
0000
1000
0100
0010
0000
,
0100
0000
0100
0010
0001
1000
0001
0000
,
0100
0000
0100
0000
0010
1000
0001
0000
,
1000
0000
1000
0001
0010
0100
0010
0000
,
0110
0000
0100
0000
0010
0001
1000
0000
,
1010
0000
0010
0000
0100
0001
1000
0000
,
0100
0010
0001
0000
0100
0010
1000
0000
,
0001
0011
1000
1010
,
0001
0000
0001
0000
,
0010
0000
0010
0100
,
1001
0000
1000
0000
,
0010
0000
0010
0100
,
1001
0000
0000
0001
,
1100
0000
0000
1000
,
0101
0001
0011
0010
,
0110
0100
0100
0100
,
1000
0100
1000
0000
0001
0000
0100
0000
,
0010
1000
0010
0000
0100
0000
0000
0000
,
0001
0100
0001
0000
1000
0000
0100
0000
,
0010
0001
0010
0000
0100
0000
1000
0000
,
0001
0100
0001
0000
1000
0000
0010
0000
,
0100
0001
0010
0000
0100
0000
0000
0000
,
1000
0100
1000
0000
0001
0000
0100
0000
,
0010
1000
0001
1000
0100
0000
1001
0000
,
0001
0100
0010
0000
0100
0000
0001
0000
,
1000
0010
0100
0000
0010
0000
1000
0000
,
0001
0010
0100
0000
0010
0000
0001
0000
,
1000
0100
0010
0000
0100
0000
1000
0000
,
0001
0100
0010
0000
1000
0000
1000
0000
,
0001
0010
0100
0000
1000
0000
1001
0000
,
0001
0100
1000
0000
1000
0100
0001
0000
,
1001
0000
0000
0100
,
1001
0000
1000
0000
0010
0000
0100
0001
,
1000
0000
0000
0100
0000
0000
1000
0000
0000
0010
0000
0000
0100
0000
0000
0000
,
0010
0000
0010
0000
1000
0000
0001
1000
,
0100
0000
0000
0010
0000
0000
0100
0000
0000
1000
0000
0000
0001
0000
0000
0000
,
0100
0000
0100
0000
0001
0000
0010
0100
,
1000
0000
0000
0010
0000
0000
0100
0000
0000
0001
0000
0000
0010
0000
0000
0000
,
0100
0000
0100
0000
0010
0000
0001
0100
,
0010
0110
0100
0110
,
1001
0000
0001
0000
0010
0000
0100
1000
,
0001
0000
0000
0100
0000
0000
1000
0000
0000
0100
0000
0000
0001
0000
0000
0000
,
0001
0000
1000
0000
0010
0000
0100
0001
,
1000
0000
0000
0100
0000
0000
0001
0000
0000
0100
0000
0000
1000
0000
0000
0000
,
1000
0000
0001
0000
0010
0000
0100
1000
,
0001
0000
0000
0100
0000
0000
1000
0000
0000
0100
0000
0000
0001
0000
0000
0000
,
0001
0010
0100
1000
,
1001
0000
0000
0001
,
1001
0000
1000
0000
,
1010
0000
0010
0000
,
0110
0000
0100
0000
,
0101
0000
0001
1000
,
1001
0000
0011
0000
,
1001
0000
1010
0000
,
0001
0100
0010
0100
,
0001
0010
0100
1000
,
0001
1000
0010
0000
1000
0001
0010
0000
,
0001
1000
0010
0000
1000
0001
0010
0000
,
0100
1000
0001
0000
0100
0001
1000
0000
,
0100
1000
0001
0000
0100
0001
1000
0000
,
0100
0010
0100
0010
0001
0000
0100
0000
,
0010
1000
0010
1000
0001
0000
0010
0000
,
0100
1000
0100
1000
0001
0000
0100
0000
,
0010
1000
0010
1000
0001
0000
0010
0000
,
1001
0000
0000
0000
;

//---------------dance-single - ----------------
#NOTEDATA:;
#CHARTNAME:;
#CHARTHASH:58757648;
#STEPSTYPE:dance-single;
#BANNER:;
#DESCRIPTION:;
#CHARTSTYLE:;
#DIFFICULTY:Hard;
#METER:13;
#METERF:0.000000;
#LASTSECONDHINT:105.066879;
#RADARVALUES:0.628019,0.652705,0.179069,0.000000,0.196976,491.000000,471.000000,20.000000,0.000000,0.000000,0.000000,0.000000,0.000000,0.000000,0.628019,0.652705,0.179069,0.000000,0.196976,491.000000,471.000000,20.000000,0.000000,0.000000,0.000000,0.000000,0.000000,0.000000;
#CREDIT:MEGAtive;
#NOTES:
0000
0000
0000
0000
,
0000
0000
0000
0000
,
0000
0000
0000
0000
,
0000
0000
0000
0000
,
0000
0000
0000
0000
,
1000
1000
0010
0010
,
0100
0100
0001
0001
,
1000
1000
0100
0100
,
0010
0000
0010
0000
0001
0000
0001
0100
,
0010
0000
0000
1000
0000
0000
1000
0000
0001
0000
1000
0000
0100
0000
0010
0000
,
0100
0000
0000
1000
0000
0000
1000
0000
0001
0000
0100
0000
0010
0000
0000
0000
,
0100
0000
0000
0001
0000
0000
0001
0000
1000
0000
0001
0000
0010
0000
0100
0000
,
0010
0000
0000
0001
0000
0000
0001
0000
0100
0000
0010
0000
0100
0000
0001
0000
,
0010
0000
0000
0100
0000
0000
0100
0000
0010
0000
0001
0000
1000
0000
0001
0000
,
0100
0000
0000
0010
0000
0000
0010
0000
0100
0000
0001
0000
0010
0000
0000
0000
,
0100
0000
0000
0010
0000
0000
0010
0000
0100
0000
1000
0000
0001
0000
1000
0000
,
0010
0000
0000
0100
0000
0000
0100
0000
0010
0000
1000
0000
0100
0000
0100
0000
,
0010
0000
0000
1000
0000
0000
1000
0000
0010
0000
0001
0000
1000
0000
0010
0000
,
0100
0000
0000
1000
0000
0000
1000
0000
0100
0000
0001
0000
0010
0000
0000
0000
,
0100
0000
0000
0001
0000
0000
0001
0000
0100
0000
1000
0000
0001
0000
0100
0000
,
0010
0000
0000
0001
0000
0000
0001
0000
0010
0000
0100
0000
0010
0000
1000
0000
,
0100
0000
0000
0001
0000
0000
0001
0000
0100
0000
1000
0000
0010
0000
0000
0000
,
0100
0000
0000
1000
0000
0000
1000
0000
0100
0000
0001
0000
0010
0000
0000
0000
,
0100
1000
0010
0100
0001
0010
0100
1000
,
0010
0100
0001
0010
0001
0100
0010
0010
,
1000
0000
0000
0010
0000
0010
0000
0000
0100
0000
0000
0100
0000
0000
0000
0000
,
0001
0000
0000
0010
0000
0010
0000
0000
0100
0000
0000
0100
1000
0000
0001
0000
,
0100
0000
0000
0010
0000
0010
0000
0000
1000
0000
0000
1000
0000
0000
0000
0000
,
0100
0000
0000
0010
0000
0010
0000
0000
0001
0000
0000
0001
1000
0000
0010
0000
,
0100
0000
0000
1000
0000
1000
0000
0000
0100
0000
0000
0100
0010
0000
1000
0000
,
0100
0000
0000
0001
0000
0001
0000
0000
0100
0000
0000
0100
0010
0000
0000
0000
,
1001
0001
0101
0100
,
0110
0000
0110
0000
1001
0000
1001
0001
,
1000
0100
0001
0000
0001
0100
1000
0000
,
1000
0100
0001
0000
0001
0100
1000
0001
,
1000
0010
0001
0000
0001
0010
1000
0000
,
1000
0010
0001
0000
0001
0010
1000
0001
,
1000
0100
0001
0000
0001
0100
1000
0000
,
0001
0100
1000
0000
1000
0100
0001
1000
,
0001
0010
1000
0000
1000
0010
0001
0000
,
1000
0010
0001
0010
0100
0001
0010
0000
,
0001
0010
0100
0001
0100
1000
0010
0000
,
1000
0010
0100
1000
0100
0001
0010
0000
,
0001
0010
0100
0001
0100
1000
0010
0000
,
1000
0010
0100
1000
0100
0001
0010
0000
,
1001
0001
1000
0010
0001
0010
0100
0000
,
1001
0001
1000
0100
0001
0100
0010
0000
,
0001
0100
0010
1000
0100
0010
0001
0100
,
0010
0010
0010
0010
,
1001
0000
0001
1000
0010
0000
0010
0100
,
0010
0000
0000
0001
0000
0000
1000
0000
0000
0100
0000
0000
0010
0000
0100
0000
,
0001
0000
1000
0001
0010
0100
1000
0000
,
0100
0000
0000
0001
0000
0000
1000
0000
0000
0010
0000
0000
0100
0000
0010
0000
,
0001
0000
1000
0001
0100
0010
0100
0000
,
0010
0000
0000
0001
0000
0000
1000
0000
0000
0100
0000
0000
0010
0000
0100
0000
,
0001
0000
1000
0001
0010
0100
1000
0000
,
0100
0001
0100
1000
0010
0100
0001
0010
,
1001
0000
0001
1000
0010
0000
0010
0100
,
0010
0000
0000
0001
0000
0000
1000
0000
0000
0100
0000
0000
0010
0000
0100
0000
,
0001
0000
1000
0001
0010
0100
1000
0000
,
0100
0000
0000
0001
0000
0000
1000
0000
0000
0010
0000
0000
0100
0000
0010
0000
,
0001
0000
1000
0001
0100
0010
0100
0000
,
0010
0000
0000
0001
0000
0000
1000
0000
0000
0100
0000
0000
0010
0000
0100
0000
,
0001
0000
1000
0001
0010
0100
1000
0000
,
0100
0100
0100
0100
,
1001
0001
0100
0001
,
1000
0100
0010
0001
,
1000
0010
0100
0010
,
1000
0100
0010
0100
,
1001
0001
0101
0100
,
0110
0010
1010
1000
,
1001
0010
1001
0100
,
1001
0010
1001
0100
,
0001
0100
0001
0100
0010
1000
0010
1000
,
0001
0010
0001
0010
0100
1000
0100
1000
,
0001
0100
0001
0100
0010
1000
0010
1000
,
0001
0010
0001
0010
0100
1000
0100
1000
,
0010
0100
0001
0010
0100
1000
0010
0100
,
0001
0010
0100
1000
0010
0100
0001
0010
,
0100
0100
1000
1000
0001
0001
0100
0100
,
0010
0010
1000
1000
0100
0100
0010
0010
,
1001
0000
0000
0000
;

//---------------dance-single - ----------------
#NOTEDATA:;
#CHARTNAME:;
#CHARTHASH:1590584553;
#STEPSTYPE:dance-single;
#BANNER:;
#DESCRIPTION:;
#CHARTSTYLE:;
#DIFFICULTY:Challenge;
#METER:18;
#METERF:0.000000;
#LASTSECONDHINT:105.066879;
#RADARVALUES:1.029645,1.196626,0.223836,0.000000,1.163946,805.000000,780.000000,25.000000,0.000000,0.000000,0.000000,0.000000,0.000000,0.000000,1.029645,1.196626,0.223836,0.000000,1.163946,805.000000,780.000000,25.000000,0.000000,0.000000,0.000000,0.000000,0.000000,0.000000;
#CREDIT:MEGAtive;
#NOTES:
// measure 0
0000
0000
0000
0000
,  // measure 1
0000
0000
0000
0000
,  // measure 2
0000
0000
0000
0000
,  // measure 3
0000
0000
0000
0000
,  // measure 4
0000
0000
0000
0000
,  // measure 5
1000
0000
0001
0100
0000
0001
0100
0000
0010
0000
1000
0100
0000
1000
0100
0000
,  // measure 6
0010
0000
0001
0010
0000
0100
0010
0000
0001
0010
0001
1000
0010
0000
0000
0000
,  // measure 7
0100
0000
0010
1000
0000
0010
1000
0000
0100
0000
0010
0001
0000
0010
0001
0000
,  // measure 8
0100
0000
0010
0100
0000
0001
0100
0000
0010
0000
1000
0000
1001
0000
0001
0000
,  // measure 9
1000
0000
0010
0100
0000
0010
1000
0000
0010
0100
0001
0000
1000
0000
0100
0000
,  // measure 10
0010
0000
0100
1000
0000
0100
0010
0000
0100
1000
0001
0000
0100
0000
0000
0000
,  // measure 11
0010
0000
0100
0001
0000
0100
0010
0000
0100
0001
1000
0000
0100
0000
0010
0000
,  // measure 12
0100
0000
1000
0001
0000
1000
0010
0000
1000
0001
0010
0000
0100
1000
0100
1000
,  // measure 13
0010
0000
0100
0001
0000
0100
0010
0000
0100
0001
1000
0000
0100
0000
0010
0000
,  // measure 14
0100
0000
0010
0001
0000
0010
0100
0000
0010
0001
1000
0000
0010
0000
0000
0000
,  // measure 15
0100
0000
0010
1000
0000
0010
0100
0000
0010
1000
0100
0000
0010
0000
0100
0000
,  // measure 16
1000
0000
0001
0010
0000
0001
1000
0000
0001
0100
0010
0000
0110
0000
0100
0000
,  // measure 17
0001
0000
0010
0100
0000
0010
0001
0000
0010
0100
1000
0000
0001
0000
0100
0000
,  // measure 18
0010
0000
0100
0001
0000
0100
0010
0000
0100
0001
1000
0000
0100
0000
0000
0000
,  // measure 19
0010
0000
0100
1000
0000
0100
0010
0000
0100
1000
0001
0000
0100
0000
0010
0000
,  // measure 20
0100
0000
0001
1000
0000
0001
0010
0000
0001
1000
0010
0000
0100
0001
0100
0001
,  // measure 21
0010
0000
0100
1000
0000
0100
0010
0000
0100
1000
0001
0000
0100
0000
0010
1000
,  // measure 22
0100
0000
0010
0001
0000
0010
0100
0000
0010
0001
1000
0000
0010
0000
0000
0000
,  // measure 23
0100
0010
0100
0001
1000
0100
0010
0100
1000
0001
1000
0010
0100
0001
1000
0001
,  // measure 24
0010
0000
0100
1000
0010
0000
0100
0001
0010
0000
0100
1000
0010
0000
0010
0000
,  // measure 25
0100
0000
0001
0010
0000
0010
0000
0100
0010
0000
0100
0010
0000
0100
1000
0000
,  // measure 26
0001
0000
0100
0010
0000
0010
0000
0100
0010
0000
0100
0010
1000
0000
0000
0000
,  // measure 27
1000
0000
0001
0010
0000
0010
0000
0100
0010
0000
0100
0010
0000
0100
1000
0000
,  // measure 28
0001
0000
0100
0010
0000
0010
0000
0100
0010
0000
0100
0010
1000
0000
0000
0000
,  // measure 29
1000
0000
0001
0010
0000
0010
0000
0100
0010
0000
0100
0000
1001
0000
1000
0000
,  // measure 30
0001
0000
0100
0010
0000
0010
0000
0100
0010
0000
0100
0000
1001
0000
0000
0000
,  // measure 31
1001
0001
0011
0010
0110
0100
1100
1000
,  // measure 32
0001
0000
0001
0010
0001
0000
1000
0010
1000
0000
0001
0010
0100
0010
0100
0000
,  // measure 33
1000
0000
0001
1000
0100
0000
0100
1000
0001
0000
0001
1000
0100
0010
0100
0010
,  // measure 34
0001
0000
1000
0001
0100
0000
0100
0001
1000
0000
1000
0001
0100
0010
0100
0010
,  // measure 35
1000
0000
0001
0010
0100
0000
0100
0010
0001
0000
0001
0010
0100
1000
0001
1000
,  // measure 36
0010
0000
1000
0010
0100
0000
0100
0010
1000
0000
1000
0010
0100
0001
1000
0001
,  // measure 37
0010
0000
0001
1000
0010
0000
0010
1000
0001
0000
0001
1000
0010
0100
0010
0100
,  // measure 38
0001
0000
1000
0001
0010
0000
0010
0001
1000
0000
1000
0001
0010
0100
0010
0100
,  // measure 39
1000
0000
0001
0100
0010
0000
0010
0100
0001
0000
0001
0100
0010
1000
0001
1000
,  // measure 40
0100
0000
1000
0100
0010
0000
0001
0100
0010
0000
1000
0000
1001
0000
0001
1000
,  // measure 41
0100
0000
0100
1000
0010
0000
0010
1000
0100
0000
0100
1000
0010
0100
0010
1000
,  // measure 42
0001
0000
0010
0001
0100
0000
0100
0001
0010
0000
0010
0001
0100
0010
0100
0001
,  // measure 43
1000
0000
0100
1000
0010
0000
0010
1000
0100
0000
0100
1000
0010
0100
0010
1000
,  // measure 44
0001
0000
0010
0001
0100
0000
0100
0001
0010
0000
0010
0001
0100
0010
0100
0001
,  // measure 45
1000
0000
0100
1000
0010
0000
0010
1000
0100
0000
0100
1000
0010
0100
0010
1000
,  // measure 46
0001
0000
0010
0001
0100
0000
0100
0001
0010
0000
0010
0001
0100
0000
0110
0000
,  // measure 47
0010
1000
0001
1000
0100
0010
0001
1000
0001
0100
0010
1000
0001
0010
0100
0010
,  // measure 48
0001
0000
0000
0000
0001
0000
0000
0000
0001
0000
0000
0000
0010
0001
0100
0010
,  // measure 49
1000
0000
0000
0000
0001
0010
0100
0000
0010
0001
0000
0001
0100
0000
0010
0000
,  // measure 50
0001
0000
0001
0010
0000
0010
0100
0000
0100
0001
1000
0000
0100
0000
0100
0000
,  // measure 51
0010
0000
0100
1000
0000
1000
0010
0000
0010
0100
0000
0100
0001
0000
0010
0000
,  // measure 52
1000
0000
1000
0010
0000
0010
0100
0000
0100
0010
0000
0010
0001
1000
0001
1000
,  // measure 53
0010
0000
0100
0001
0000
0001
0010
0000
0010
0100
0000
0100
1000
0000
0010
0000
,  // measure 54
0001
0000
0001
0010
0000
0010
0100
0000
0100
0001
1000
0000
0100
0000
0100
0000
,  // measure 55
0010
0000
0100
1000
0000
1000
0010
0000
0010
0100
0000
0100
0001
0000
0010
0000
,  // measure 56
1000
0000
1000
0010
0100
0000
0100
0010
0001
0000
1000
0000
1010
0000
0001
0000
,  // measure 57
0010
0000
0100
1000
0000
1000
0010
0000
0010
0100
0000
0100
0001
0000
0010
0000
,  // measure 58
1000
0000
1000
0010
0000
0010
0100
0000
0100
1000
0001
0000
0100
0000
0100
0000
,  // measure 59
0010
0000
0100
0001
0000
0001
0010
0000
0010
0100
0000
0100
1000
0000
0010
0000
,  // measure 60
0001
0000
0001
0010
0000
0010
0100
0000
0100
0010
0000
0010
1000
0001
1000
0001
,  // measure 61
0010
0000
0100
1000
0000
1000
0001
0000
0001
0100
0000
0100
0001
0000
0010
0000
,  // measure 62
1000
0000
1000
0010
0000
0010
0100
0000
0100
0010
0000
0010
0001
0000
1000
0000
,  // measure 63
0010
0000
0100
0001
0000
0001
1000
0000
1000
0100
0000
0100
0010
0000
0100
0000
,  // measure 64
1001
0000
0000
0000
0001
0000
0000
0000
0001
0000
0000
0000
1000
0001
1000
0001
,  // measure 65
1000
0100
0010
0010
0001
0100
0010
0010
,  // measure 66
0100
0001
0010
0010
0100
1000
0010
0010
,  // measure 67
1000
0001
0100
0100
0010
1000
0100
0100
,  // measure 68
0010
0001
0100
0100
0010
1000
0100
0100
,  // measure 69
1001
0010
1001
0100
,  // measure 70
1001
0010
1001
0100
,  // measure 71
1100
0110
0011
1001
,  // measure 72
1010
0110
0101
1001
,  // measure 73
1100
1000
0001
0001
0010
0010
0100
0100
,  // measure 74
1000
1000
0001
0001
0100
0100
0010
0010
,  // measure 75
1000
1000
0100
0100
0010
0010
0001
0001
,  // measure 76
0100
0100
0010
0010
1000
1000
0100
0100
,  // measure 77
0010
0000
0100
1000
0001
0000
0100
0001
1000
0000
0100
1000
0001
0000
0100
0001
,  // measure 78
1000
0000
0010
1000
0001
0000
0010
0001
1000
0000
0010
1000
0001
0000
0010
0001
,  // measure 79
1000
0010
1000
0001
0100
0010
0100
0010
1000
0001
1000
0100
0010
0001
0010
0001
,  // measure 80
1000
0010
1000
0001
0100
0010
0100
0010
1000
0001
1000
0100
0010
0001
0010
0001
,  // measure 81
0100
0000
0000
0000
;
