#TITLE:Mighty Guy;
#SUBTITLE:;
#ARTIST:CHIHOMI;
#TITLETRANSLIT:;
#SUBTITLETRANSLIT:;
#ARTISTTRANSLIT:;
#GENRE:MAXIMUM;
#CREDIT:;
#MUSIC:Mighty Guy.ogg;
#BANNER:Mighty Guy.png;
#BACKGROUND:Mighty Guy-bg.png;
#LYRICSPATH:Mighty Guy.lrc;
#CDTITLE:;
#SAMPLESTART:53.894;
#SAMPLELENGTH:11.538;
#SELECTABLE:YES;
#OFFSET:-1.586;
#BPMS:0.000=156.000;
#STOPS:;
#JACKET:Mighty Guy-jacket.png;
#BGCHANGES:;
#FGCHANGES:;

//--------------- dance-single - ----------------
#NOTES:
     dance-single:
     :
     Beginner:
     1:
     0,0,0,0,0:
0000
0000
0000
0000
,
0000
0000
0000
0000
,
0000
0000
0000
0000
,
0000
0000
0000
0000
,
0001
0000
0000
0000
,
1000
0000
0000
0000
,
0001
0000
0001
0000
,
1000
0000
1001
0000
,
1000
0000
0000
0000
,
0100
0000
0000
0000
,
0001
0000
0000
0000
,
0100
0000
0000
0000
,
1000
0000
0000
0000
,
0010
0000
0000
0000
,
0001
0000
0000
0000
,
0010
0000
0010
0010
,
0000
0000
0000
0000
,
0000
0000
0000
0000
,
1000
0000
0000
0000
,
1000
0000
0000
0000
,
0001
0000
0000
0000
,
0001
0000
0000
0000
,
0010
0000
0000
0000
,
0010
0000
0000
0000
,
0100
0000
0000
0000
,
0100
0000
0000
0000
,
1000
0000
0000
0000
,
0100
0000
0000
0000
,
0010
0000
0000
0000
,
0001
0000
0001
0000
,
0001
0000
0000
0000
,
0100
0000
0000
0000
,
0010
0000
0000
0000
,
1000
0000
1000
0000
,
1001
0000
1001
0000
,
0001
0000
0000
0000
,
0100
0000
0000
0000
,
0100
0000
0000
0000
,
0001
0001
0001
0000
,
1000
1000
1000
0000
,
0001
0001
0001
0000
,
0000
0000
0110
0000
,
1001
0000
1001
0000
,
1000
0000
0000
0000
,
0010
0000
0000
0000
,
0010
0000
0000
0000
,
1000
1000
1000
0000
,
0001
0001
0001
0000
,
1000
0000
1000
0000
,
0100
0000
0010
0010
,
0010
0000
0000
0000
,
0001
0000
0000
0000
,
0100
0000
0000
0000
,
0010
0000
0000
0000
,
1000
0000
0000
0000
,
0100
0000
0000
0000
,
0001
0000
0000
0000
,
0100
0000
0010
0010
;

//--------------- dance-single - ----------------
#NOTES:
     dance-single:
     :
     Easy:
     6:
     0,0,0,0,0:
0000
0000
0000
0000
,
0000
0000
0000
0000
,
0000
0000
0000
0000
,
0000
0000
0000
0000
,
0001
1000
0100
0000
,
1000
0001
0010
0000
,
0001
0000
0000
0001
1000
0000
0000
1000
,
0001
0000
0001
0000
1000
1000
1000
0000
,
0100
0100
0010
0010
,
0100
0000
0100
0000
1000
1000
1000
0000
,
0001
0001
0100
0100
,
0010
0000
0010
0000
0100
0100
0100
0000
,
0001
0001
0100
0100
,
1000
0000
1000
0000
0100
0100
0100
0000
,
0001
0001
0010
0010
,
1000
0000
1000
0000
0010
0010
0100
0100
,
0000
0000
0000
0000
,
0110
0000
1001
1001
,
0001
0100
0001
0000
,
1000
0100
1000
0000
,
0001
0010
0100
0000
,
0010
0100
1000
0000
,
1000
0010
1000
0000
,
0001
0010
0001
0000
,
1000
0010
0100
0000
,
0010
0100
0001
1000
,
0100
0100
0001
0000
,
0100
0100
1000
0000
,
0001
0001
0100
0000
,
1000
1000
0100
0000
,
0001
0001
1000
0000
,
0010
0010
0100
0000
,
0001
0000
0001
1000
0000
1000
1000
1000
,
0000
1001
0000
0000
0110
0000
0110
0000
,
0001
0000
0100
0000
1010
0000
1000
0001
,
0000
0001
1000
0000
0100
0000
0100
0000
,
1000
0100
1000
0000
0001
0100
0001
0010
,
0000
0000
0000
0100
0000
0100
0000
0000
,
1000
0001
0100
0001
,
1000
0001
0100
0001
,
0010
0000
0010
0000
0001
0000
0001
1000
,
0000
1000
0000
0100
0100
0000
0100
0000
,
1000
0000
0100
0000
0011
0000
0001
1000
,
0000
1000
0001
0000
0100
0000
0100
0000
,
0010
1000
0010
0000
1000
0100
1000
0010
,
0000
0000
0000
0100
0000
0100
0000
0000
,
0001
0010
0100
0010
,
0001
1000
0010
0100
,
0010
0000
0000
0010
1000
0000
0000
1000
,
0001
0000
0001
0000
0100
0100
0100
0000
,
0001
0001
1000
1000
,
0010
0000
0010
0000
1000
1000
1000
0000
,
0001
0001
0010
0010
,
0100
0000
0100
0000
0010
0010
0010
0000
,
0001
0001
0010
0010
,
1000
0000
1000
0000
0010
0010
0010
0000
,
0001
0001
0100
0100
,
1000
0000
1000
0000
0100
0100
0010
0010
;

//--------------- dance-single - ----------------
#NOTES:
     dance-single:
     :
     Medium:
     10:
     0,0,0,0,0:
0000
0000
0000
0000
,
0000
0000
0000
0000
,
0000
0000
0000
0000
,
0000
0000
0000
0000
0000
0000
0000
0001
,
0001
0000
0000
0000
0000
0000
0000
1000
,
1000
0000
0000
0000
0000
0000
0000
0001
,
0001
0000
0000
1000
1000
0000
0000
0100
,
0100
0000
0010
0000
0001
1000
0001
1000
,
0001
0000
0000
0001
0000
0000
0000
0000
0100
0000
0000
0100
0000
0000
0000
0000
,
0001
0000
0000
0001
0000
0000
1000
0000
0100
0000
1000
0000
0001
0000
0001
0000
,
1000
0000
0000
1000
0000
0000
0000
0000
0010
0000
0000
0010
0000
0000
0000
0000
,
1000
0000
0000
1000
0000
0000
0001
0000
0010
0000
0100
0000
0010
0000
0100
0000
,
1000
0000
0000
1000
0000
0000
0000
0000
0100
0000
0000
0100
0000
0000
0000
0000
,
1000
0000
0000
1000
0000
0000
0001
0000
0100
0000
0001
0000
1000
0000
1000
0000
,
0001
0000
0000
0001
0000
0000
0000
0000
0010
0000
0000
0010
0000
0000
0000
0000
,
0001
0000
0000
0001
0000
0000
1000
0000
0010
0000
0100
0000
0010
0000
0100
0000
,
0000
0000
0000
0000
,
0000
0000
0000
0000
0001
1000
0001
1000
,
0001
0000
0001
0000
1000
0100
1000
0000
,
1000
0000
1000
0000
0001
0100
0001
0000
,
1000
0001
0010
0000
1000
0001
0010
0000
,
0001
1000
0100
0000
0001
1000
0100
0000
,
0001
0000
0001
0000
1000
0010
1000
0000
,
1000
0000
1000
0000
0001
0010
0001
0000
,
0001
0100
0010
0000
0010
1000
0100
0000
,
0001
0100
1000
0010
,
0100
0001
0100
0000
0001
1000
0001
0000
,
1000
0100
1000
0000
0001
1000
0001
0000
,
1000
0010
1000
0000
0001
1000
0001
0010
,
0000
0010
0000
0100
0000
0100
0000
0100
,
1000
0100
1000
0000
0001
0010
0001
0000
,
0100
0001
0100
0000
0010
1000
0010
0000
,
1000
0100
0010
0000
0001
0100
0010
1000
,
0000
0001
0000
1001
1001
0000
0110
0000
,
1001
1010
0011
0110
,
1000
0100
0001
0000
0001
0100
1000
0000
,
0001
0100
1000
0000
1000
0100
0001
1000
,
0000
1000
0100
0010
0000
0110
0000
0010
,
0001
0100
1000
0100
,
0001
0010
1000
0010
,
0001
0000
0000
0000
1001
0000
0000
0001
1000
0000
0100
0000
0010
0000
0100
0000
,
0000
0110
0000
0001
1000
0000
1001
0000
,
1001
0011
1010
0110
,
0001
0100
1000
0000
1000
0100
0001
0000
,
1000
0100
0001
0000
0001
0100
1000
0001
,
0000
0001
0010
0100
0000
0110
0000
0100
,
1000
0010
0001
0010
,
1000
0100
0001
0100
,
1000
1000
0001
0001
,
1000
0010
1000
0010
0100
0001
0100
0001
,
1000
0000
0000
1000
0000
0000
0000
0000
0100
0000
0000
0100
0000
0000
0000
0000
,
1000
0000
0000
1000
0000
0000
0001
0000
0100
0000
0001
0000
1000
0000
1000
0000
,
0001
0000
0000
0001
0000
0000
0000
0000
0010
0000
0000
0010
0000
0000
0000
0000
,
0001
0000
0000
0001
0000
0000
1000
0000
0010
0000
0100
0000
0010
0000
0100
0000
,
0001
0000
0000
0001
0000
0000
0000
0000
0100
0000
0000
0100
0000
0000
0000
0000
,
0001
0000
0000
0001
0000
0000
1000
0000
0100
0000
1000
0000
0001
0000
0001
0000
,
1000
0000
0000
1000
0000
0000
0000
0000
0010
0000
0000
0010
0000
0000
0000
0000
,
1000
0000
0000
1000
0000
0000
0001
0000
0010
0000
0100
0000
0010
0000
0110
0000
;

//--------------- dance-single - ----------------
#NOTES:
     dance-single:
     :
     Hard:
     13:
     0,0,0,0,0:
0000
0000
0000
0000
,
0000
0000
0000
0000
,
0000
0000
0000
0000
,
0000
0000
0000
0000
0000
0000
0000
1001
,
1100
0000
0000
0000
0000
0000
0000
1001
,
0101
0000
0000
0000
0000
0000
0000
1001
,
1010
0000
0000
1001
0011
0000
0000
0110
,
1001
0000
1000
0010
1000
0001
0010
0100
,
1000
0001
0000
0001
0000
0000
1000
0000
0001
1000
0000
1000
0000
0000
0001
0000
,
1000
0100
0000
0100
0000
0000
1000
0000
0001
0000
0010
0000
0100
0000
1000
0000
,
0010
0100
0000
0100
0000
0000
0001
0000
0010
0100
0000
0100
0000
0000
1000
0000
,
0001
0010
0000
0010
0000
0000
0001
0000
1000
0000
0100
0000
0001
0000
0100
0000
,
1000
0010
0000
0010
0000
0000
1000
0000
0001
0100
0000
0100
0000
0000
0001
0000
,
1000
0100
0000
0100
0000
0000
1000
0000
0001
0000
0010
0000
1000
0000
0010
0000
,
0001
1000
0000
1000
0000
0000
0010
0000
0100
0001
0000
0001
0000
0000
1000
0000
,
0100
0010
0000
0010
0000
0000
0001
0000
1001
0000
1001
0000
0110
0000
0110
0000
,
0000
0000
0000
0000
0000
0000
0000
0100
,
0100
0000
0000
0000
0000
0000
0000
0000
1000
0001
1000
0000
0001
1000
0001
0000
,
1000
0100
0001
0100
1000
0010
0100
0000
,
0001
0100
1000
0100
0001
0010
0100
0000
,
1000
0010
0000
0000
0010
0100
0000
0000
0100
0001
0000
0000
0001
1000
0000
0000
,
1000
0100
0010
0001
0100
0001
1000
1000
,
0001
0010
1000
0010
0001
1000
0100
0000
,
1000
0010
0001
0010
1000
0001
0100
0100
,
0010
0000
0100
0001
0000
1000
0010
1000
,
0100
0010
0000
0000
0010
0001
0000
0000
0001
0000
1000
0010
0000
1000
0010
0000
,
1000
0100
0010
0100
1000
0100
0010
0000
,
0001
0100
0010
0100
0001
0100
0010
0000
,
1000
0100
1000
0000
0001
0100
0001
0010
,
0000
0100
0000
1000
0000
0010
0000
0100
,
0001
0100
1000
0100
0001
1000
0001
0000
,
1000
0010
0001
0010
1000
0001
0010
0100
,
1000
0100
0001
0100
0010
0001
1000
0010
,
0100
0110
0000
0110
1001
0000
0110
0000
,
1001
0000
0000
0000
1000
0001
0000
0000
0001
0010
0000
0000
0100
0000
1000
0000
,
0001
0100
1000
0100
0001
0010
0100
1000
,
0000
1000
0001
0100
0000
0100
0010
1000
,
0001
0010
0001
0101
0000
1010
0000
0001
,
1000
0000
0100
0000
1000
0000
0100
0000
0010
0000
0001
0000
0100
0000
0000
0001
,
0100
0010
1000
0001
0010
1000
0010
0000
,
0100
0000
0000
0000
0110
0000
0000
0001
1000
0000
0100
0000
0010
0000
0001
0000
,
1000
1010
0000
1001
1100
0000
0011
0000
,
1001
0000
0000
0000
0001
1000
0000
0000
1000
0010
0000
0000
0100
0000
0001
0000
,
0010
1000
0010
0001
1000
0010
0100
0001
,
0000
0001
1000
0100
0000
0100
1000
0010
,
0100
0001
0010
1001
0000
0110
0000
1000
,
0001
0000
0100
0000
0001
0000
0100
0000
0010
0000
1000
0000
0100
0000
0000
1000
,
0100
0010
0001
0100
1000
0100
0001
0000
,
1000
0100
0001
0000
0001
0100
1000
0000
,
0001
0010
0001
0000
0010
0001
0010
0000
0100
1000
0100
0000
1000
0100
1000
0000
,
0001
1000
0000
1000
0000
0000
0001
0000
1000
0100
0000
0100
0000
0000
1000
0000
,
0001
0010
0000
0010
0000
0000
0001
0000
1000
0000
0010
0000
0100
0000
0001
0000
,
0010
0100
0000
0100
0000
0000
1000
0000
0010
0100
0000
0100
0000
0000
0001
0000
,
1000
0001
0000
0001
0000
0000
1000
0000
0001
0000
0100
0000
1000
0000
0100
0000
,
0001
0010
0000
0010
0000
0000
0100
0000
1000
0010
0000
0010
0000
0000
1000
0000
,
0001
0100
0000
0100
0000
0000
0001
0000
1000
0000
0100
0000
0001
0000
0100
0000
,
1000
0010
0000
0010
0000
0000
0100
0000
0001
0010
0000
0010
0000
0000
0100
0000
,
1000
0001
0000
0001
0000
0000
0010
0000
0110
0000
0110
0000
1001
0000
1001
0000
;
