#VERSION:0.83;
#TITLE:Midnight City Warfare;
#SUBTITLE:;
#ARTIST:sky_delta;
#TITLETRANSLIT:;
#SUBTITLETRANSLIT:;
#ARTISTTRANSLIT:;
#GENRE:;
#CREDIT:;
#MUSIC:Midnight City Warfare.ogg;
#BANNER:Midnight City Warfare.png;
#BACKGROUND:Midnight City Warfare-bg.png;
#CDTITLE:;
#SAMPLESTART:44.000;
#SAMPLELENGTH:15.000;
#SELECTABLE:YES;
#OFFSET:0.000;
#BPMS:0.000=180.000;
#STOPS:;
#TIMESIGNATURES:0.000=4=4;
#BGCHANGES:0.000=Midnight City Warfare.mp4=1.000=0=0=0=StretchNoLoop====,
99999.000=-nosongbg-=1.000=0=0=0=StretchNoLoop====
;
#FGCHANGES:;

//--------------- dance-single - Extraordiberry ----------------
#NOTEDATA:;
#STEPSTYPE:dance-single;
#DESCRIPTION:Extraordiberry;
#DIFFICULTY:Beginner;
#METER:4;
#RADARVALUES:0,0,0,0,0;
#CREDIT:Extraordiberry;
#NOTES:
0000
0000
0000
0000
,
0000
0000
0000
0000
,
0000
0000
0000
0000
,
0000
0000
0000
0000
,
0000
0000
0000
0000
,
1000
0000
0000
0000
,
0000
0000
0000
0000
,
0001
0000
0000
0000
,
0000
0000
0000
0000
,
1000
0000
0000
0000
,
0100
0000
0000
0000
,
1000
0000
0000
0000
,
0000
0000
0000
0000
,
0001
0000
0000
0000
,
0100
0000
0000
0000
,
0001
0000
0000
0000
,
1000
0000
1000
0000
,
1000
0000
0000
0000
,
0001
0000
0000
0000
,
0010
0000
0000
0000
,
0100
0000
0000
0000
,
1000
0000
0000
0000
,
0001
0000
0000
0000
,
0100
0000
0100
0000
,
0100
0000
0000
0000
,
0001
0000
0000
0000
,
0000
0000
0000
0000
,
1000
0000
0000
0000
,
0000
0000
0000
0000
,
0001
0000
0000
0000
,
0001
0000
0000
0000
,
1000
0000
0001
0001
,
0001
0000
0000
0000
,
1001
0000
0000
0000
,
1000
0000
0000
0000
,
0100
0000
0000
0000
,
1000
0000
1000
0000
,
1000
0000
0000
0000
,
0001
0000
0000
0000
,
0100
0000
0000
0000
,
0001
0000
0001
0000
,
0001
0000
0000
0000
,
0010
0000
0000
0000
,
0100
0000
0000
0000
,
0010
0000
0010
0000
,
0010
0000
0000
0000
,
0000
0000
0000
0000
,
0001
0000
0001
0000
,
1000
1000
1000
0000
,
0001
0000
0000
0000
,
0100
0000
0000
0000
,
0010
0000
0000
0000
,
1000
0000
1000
0000
,
1000
0000
0000
0000
,
0100
0000
0000
0000
,
0010
0000
0000
0000
,
0001
0001
0001
0000
,
1000
0000
0000
0000
,
0000
0000
0000
0000
,
0010
0000
0000
0000
,
0000
0000
0000
0000
,
1000
0000
0000
0000
,
0100
0000
0000
0000
,
0010
0000
0000
0000
,
0001
0000
0001
0000
,
1000
0000
0000
0000
,
0010
0000
0000
0000
,
1000
0000
0000
0000
,
0000
0000
0000
0000
,
0001
0000
0000
0000
,
0010
0000
0000
0000
,
0001
0000
0000
0000
,
0100
0000
0000
0000
,
0001
0000
0100
0000
,
0010
0000
0000
0000
,
1000
0000
0100
0000
,
0010
0000
0000
0000
,
0001
0000
0000
0000
,
0000
0000
0000
0000
,
1000
0000
0100
0000
,
1000
0000
0000
0000
,
0001
0000
0000
0000
,
0100
0000
0000
0000
,
0010
0000
0000
0000
,
1000
0000
0100
0000
,
0010
0000
0000
0000
,
0001
0000
0000
0000
,
0100
0000
0100
0000
,
0001
0001
0001
1000
;

//--------------- dance-single - Extraordiberry ----------------
#NOTEDATA:;
#STEPSTYPE:dance-single;
#DESCRIPTION:Extraordiberry;
#DIFFICULTY:Easy;
#METER:8;
#RADARVALUES:0,0,0,0,0;
#BPMS:0.000=180.000
,216.000=360.000
,217.000=180.000
;
#STOPS:127.750=0.6666666666666667
,190.000=0.6666666666666667
,216.000=0.1666666666666667
,252.000=0.6666666666666667
;
#TIMESIGNATURES:0.000=4=4,
128.000=2=4,
130.000=4=4,
190.000=2=4,
192.000=4=4,
252.000=2=4,
254.000=4=4
;
#CREDIT:Extraordiberry;
#NOTES:
0000
0000
0000
0000
,
0000
0000
0000
0000
,
0000
0000
0000
0000
,
0000
0000
0000
0000
,
0000
0000
0000
0000
,
2000
0000
3002
0000
,
0023
0000
0000
0000
,
0032
0000
2003
0000
,
3020
0000
0130
0000
,
0001
0010
0100
0010
,
0001
1000
0001
0000
,
1000
0010
0100
0010
,
1000
0001
1000
0000
,
0001
0010
0100
0010
,
0001
1000
0010
0100
,
0001
0000
0000
1000
0000
0000
0001
0000
,
0000
1000
0000
0000
0001
0000
0001
0000
,
1000
0100
0001
0100
,
1000
0001
1000
0000
,
0001
0100
1000
0100
,
0001
1000
0001
0000
,
1000
0100
0010
0001
,
1000
0001
0001
0000
,
1000
0000
0000
0010
0000
0000
0100
0000
,
0000
0010
0000
0000
1000
0000
1000
0000
,
0002
0000
0000
0000
,
0000
0000
1003
0001
,
2000
0000
0000
0000
,
0000
0000
0000
0000
,
3001
0000
0100
0000
,
0010
0000
1000
0000
,
0001
0001
0001
0001
,
0000
0000
1000
0100
,
0010
0001
1000
1000
,
0010
0100
0001
1000
,
0100
0010
0001
0001
,
1000
1000
0001
0000
,
1000
0010
0100
0001
,
1000
0100
0010
0010
,
0001
0000
0001
0000
1000
0000
0000
0001
,
0000
1000
0001
0100
,
1000
0100
0001
1000
,
0001
0001
1000
0100
,
0001
0100
1000
1000
,
0001
0001
2000
0000
,
3020
0000
2030
0000
,
0000
0000
3001
0001
,
0001
0001
1000
0000
,
0001
0000
1000
0000
0000
0100
0000
0000
,
1000
0000
0001
0000
0000
0100
0000
0000
,
0001
0000
0010
0000
0000
0100
0000
0000
,
0010
0010
0001
0001
,
1000
0001
0100
1000
,
0100
0001
1000
0001
,
1000
0000
0001
0001
,
1000
1000
1001
0000
,
0002
0000
0203
0000
,
0320
0000
0000
0000
,
2030
0000
3200
0000
,
0320
0000
0032
0000
,
2003
0000
3020
0000
,
0230
0000
0000
0000
,
0301
0010
0100
1000
,
0001
0000
1000
0010
,
0100
0001
1000
1000
,
0100
0000
0100
1000
,
0001
0100
0010
0010
,
1000
0000
0001
0010
,
0100
1000
0010
0010
,
0100
0001
1000
0100
,
0010
0001
2000
0000
,
3002
0000
1003
0010
,
0001
0010
1000
0001
,
1000
0000
0001
0010
,
1000
0010
0001
1000
,
0001
0000
0200
0000
,
0310
2000
0000
3001
,
1001
0000
0010
0010
,
0100
0100
2002
0000
,
0000
3003
0001
0010
,
0100
1000
0001
0001
,
0100
0010
1000
0001
,
0010
0100
1000
1000
,
0001
0001
1001
0000
,
1000
0000
0010
0000
0000
0100
0000
0000
,
0010
0010
1000
1000
,
0001
0000
0001
0000
0010
0000
0000
0100
,
0000
1001
0000
0000
;

//--------------- dance-single - Extraordiberry ----------------
#NOTEDATA:;
#STEPSTYPE:dance-single;
#DESCRIPTION:Extraordiberry;
#DIFFICULTY:Medium;
#METER:13;
#RADARVALUES:0,0,0,0,0;
#BPMS:0.000=180.000
,216.000=360.000
,217.000=180.000
;
#STOPS:127.750=0.6666666666666667
,190.000=0.6666666666666667
,216.000=0.1666666666666667
,252.000=0.6666666666666667
;
#TIMESIGNATURES:0.000=4=4,
128.000=2=4,
130.000=4=4,
190.000=2=4,
192.000=4=4,
252.000=2=4,
254.000=4=4
;
#CREDIT:Extraordiberry;
#NOTES:
0000
0000
0000
0000
,
0000
0000
0000
0000
,
0000
0000
0000
0000
,
0000
0000
0000
0000
,
0000
0000
0000
0000
,
2000
0000
0000
3200
0000
0000
0320
0000
,
0000
0032
0000
0000
0000
0000
0000
0000
,
0023
0000
0000
0230
0000
0000
2300
0000
,
0000
3002
0000
0000
1003
0000
1001
0000
,
0001
0000
1000
0010
0100
0010
1000
0000
,
0001
0010
0100
0010
0001
1000
0010
0000
,
0100
0000
0010
0100
0010
1000
0001
0000
,
0010
0100
0010
0001
1000
0000
0110
0000
,
1000
0000
0001
0100
0010
0100
0001
0000
,
1000
0100
0010
0100
1000
0001
0100
0000
,
0010
0000
0100
0101
0000
0001
1001
0000
,
1000
1100
0000
0100
0010
0010
0001
0001
,
1000
0010
0100
0010
1000
0001
0010
0100
,
0010
0001
1000
0010
0100
0010
1000
1000
,
0001
0010
0100
0010
0001
1000
0010
0100
,
0010
0000
1000
0000
0001
0000
0010
0000
0100
0000
0100
0000
1000
0001
1000
0000
,
0001
0000
0100
0010
0000
0010
1000
0000
,
0001
0010
0000
0010
0100
0100
1000
0001
,
1001
0000
0100
0110
0000
1000
1001
0000
,
0010
0110
0000
1000
1001
0001
1000
0000
,
0002
0000
0000
0000
,
0000
0000
0000
0000
1003
0010
0100
0001
,
2000
0000
0100
0000
0000
0001
0000
0000
,
0010
0000
0000
0001
0000
0000
3100
0000
,
1000
0100
0001
0100
,
1000
0010
0001
0010
,
1000
0000
1000
0000
0001
0000
0001
0000
1000
0001
1000
0000
0001
1000
0001
2000
,
3000
0000
0001
0000
1001
0000
1000
0100
,
0010
0000
0001
0000
1000
0001
1000
0000
0010
0000
0010
0000
0100
0000
0010
0000
,
0010
0100
0002
0000
0013
0100
1000
0001
,
0100
0000
0010
1000
0000
0000
0010
0000
1010
0000
0000
0000
0101
0000
0000
0000
,
1100
0000
0000
0000
0011
0000
0000
0000
1001
0000
0000
0000
0001
0000
0100
0010
,
0000
0000
1000
0000
0001
1000
0001
0000
0010
0000
0010
0000
0100
0000
0100
0000
,
1000
0001
0100
0010
1000
0100
0001
0100
,
1000
0000
0001
0000
0100
0000
0000
0000
0101
0000
0000
1010
0000
0000
2001
0000
,
0000
0000
0000
0000
3001
0000
0000
0000
1001
0000
0000
0000
1000
0000
0100
0010
,
0000
0010
0001
0000
1000
0000
0001
0000
0100
0000
0001
0000
1000
0000
0100
0010
,
0000
0010
0001
0000
1000
0000
0000
0000
0001
0000
1000
0000
0001
0000
0100
0010
,
0000
0010
1000
0000
0001
0000
0010
0000
0001
0000
0100
0000
1000
0000
0100
0000
,
0001
1000
0100
0000
2000
0000
0000
3020
,
0000
0000
0230
0000
0000
0302
0000
0000
,
2003
0000
0000
0000
3100
0100
0010
0010
,
0100
0010
0100
0000
0010
0100
0010
0000
0002
0003
0000
0000
1000
0000
0000
0000
,
1001
0000
0000
0000
1000
0000
0010
0100
0000
0100
0001
0000
1000
0010
0000
0010
,
0200
0000
0000
0000
0301
0000
0010
0100
0000
0100
1000
0000
0001
0010
0000
0010
,
0200
0000
0000
0000
1300
0000
0001
0100
0000
0100
0010
0000
1000
0010
0000
0000
,
1010
0101
0011
1100
,
1001
0000
0001
0100
0100
0001
0010
0010
,
0100
1000
0001
0100
0010
0010
0110
0000
,
2000
0000
3001
0001
0010
0010
0100
0100
,
1000
0000
0001
1000
0000
1000
0002
0000
0000
0000
1003
0000
1001
0000
0000
0000
,
2000
0000
0000
3020
0000
0000
0230
0000
,
0000
0302
0000
0000
0000
0000
0000
0000
,
0203
0000
0000
0320
0000
0000
2030
0000
,
3002
0000
0000
0023
0000
0000
0000
0000
,
0031
0100
1000
0100
,
0001
0010
1000
0010
,
0001
0000
0001
0000
0100
0000
0100
0000
0010
1000
0010
0000
0100
0001
0100
0000
,
0020
0030
0000
0000
0100
0000
0000
0000
1001
0000
0000
0000
0001
0000
0010
0100
,
0000
0000
0010
0000
0001
0000
1000
0000
0010
0000
0100
0010
0000
0000
2000
0000
,
0000
0000
0000
0000
3100
0000
0100
0000
0010
0000
0001
0000
1000
0000
0010
0100
,
0000
0000
0010
0000
1000
0000
0001
0000
0010
0000
0100
0010
0000
0000
0002
0000
,
0000
0000
0000
0000
0103
0000
0100
0000
0010
0000
1000
0000
0001
0000
0010
0100
,
0000
0000
1000
0000
0001
0000
0100
0000
0010
0000
1000
0100
0000
0100
1000
0000
,
0001
0000
0100
0000
0010
0000
0010
0000
1000
0000
0001
0010
0000
0010
0100
0000
,
1000
0001
1000
0010
0200
0000
0000
0302
,
0000
0000
1003
0000
0001
0010
0100
0010
,
0001
1000
0010
0100
0010
1000
0001
0010
,
0100
0010
0001
0001
1000
0010
0100
0010
,
1000
0001
0010
0100
0010
0001
1000
0010
,
0100
0000
0100
0000
0001
1000
0001
0000
2000
0000
0000
0000
0000
0000
3100
0000
,
0020
0000
0032
0000
0000
0103
0010
0000
,
0110
0000
1001
0000
1000
1000
0100
0100
,
0010
0010
0001
0001
0100
0010
0000
1000
,
0002
0000
0000
0000
1003
1000
0001
0010
,
0100
0000
1000
0000
0001
1000
0001
0000
0100
0000
0100
0000
0010
0000
0100
0000
,
0100
0010
2000
0000
3100
0010
0001
0001
,
0100
0010
0000
1000
1010
0000
0101
0000
,
0011
0000
1100
0000
1001
0000
0001
0100
,
0010
0000
1000
0000
0001
1000
0001
0000
0000
0000
0010
0100
0010
0000
0000
0000
,
1001
0000
0110
0000
1000
0010
0001
0010
,
1000
0000
0001
0000
0010
0000
0000
0000
1100
0000
0000
0011
0000
0000
1002
0000
,
0000
1003
0000
0000
;

//--------------- dance-single - Extraordiberry ----------------
#NOTEDATA:;
#STEPSTYPE:dance-single;
#DESCRIPTION:Extraordiberry;
#DIFFICULTY:Hard;
#METER:17;
#RADARVALUES:0,0,0,0,0;
#BPMS:0.000=180.000
,216.000=360.000
,217.000=180.000
;
#STOPS:127.750=0.6666666666666667
,190.000=0.6666666666666667
,216.000=0.1666666666666667
,252.000=0.6666666666666667
;
#TIMESIGNATURES:0.000=4=4,
128.000=2=4,
130.000=4=4,
190.000=2=4,
192.000=4=4,
252.000=2=4,
254.000=4=4
;
#DISPLAYBPM:180.000;
#CREDIT:Extraordiberry;
#NOTES:
0000
0000
0000
0000
,
0000
0000
0000
0000
,
0000
0000
0000
0000
,
0000
0000
0000
0000
,
0000
0000
0000
0000
,
2000
0000
0000
3200
0000
0000
0320
0000
,
0000
0230
0000
0000
0001
0000
0010
0000
,
2300
0000
0000
3020
0000
0000
0230
0000
,
0000
2300
0000
0000
3100
0000
1001
0000
,
0001
0000
0000
0000
0010
0000
0100
1000
0000
1000
0001
0000
0100
0000
0000
0000
,
0100
0020
0000
0000
0100
0000
1030
0001
,
0010
0000
0000
0000
0100
0000
1000
0001
0000
0001
0100
0000
0010
0000
0000
0000
,
0100
0000
0001
0000
0000
1000
0100
0000
0010
0000
0001
0100
0001
0100
0001
0000
,
1000
0000
0000
0000
0100
0000
0010
0001
0000
0001
1000
0000
0010
0000
0000
0000
,
0010
0200
0000
0000
0010
0000
0301
1000
,
0100
0000
0000
0000
0010
0000
0001
0000
0000
0001
0100
0000
0101
0000
0000
0000
,
0010
0000
0110
0000
0000
1000
0010
0000
1010
0000
1000
0010
1000
0010
1000
0000
,
0001
0010
0100
0001
0100
0010
0001
0010
,
0100
0000
0001
0000
0100
0000
0010
0000
0100
0000
1000
0000
0001
1000
0010
0000
,
1000
0010
0100
1000
0100
0010
1000
0010
,
0100
0000
1000
0000
0100
0000
0001
0000
1000
0100
0010
0000
0002
0000
0000
0000
,
1003
1000
0010
0100
0100
0001
0010
0010
,
0100
0000
1000
0000
1000
0000
0010
0000
0100
0001
1000
0000
0100
0010
0001
0000
,
0011
0001
1000
1010
0010
0100
0101
0001
,
1000
1100
0100
0010
0110
0000
1001
0000
,
2000
0000
0000
0000
,
0000
0000
0000
0000
3001
0100
0010
1000
,
0002
0000
0010
0000
0000
1000
0000
0000
,
0100
0000
0000
0000
0000
0000
1000
0000
0000
0000
0000
0000
1003
0001
1000
0000
,
0100
0000
0001
0000
0100
0000
1000
0001
,
0100
0000
1000
0000
0100
0000
0001
1000
,
0100
0000
0100
0000
0010
0000
0010
0000
0001
1000
0001
1000
0010
0100
0010
0200
,
0300
0000
0000
0000
0110
0000
0000
0000
1001
0000
0000
0000
1000
0000
0001
0010
,
0100
0000
1000
0100
0010
0001
1000
0000
0001
0100
0001
0100
0010
0000
1000
0010
,
1000
0010
0100
0000
0002
0000
0013
0000
0100
0000
1000
0000
0010
0000
0010
0000
,
0100
0000
0001
0010
0000
0010
0100
0000
1100
0000
1000
0000
1010
0000
0010
0000
,
0110
0000
0100
0000
0101
0000
0000
0000
1001
0000
0000
0000
0001
0010
0100
0010
,
0000
0000
0001
0010
0100
0010
0001
0000
1000
0010
0100
0001
1000
0100
0010
0001
,
1000
0001
0100
0010
2000
3200
0302
2003
,
3020
0000
0032
0000
2003
0000
3010
0000
1010
0000
0000
0101
0000
0000
0021
0000
,
0000
0000
0030
0000
0110
0000
0000
0000
1001
0000
0000
0000
1000
0000
0001
0100
,
0000
0100
0010
0000
1000
0100
1000
0000
0001
0000
0001
0100
0010
0000
1000
0100
,
0000
0100
0010
0000
0001
0100
0001
0000
1000
0100
1000
0100
0010
0000
0001
0100
,
0001
0100
0010
0000
1000
0100
1000
0000
0002
0000
0203
0000
2300
0000
3002
0000
,
0023
2030
3002
0013
0012
0000
0000
2003
,
0000
0000
3020
0000
0000
0230
0000
0000
,
0302
0000
0000
0000
1003
1000
0001
0001
,
0010
0100
0010
0100
1000
0001
1000
0001
0200
0300
0000
0000
0110
0000
0000
0000
,
1001
0000
0000
0000
1000
0000
0001
0010
0000
0010
0100
0000
0001
0100
0000
0100
,
0010
0000
0001
1000
0001
0000
1000
0010
0000
0010
0100
0000
1000
0100
0000
0100
,
0002
0000
1003
0000
0001
0000
1000
0100
0000
0100
0010
0000
1000
0010
0000
0000
,
0011
0001
0101
0100
0110
0010
1010
0000
,
1001
0000
0000
0000
0001
0010
0001
0010
0100
0000
0001
0100
0001
0100
0010
0000
,
0001
1000
0001
0000
1000
0000
0010
0100
1000
0000
0100
0000
0110
0000
0000
0000
,
2000
0000
0000
0000
3001
1000
0001
1000
0100
0010
0100
0010
0001
1000
0001
1000
,
0010
0000
0100
0001
0000
0001
1000
0000
0100
0010
0100
0000
1001
0000
0000
0000
,
0002
0000
0103
0020
0000
1030
0200
0000
,
0310
0200
0000
0000
0000
0000
0000
0000
,
2300
0000
3001
0200
0000
0310
2000
0000
,
3001
0020
0000
0230
0000
0000
1300
0000
,
0010
0000
0001
0000
0010
0000
1000
0001
,
0010
0000
1000
0000
0010
0000
0001
1000
,
0010
0000
0010
0000
0100
0000
0100
0000
0001
0010
0001
0010
0100
1000
0100
1000
,
0020
0030
0000
0000
0110
0000
0000
0000
1002
0000
0000
0000
0013
0000
0100
1000
,
0000
1000
0001
0000
0100
0000
1000
0000
0100
0000
0001
0010
0000
0100
2000
0000
,
0000
0000
3010
0100
0001
1000
0100
0010
0001
0000
1000
0000
0010
0000
0100
0001
,
0000
0001
1000
0000
0100
0000
0001
0000
0100
0000
1000
0010
0000
0100
0002
0000
,
0000
0000
0013
0100
1000
0001
0100
0010
2000
0000
0000
3100
0010
0000
0001
1000
,
0000
1000
0010
0000
0001
0000
0010
0000
1000
0000
0001
0010
0000
0100
1000
0000
,
0010
0000
0100
0000
0001
0000
1000
0000
0100
0000
0010
0001
0000
0001
0100
0000
,
0010
1000
0002
0000
0023
0000
1030
0020
,
0000
0000
0031
0000
1001
0000
0000
0000
1000
0000
0001
0100
0001
0100
0010
0000
,
1000
0010
0100
0000
1000
0100
1000
0100
0010
0000
1000
0010
0100
0000
0002
0000
,
0000
0000
1003
0000
0001
0000
0010
0000
0100
0000
1000
0100
1000
0100
0010
0000
,
0001
0010
0100
0000
0001
0100
0001
0100
0010
0000
0001
0010
0100
0000
1000
0000
,
0001
0100
0010
0000
2000
0000
0000
3100
,
1200
0000
0320
0000
0000
0031
0100
0000
,
0101
0000
0001
0100
0010
0000
1000
0000
0001
0000
0001
0000
0010
0000
0010
0000
,
0100
1000
0100
1000
0001
0100
0001
0100
0010
0000
1000
0000
0000
0000
0001
0000
,
2000
0000
0000
0000
0000
0000
0000
0000
3001
0000
0010
0000
0100
1000
0000
1000
,
0001
0000
1000
0010
0100
0001
1000
0000
0001
0010
0001
0010
0100
0000
1000
0100
,
1000
0100
0010
0000
0002
0000
0103
0000
0010
0000
1000
0000
0100
0000
0100
0000
,
0010
0000
0001
0000
1000
0001
0100
0000
0110
0000
0010
0000
1010
0000
1000
0000
,
1100
0000
0011
0000
1001
0001
0100
1000
,
0100
0000
0001
0000
1000
0100
0010
0000
0000
0000
1000
0010
0100
0000
0000
0000
,
0110
0010
0011
0001
2000
3020
0032
2003
,
3200
0000
0302
0000
1003
0001
1000
0000
1100
0000
0000
0011
0000
0000
0201
0000
,
0000
0300
0110
0000
0000
0000
0000
0000
;

//--------------- dance-double - Extraordiberry ----------------
#NOTEDATA:;
#STEPSTYPE:dance-double;
#DESCRIPTION:Extraordiberry;
#DIFFICULTY:Easy;
#METER:8;
#RADARVALUES:0,0,0,0,0;
#BPMS:0.000=180.000
,216.000=360.000
,217.000=180.000
;
#STOPS:127.750=0.6666666666666667
,190.000=0.6666666666666667
,216.000=0.1666666666666667
,252.000=0.6666666666666667
;
#TIMESIGNATURES:0.000=4=4,
128.000=2=4,
130.000=4=4,
190.000=2=4,
192.000=4=4,
252.000=2=4,
254.000=4=4
;
#CREDIT:Extraordiberry;
#NOTES:
00000000
00000000
00000000
00000000
,
00000000
00000000
00000000
00000000
,
00000000
00000000
00000000
00000000
,
00000000
00000000
00000000
00000000
,
00000000
00000000
00000000
00000000
,
00020000
00000000
00032000
00000000
,
00023000
00000000
00000000
00000000
,
00030200
00000000
00002300
00000000
,
00003002
00000000
00001003
00000000
,
00000001
00000100
00000010
00010000
,
00001000
00000000
00010000
00000000
,
00001000
00100000
00010000
10000000
,
01000000
00000000
10010000
00000000
,
10000000
01000000
00100000
00001000
,
00010000
00000000
00001000
00000000
,
00010000
00000010
00001000
00000001
,
00000000
00001000
00000000
00000000
00000001
00000000
00000010
00000000
,
00000001
00000100
00001000
00010000
,
00001000
01000000
00010000
00000000
,
10000000
01000000
00010000
00001000
,
00010000
00000100
00001000
00000000
,
00000001
00000100
00000010
00010000
,
00001000
00010000
00010000
00000000
,
00001000
00000000
00000000
00010000
00000000
00000000
00001000
00000000
,
00000000
00010000
00000000
00000000
00001000
00000000
00000000
00000000
,
00020000
00000000
00000000
00000000
,
00000000
00000000
00032000
00000000
,
02003000
00000000
00000000
00000000
,
00000000
00000000
00000000
03000000
,
00010000
00000000
10000000
00000000
,
01000000
00000000
00010000
00000000
,
00001000
00001000
00001000
00001000
,
00000000
00000000
00010000
00001000
,
01000000
00010000
10000000
01000000
,
00100000
00001000
00010000
00000010
,
00001000
00000001
00000010
00000010
,
00000100
00000100
00010000
00000000
,
00000010
00001000
00000001
00000010
,
00000100
00010000
00001000
00001000
,
01000000
00000000
01000000
00000000
00010000
00000000
00000000
10000000
,
00000000
00010000
10000000
01000000
,
00010000
01000000
10000000
01000000
,
00100000
00001000
00010000
00100000
,
00010000
00001000
00010000
00010000
,
00001000
00001000
00020000
00000000
,
00032000
00000000
00023000
00000000
,
00000000
00000000
00031000
01000000
,
00010000
10000000
00010000
00000000
,
10000000
00000000
00010000
00000000
00000000
01000000
00000000
00000000
,
00010000
00000000
10000000
00000000
00000000
01000000
00000000
00000000
,
00100000
00000000
00001000
00000000
00000000
00010000
00000000
00000000
,
00001000
00001000
01000000
01000000
,
00001000
00010000
00000100
00010000
,
00001000
00000010
00001000
00010000
,
00001000
00000000
00010000
00010000
,
00001000
00001000
00011000
00000000
,
00020000
00000000
00030200
00000000
,
00002300
00000000
00000000
00000000
,
00003002
00000000
00000203
00000000
,
00000320
00000000
00020030
00000000
,
00032000
00000000
00203000
00000000
,
00000000
00000000
00000000
00300000
,
01000000
10000000
00010000
01000000
,
00001000
00000000
00010000
00001000
,
00010000
00000100
00001000
00000001
,
00000100
00000000
00000001
00000100
,
00000010
00010000
00001000
00100000
,
00010000
00000000
10000000
00100000
,
01000000
00001000
00010000
01000000
,
00100000
00000000
00001000
00010000
,
00000010
00001000
00000002
00000000
,
00002003
00000000
00003001
00000100
,
00001000
00010000
00001000
01000000
,
00010000
00000000
10000000
01000000
,
00010000
00001000
00010000
00000100
,
00001000
00000000
00000002
00000000
,
00000103
00000020
00000000
00000000
,
00010030
00001000
00010000
00010000
,
00001000
00001000
00020000
00000000
,
00000000
00000000
00031000
00010000
,
00000010
00001000
00000001
00000010
,
00000100
00010000
00001000
01000000
,
00010000
10000000
01000000
01000000
,
00100000
00100000
00002000
00000000
,
00013000
00000000
00001000
00000000
00000000
00010000
00000000
00000000
,
00001000
00010000
00001000
00001000
,
00000010
00000000
00000010
00000000
00000001
00000000
00000000
00001000
,
00000000
00001001
00000000
00000000
;

//--------------- dance-double - Extraordiberry ----------------
#NOTEDATA:;
#STEPSTYPE:dance-double;
#DESCRIPTION:Extraordiberry;
#DIFFICULTY:Medium;
#METER:13;
#RADARVALUES:0,0,0,0,0;
#BPMS:0.000=180.000
,216.000=360.000
,217.000=180.000
;
#STOPS:127.750=0.6666666666666667
,190.000=0.6666666666666667
,216.000=0.1666666666666667
,252.000=0.6666666666666667
;
#TIMESIGNATURES:0.000=4=4,
128.000=2=4,
130.000=4=4,
190.000=2=4,
192.000=4=4,
252.000=2=4,
254.000=4=4
;
#CREDIT:Extraordiberry;
#NOTES:
00000000
00000000
00000000
00000000
,
00000000
00000000
00000000
00000000
,
00000000
00000000
00000000
00000000
,
00000000
00000000
00000000
00000000
,
00000000
00000000
00000000
00000000
,
00020000
00000000
00000000
00030200
00000000
00000000
00002300
00000000
,
00000000
00003002
00000000
00000000
00000000
00000000
00000000
00000000
,
00002003
00000000
00000000
00003200
00000000
00000000
00020300
00000000
,
00000000
00032000
00000000
00000000
00013000
00000000
00011000
00000000
,
00001000
00000000
00010000
00100000
10000000
00100000
00010000
00000000
,
00001000
01000000
00010000
01000000
00001000
00010000
00001000
00000000
,
00010000
00000000
00100000
10000000
00010000
10000000
01000000
00000000
,
10000000
01000000
00010000
00001000
00010000
00000000
00011000
00000000
,
00010000
00000000
00001000
00000010
00000001
00000010
00001000
00000000
,
00010000
00000100
00001000
00000100
00010000
00001000
00010000
00000000
,
00001000
00000000
00000010
00000001
00000000
00000100
00000110
00000000
,
00000010
00001010
00000000
00010000
00011000
00000000
01100000
00000000
,
10000000
01000000
00010000
00001000
00010000
01000000
10000000
01000000
,
00010000
00001000
00010000
00000100
00001000
00001000
00000001
00000000
,
00000001
00000100
00001000
00010000
00001000
00000100
00000001
00000100
,
00001000
00000000
00010000
00000000
00001000
00000000
01000000
00000000
00010000
00000000
00010000
00000000
10000000
00010000
10000000
00000000
,
00010000
00000000
10000000
01000000
00000000
01000000
00010000
00000000
,
00001000
00000010
00000000
00000010
00000001
00000000
00001000
00000000
,
00000101
00000000
00001000
00001010
00000000
00010000
00011000
00000000
,
01000000
01010000
00000000
10000000
10010000
00000000
10000000
00000000
,
00020000
00000000
00000000
00000000
,
00000000
00000000
00000000
00000000
00130000
00001000
00010000
00000000
,
00002000
00000000
00010000
00000000
00000000
01000000
00000000
00000000
,
00010000
00000000
00000000
00100000
00000000
00000000
00013000
00000000
,
00001000
00000010
00000001
00001000
,
00000001
00000100
00001000
00010000
,
00001000
00000000
00001000
00000000
00010000
00000000
00010000
00000000
00001000
00010000
00001000
00000000
00010000
00001000
00010000
00002000
,
00003000
00000000
00010000
00000000
00011000
00000000
00001000
01000000
,
00010000
10000000
01000000
00010000
00001000
00001000
00000100
00001000
,
00001000
00010000
00002000
00000000
00003010
00000001
00001000
00001000
,
00000001
00000000
00000100
00000010
00000000
00000000
00010000
00000000
00011000
00000000
00000000
00000000
01010000
00000000
00000000
00000000
,
11000000
00000000
00110000
00000000
00011000
00000000
00010000
00001000
,
00000010
00000001
00001000
00001000
00000001
00000100
00001000
00010000
,
00001000
00001000
00100000
00100000
00010000
00100000
00010000
00001000
,
00010000
00000000
00100000
00000000
00001000
00000000
00010000
00000000
00002000
00000000
00000000
00003200
00000000
00000000
00000302
00000000
,
00000000
00000003
00000000
00000000
00001010
00000000
00000000
00000000
00011000
00000000
00000000
00000000
00010000
00000000
00001000
00000000
,
00000010
00000001
00000010
00001000
00010000
00000010
00010000
00001000
,
00000010
00000001
00000020
00000000
00000031
00000100
00001000
00010000
,
00001000
00000100
00000001
00000100
00000010
00001000
00010000
00001000
,
00000010
00010000
00001000
01000000
00020000
00000000
00000000
20030000
,
00000000
00000000
32000000
00000000
00000000
03020000
00000000
00000000
,
00032000
00000000
00000000
00000000
00013000
00010000
00001000
00001000
,
00010000
00001000
00010000
00000000
00001000
00010000
00001000
00000000
00020000
00030000
00000000
00000000
00011000
00000000
00000000
00000000
,
00001000
00000000
00000000
00000000
00000010
00000000
00000001
00000100
00000000
00000100
00000001
00000000
00001000
00000010
00000000
00000010
,
00001000
00000000
00000010
00000000
00010000
00000000
00001000
00010000
00000000
00010000
00001000
00000000
00010000
00001000
00000000
00001000
,
00200000
00000000
00000000
00000000
00310000
00000000
10000000
01000000
00000000
01000000
00100000
00000000
00001000
00010000
00000000
00000000
,
00011000
00001100
00000011
00001010
,
00011000
00000000
00001000
00010000
00010000
00100000
10000000
10000000
,
00010000
00100000
00001000
00010000
00001000
00001000
00011000
00000000
,
00020000
00000000
00031000
00001000
00000010
00000010
00000001
00000001
,
00001000
00000000
00000010
00000100
00000000
00000100
00000020
00000000
00000000
00000000
00001030
00000000
00001010
00000000
00000000
00000000
,
00020000
00000000
00000000
00030200
00000000
00000000
00002300
00000000
,
00000000
00003002
00000000
00000000
00000000
00000000
00000000
00000000
,
00002003
00000000
00000000
00003200
00000000
00000000
00020300
00000000
,
00032000
00000000
00000000
02003000
00000000
00000000
03001000
00000000
,
00010000
00100000
10000000
00010000
,
10000000
01000000
00010000
00001000
,
00010000
00000000
00010000
00000000
00001000
00000000
00001000
00000000
00010000
00001000
00010000
00000000
00001000
00010000
00001000
00000000
,
00020000
00030000
00000000
00000000
00001000
00000000
00000000
00000000
00012000
00000000
00000000
00000000
00013000
00000000
00001000
01000000
,
00000000
00000000
00010000
00000000
10000000
00000000
01000000
00000000
00100000
00000000
00001000
00010000
00000000
00000000
00002000
00000000
,
00000000
00000000
01003000
00000000
00010000
00000000
00100000
00000000
00001000
00000000
00000000
00010000
00001000
00000000
00010000
00000100
,
00000000
00000000
00001000
00000000
00000001
00000000
00000100
00000000
00000010
00000000
00010000
00001000
00000000
00000000
00020000
00000000
,
00000000
00000000
00030100
00000000
00001000
00000000
00000010
00000000
00010000
00000000
00000000
00001000
00010000
00000000
00001000
01000000
,
00000000
00000000
00010000
00000000
00100000
00000000
01000000
00000000
00010000
00000000
00001000
00010000
00000000
00000000
00001000
00000000
,
00010000
00000000
00000010
00000000
00001000
00000000
00000001
00000000
00000010
00000000
00000100
00001000
00000000
00000000
00000001
00000000
,
00000100
00001000
00020000
00000000
00230000
00000000
10300000
00020000
,
00000000
00000000
00000000
00000000
10030000
00100000
00010000
00001000
,
00010000
00100000
10000000
00100000
00010000
00001000
00010000
00000010
,
00001000
00001000
00000001
00000000
00000001
00000010
00001000
00010000
,
00001000
00000010
00000001
00000010
00001000
00010000
00001000
00100000
,
00010000
00010000
01000000
01000000
00020000
00000000
00000000
10030000
,
02000000
00000000
03020000
00000000
00000000
00031000
00010000
00000000
,
00011000
00001000
00011000
00000000
00001000
00001000
00000010
00000010
,
00000001
00000001
00001000
00001000
00000001
00000100
00000000
00001000
,
00020000
00000000
00000000
00000000
00031000
00000000
00010000
00000010
,
00001000
00000001
00000010
00001000
00010000
00010000
00100000
00010000
,
00010000
00001000
00020000
00000000
01030000
10000000
00010000
00010000
,
01000000
00001000
00010000
00001000
00011000
00000000
00001010
00000000
,
00000011
00000000
00001100
00000000
00011000
00000000
00001000
01000000
,
00010000
00000000
10000000
00000000
01000000
00100000
01000000
00000000
00000000
00000000
00010000
00001000
00010000
00000000
00000000
00000000
,
00000110
00000000
00001001
00000000
00001000
00000010
00001000
00010000
,
00001000
00000000
00000010
00000000
00010000
00000000
00000000
00000000
00002000
00000000
00000000
00003020
00000000
00000000
00000032
00000000
,
00000000
00000003
00000000
00000000
00001001
00000000
00000000
00000000
00000000
00000000
00000000
00000000
00000000
00000000
00000000
00000000
;

//--------------- dance-double - Extraordiberry ----------------
#NOTEDATA:;
#STEPSTYPE:dance-double;
#DESCRIPTION:Extraordiberry;
#DIFFICULTY:Hard;
#METER:17;
#RADARVALUES:0,0,0,0,0;
#BPMS:0.000=180.000
,216.000=360.000
,217.000=180.000
;
#STOPS:127.750=0.6666666666666667
,190.000=0.6666666666666667
,216.000=0.1666666666666667
,252.000=0.6666666666666667
;
#TIMESIGNATURES:0.000=4=4,
128.000=2=4,
130.000=4=4,
190.000=2=4,
192.000=4=4,
252.000=2=4,
254.000=4=4
;
#CREDIT:Extraordiberry;
#NOTES:
00000000
00000000
00000000
00000000
,
00000000
00000000
00000000
00000000
,
00000000
00000000
00000000
00000000
,
00000000
00000000
00000000
00000000
,
00000000
00000000
00000000
00000000
,
00020000
00000000
00000000
00032000
00000000
00000000
00003020
00000000
,
00000000
00002030
00000000
00000000
00010000
00000000
00013000
00000000
,
00002000
00000000
00000000
00023000
00000000
00000000
00230000
00000000
,
00000000
20300000
00000000
00000000
30010000
00000000
10010000
00000000
,
10000000
00000000
00000000
00000000
00010000
00000000
00100000
00001000
00000000
00001000
00010000
00000000
00002000
00000000
00000000
00000000
,
00003010
00002000
00000000
00000000
00013000
01000000
10000000
00000000
,
00010000
00000000
00000000
00000000
10000000
00000000
00100000
00000000
00000000
01000000
00010000
00000000
10000000
00000000
00000000
00000000
,
01000000
00000000
00010000
00000000
00000000
00001000
00010000
00000000
00001000
00000000
00000010
00000000
00000001
00000000
00001000
00000000
,
00000001
00000000
00000000
00000000
00001000
00000000
00000010
00010000
00000000
00010000
00001000
00000000
00020000
00000000
00000000
00000000
,
00130000
00020000
00000000
00000000
00031000
00000100
00000001
00000000
,
00001000
00000000
00000000
00000000
00000001
00000000
00000010
00000000
00000000
00000100
00001000
00000000
00001100
00000000
00000000
00000000
,
00000001
00000000
00000100
00000000
00000000
00001000
00010000
00000000
00011000
00000000
00001000
00000000
00010000
00000000
00100000
00000000
,
10000000
01000000
00010000
00001000
00100000
00010000
00001000
00000100
,
00010000
00000000
00001000
00000000
00000010
00000000
00000001
00000000
00001000
00000000
00000001
00000000
00000100
00000010
00001000
00000000
,
00000001
00000100
00001000
00010000
00000010
00001000
00010000
01000000
,
00001000
00000000
00010000
00000000
00100000
00000000
10000000
00000000
01000000
00100000
00010000
10000000
00200000
00000000
00000000
00000000
,
10300000
10000000
00010000
00100000
00100000
00001000
00010000
00010000
,
00000100
00000000
00001000
00000000
00001000
00000000
00000001
00000000
00000100
00000010
00001000
00000000
00000001
00000000
00000000
00000000
,
00000101
00000001
00001000
00001010
00000010
00010000
00011000
00001000
,
01000000
01010000
00010000
10000000
10100000
00000000
10010000
00000000
,
20000000
00000000
00000000
00000000
,
00000000
00000000
00000000
00000000
30010000
10000000
01000000
00010000
,
00002000
00000000
00100000
00000000
00000000
00010000
00000000
00000000
,
01000000
00000000
00000000
00000000
00000000
00000000
00010000
00000000
00000000
00000000
00000000
00000000
00013000
00001000
00010000
00000000
,
00001000
00000000
00000010
00000000
00000001
00000000
00000100
00001000
,
00010000
00000000
00100000
00000000
10000000
00000000
01000000
00010000
,
00001000
00000000
00001000
00000000
00000010
00000000
00000010
00000000
00000001
00001000
00000001
00001000
00000010
00000100
00000010
00000200
,
00000300
00000000
00000110
00000000
00001001
00000000
00000001
00000100
,
00001000
00000000
00010000
00001000
00010000
00001000
01000000
00000000
00010000
10000000
00010000
00000000
00100000
00000000
00010000
10000000
,
00010000
00000000
00100000
00000000
00001000
00010000
00000100
00000000
00001000
00000000
00000100
00000000
00000010
00000000
00000010
00000000
,
00000001
00000000
00001000
00000010
00000000
00000010
00000100
00000000
00000101
00000000
00000000
00000000
00001010
00000000
00000000
00000000
,
01010000
00000000
00000000
00000000
10100000
00000000
00000000
00000000
10010000
00000000
00000000
00000000
00010000
00100000
01000000
10000000
,
00000000
00000000
01000000
00000000
00010000
00001000
00010000
00000000
00001000
00000010
00001000
00000000
00000010
00000001
00000010
00000000
,
00000001
00000001
00001000
00001000
00000002
00000203
00000320
00002030
,
00023000
00000000
02030000
00000000
03200000
00000000
10300000
00000000
10100000
00000000
00000000
01010000
00000000
00000000
00021000
00000000
,
00000000
00000000
00000000
00000000
01030000
00000000
00000000
00000000
10010000
00000000
00000000
00000000
10000000
00000000
01000000
00010000
,
00000000
00010000
00001000
00000000
01000000
00010000
01000000
00000000
00001000
00000000
00010000
00001000
00010000
00000000
00001000
00000010
,
00000000
00000010
00000001
00000000
00001000
00000010
00001000
00000000
00000001
00000000
00000100
00001000
00000100
00000000
00001000
00010000
,
00001000
00000000
00010000
00100000
00010000
00000000
00100000
00000000
20000000
00000000
32000000
00000000
03200000
00000000
00320000
00000000
,
00032000
00003200
00000320
00000031
00000012
00000000
00000000
00000203
,
00000000
00000000
00002300
00000000
00000000
00023000
00000000
00000000
,
00230000
00000000
00000000
00000000
00310000
00010000
00001000
00001000
,
00000100
00000010
00000100
00000010
00001000
00000001
00001000
00000001
00000020
00000030
00000000
00000000
00000110
00000000
00000000
00000000
,
00001001
00000000
00000000
00000000
00001000
00000000
00000001
00000100
00000000
00000100
00001000
00000000
00010000
00100000
00000000
00100000
,
10000000
00000000
00010000
10000000
00010000
00000000
10000000
01000000
00000000
01000000
00010000
00000000
00001000
00000010
00000000
00000010
,
00000002
00000000
00000103
00000000
00000001
00000000
00000010
00001000
00000000
00001000
00010000
00000000
01000000
10000000
00000000
00000000
,
11000000
00110000
00001100
00000011
,
00001001
00000000
00000000
00000000
00000001
00000100
00000001
00000000
00000100
00000000
00001000
00000100
00001000
00000000
00010000
00000000
,
00100000
10000000
00100000
00000000
10000000
00000000
01000000
00000000
00010000
00001000
00010000
00000000
00011000
00000000
00000000
00000000
,
00020000
00000000
00000000
00000000
00031000
00010000
00001000
00010000
00100000
01000000
00100000
01000000
00010000
10000000
00010000
10000000
,
01000000
00000000
00100000
01000000
00000000
01000000
00010000
00000000
00001000
00010000
00001000
00000000
00011000
00000000
00000000
00000000
,
00020000
00000000
00031000
00000020
00000000
00000031
00002000
00000000
,
00003001
00002000
00000000
00000000
00000000
00000000
00000000
00000000
,
00003002
00000000
00000013
00002000
00000000
00013000
02000000
00000000
,
03010000
00002000
00000000
00203000
00000000
00000000
00301000
00000000
,
00010000
00000000
00100000
00000000
10000000
00000000
01000000
00010000
,
00001000
00000000
00000010
00000000
00000001
00000000
00000100
00001000
,
00010000
00000000
00010000
00000000
00100000
00000000
00100000
00000000
10000000
00010000
10000000
00010000
00100000
01000000
00100000
01000000
,
20000000
30000000
00000000
00000000
01100000
00000000
00000000
00000000
20010000
00000000
00000000
00000000
30100000
00000000
10000000
01000000
,
00000000
01000000
00010000
00000000
00001000
00000000
00000010
00000000
00000001
00000000
00001000
00000010
00000000
00000100
00000002
00000000
,
00000000
00000000
00001003
00000100
00000010
00000001
00001000
00000000
00000100
00000000
00000100
00000000
00001000
00000000
00000001
00000100
,
00000000
00000100
00001000
00000000
00010000
00000000
00100000
00000000
10000000
00000000
00010000
00100000
00000000
01000000
20000000
00000000
,
00000000
00000000
30010000
01000000
00100000
10000000
00010000
00000000
00200000
00000000
00000000
00000000
00310000
00000000
10000000
00100000
,
00000000
00100000
00010000
00000000
00001000
00000000
00000100
00000000
00000001
00000000
00001000
00000100
00000000
00000010
00000001
00000000
,
00001000
00000000
00000010
00000000
00010000
00000000
00001000
00000000
00000010
00000000
00000001
00001000
00000000
00001000
00000010
00000000
,
00000100
00000001
00000200
00000000
00002300
00000000
00013000
00200000
,
00000000
00000000
10300000
00010000
10000000
00000000
00010000
00000000
10000000
00000000
01000000
00010000
01000000
00000000
00010000
00000000
,
00001000
00010000
00001000
00000000
00100000
00000000
00010000
00001000
00010000
00000000
00001000
00000100
00001000
00000000
00000002
00000000
,
00000000
00000000
00001003
00000000
00000001
00000000
00000100
00000000
00000001
00000000
00000100
00001000
00000100
00000000
00001000
00000000
,
00010000
00001000
00010000
00000000
00000010
00000000
00001000
00010000
00001000
00000000
00010000
01000000
00010000
00000000
10000000
00000000
,
01000000
00100000
00020000
00000000
20030000
00000000
00000000
30100000
,
00020000
00000000
00032000
00000000
00000000
00003100
00000001
00000000
,
00001001
00000000
00000001
00001000
00000001
00000000
00000010
00000000
00001000
00000000
00001000
00000000
00010000
00000000
00010000
00000000
,
01000000
10000000
01000000
10000000
00010000
01000000
00010000
01000000
00100000
00000000
00010000
00000000
00000000
00000000
00001000
00000000
,
00020000
00000000
02030000
00000000
13000000
00010000
10000000
00100000
,
00010000
00000000
00001000
00010000
00001000
00010000
00000010
00000000
00001000
00000001
00001000
00000000
00000100
00000000
00001000
00000001
,
00001000
00000000
00000100
00000000
00010000
00001000
00100000
00000000
00010000
00000000
00100000
00000000
01000000
00000000
01000000
00000000
,
10000000
00000000
00010000
00000000
01000000
00100000
10000000
00000000
10100000
00000000
00000000
00000000
01010000
00000000
00000000
00000000
,
00001010
00000000
00000101
00000000
00001001
00000000
00001000
00000001
,
00000100
00000000
00001000
00000000
00010000
00100000
01000000
00000000
00000000
00000000
00010000
00100000
01000000
00000000
00000000
00000000
,
10000000
10000000
00010000
00010000
20000000
30200000
02300000
03020000
,
00032000
00000000
00003020
00000000
00000230
00000000
00000301
00000000
00000101
00000000
00000000
00001010
00000000
00000000
00012000
00000000
,
00000000
00003010
00000000
00000000
;
