#TITLE:Mi Alma;
#SUBTITLE:;
#ARTIST:Ozomatli;
#TITLETRANSLIT:;
#SUBTITLETRANSLIT:;
#ARTISTTRANSLIT:;
#GENRE:;
#CREDIT:;
#MUSIC:Mi Alma.mp3;
#BANNER:Mi Alma.png;
#BACKGROUND:Mi Alma-bg.png;
#CDTITLE:;
#SAMPLESTART:11.455;
#SAMPLELENGTH:12.261;
#SELECTABLE:YES;
#OFFSET:0.668;
#BPMS:0.000=137.000
,4.000=136.130
,7.000=139.000
,13.000=137.000
,16.000=138.070
,20.000=131.820
,22.000=136.700
,24.000=138.140
,26.000=140.050
,29.000=143.870
,30.000=142.750
,31.000=137.000
,32.000=140.980
,35.000=139.730
,36.000=134.660
,40.000=135.370
,42.000=137.690
,50.000=139.000
,52.000=139.060
,56.000=137.590
,60.000=137.500
,63.000=138.280
,68.000=136.050
,71.000=140.000
,74.000=137.990
,76.000=137.700
,80.000=138.250
,85.000=137.760
,90.000=137.130
,96.000=138.690
,102.000=138.580
,106.000=137.930
,110.000=138.530
,115.000=136.970
,130.000=139.000
,132.000=138.000
,137.000=139.280
,139.000=137.300
,146.000=140.890
,152.000=134.920
,156.000=138.000
,160.000=136.920
,164.000=139.590
,165.000=137.000
,166.000=141.250
,168.000=137.460
,171.000=138.510
,179.000=140.790
,180.000=137.720
,194.500=138.570
,200.000=140.480
,204.000=132.200
,206.000=137.000
,208.000=136.700
,210.000=139.160
,212.000=136.120
,214.000=136.890
,216.000=139.510
,220.000=137.340
,224.000=138.390
,226.000=137.860
,228.000=135.000
,229.000=134.000
,230.000=138.080
,232.000=136.100
,234.000=140.990
,236.000=136.050
,238.000=140.000
,241.000=135.000
,242.000=32.395
,244.500=59.430
,245.000=133.220
,248.000=130.070
;
#STOPS:;
#DISPLAYBPM:138.000;
#BGCHANGES:;
#FGCHANGES:;

//--------------- dance-single - OrangeRight ----------------
#NOTES:
     dance-single:
     OrangeRight:
     Beginner:
     3:
     0,0,0,0,0:
0000
0000
0000
0000
,
0000
0000
0000
0000
,
0000
0000
0000
0000
,
0000
0000
0000
0000
,
0000
0000
0000
0000
,
1000
0000
1000
0000
,
1000
0000
1000
0000
,
0001
0000
0000
0000
,
0001
0000
1000
0000
,
0100
0000
0100
0000
,
0000
0000
0000
0000
,
1000
0000
0000
0000
,
1000
0000
0001
0000
,
0100
0000
0100
0000
,
0000
0000
0000
0000
,
0001
0000
0100
0000
,
0010
0000
1000
0000
,
0100
0000
0100
0000
,
0010
0000
0001
0000
,
1000
0000
0001
0000
,
1001
0000
0000
0000
,
0001
0000
1000
0000
,
0100
0100
0100
0000
,
1000
0000
0001
0000
,
0100
0100
0100
0000
,
0001
0000
1000
0000
,
0001
0000
0000
0000
,
1000
0000
1000
0000
,
0001
0000
0100
0000
,
0010
0000
0010
0000
,
0100
0000
0001
0000
,
0010
0000
0010
0000
,
0100
0000
1000
0000
,
0001
0000
0001
0000
,
1000
0000
0001
0000
,
1001
0000
0000
0000
,
1001
0000
0000
0000
,
2000
3000
0000
0000
,
0002
0003
0000
0000
,
2000
3000
0002
0003
,
2002
0000
3003
0000
,
1000
0000
0100
0000
,
0010
0000
0001
0000
,
1000
0000
0100
0000
,
0010
0000
0001
0000
,
1000
0000
1000
0000
,
0010
0000
0100
0000
,
0001
0000
0001
0000
,
0010
0000
0001
0000
,
1000
0000
0010
0000
,
0100
0000
0001
0000
,
1001
0000
0000
0000
,
1001
0000
0000
0000
,
0002
0003
0000
0000
,
2000
3000
0000
0000
,
0002
0003
2000
3000
,
2002
0000
3003
0000
,
0001
0000
0001
0000
,
0001
0000
0001
0000
,
0100
0000
0010
0000
,
1000
0000
2002
0000
,
0000
3003
0000
0000
,
1000
0001
0000
0000
;

//--------------- dance-single - OrangeRight ----------------
#NOTES:
     dance-single:
     OrangeRight:
     Easy:
     6:
     0,0,0,0,0:
0000
0000
0000
0000
,
0000
0000
0000
0000
,
0000
0000
0000
0000
,
0000
0000
0000
0000
,
0000
0000
0000
0000
,
2000
3000
0002
0003
,
2000
3000
0002
0003
,
1000
0000
1000
0000
,
0001
0000
0001
0100
,
0010
0010
1000
1000
,
0001
1000
2002
3003
,
0001
0100
0001
1000
,
0100
0100
0010
0010
,
0001
1000
0020
0030
,
1000
0001
0020
0030
,
0001
0010
0001
1000
,
0010
0010
0100
0100
,
0002
0003
0020
0030
,
0100
1000
0200
0300
,
1000
0010
0100
0001
,
1000
0001
2002
3003
,
2000
0100
0002
3003
,
0001
0100
0010
1000
,
0002
0010
2000
3003
,
1000
0010
0100
0001
,
1000
1000
0001
0001
,
0100
0010
1000
0001
,
2000
0000
0200
3300
,
0100
1000
0010
0100
,
0002
0010
0013
0001
,
0100
0010
1000
0001
,
2000
0100
3100
1000
,
0001
1000
2002
3003
,
0010
0100
0220
0330
,
1000
0001
2002
3003
,
1001
1001
0110
0110
,
2002
3003
0001
0100
,
0020
0000
1030
0100
,
0020
0000
0031
0100
,
0010
1000
0001
1000
,
2002
3003
0220
0330
,
1001
0000
1000
0001
,
0100
0000
0001
1000
,
0100
0000
1000
0001
,
0100
0010
0110
0000
,
0010
1000
0100
0010
,
0001
0001
0000
0001
,
0100
0001
0010
0100
,
1000
1000
0000
1000
,
0001
0001
0000
0001
,
0100
0010
0000
1000
,
1001
1001
0110
0110
,
2002
3003
1000
0010
,
0200
0000
0301
0010
,
0200
0000
1300
0010
,
0100
0001
0010
0100
,
0220
0330
2002
3003
,
0002
0003
2000
3000
,
0002
0003
2000
3000
,
0001
0010
0100
1000
,
0010
0100
0220
0000
,
0000
0330
0000
0000
,
0110
1001
0000
0000
;

//--------------- dance-single - OrangeRight ----------------
#NOTES:
     dance-single:
     OrangeRight:
     Medium:
     9:
     0,0,0,0,0:
0000
0000
0000
0000
,
0000
0000
0000
0000
,
0000
0000
0000
0000
,
0000
0000
0000
0000
,
0110
0000
1001
0000
,
2000
0010
3002
0010
,
2003
0100
3002
0100
,
1003
0200
0010
0000
1000
0000
0010
0000
,
2300
0001
3020
0230
,
0301
0000
0010
0100
1000
0000
0010
0100
,
0001
1000
0100
0010
0002
0000
0003
0000
,
0001
0200
0010
0000
0001
0000
0010
0000
,
0302
1000
0023
0230
,
1300
0001
1000
0001
0200
0000
0301
0000
,
0001
1000
0001
1000
0020
0000
0130
0000
,
0001
0020
0100
0000
0001
0000
0100
0000
,
0032
1000
0203
0010
,
0302
0000
1003
0100
2000
0000
3001
0100
,
0010
1000
0100
1000
0002
0000
1000
0000
,
2003
0100
3020
0100
,
1030
0010
0100
0001
2000
0000
3001
0000
,
2002
3003
0022
0033
,
0010
0001
0100
0010
2000
0000
3001
0000
,
2002
3003
2200
3300
,
0100
1000
0010
0100
0002
0000
1003
0001
,
2000
3020
0032
0023
,
2030
0000
0001
0000
3001
0000
1000
0001
,
0202
0303
2020
3030
,
1000
0000
0010
0100
0010
0100
0010
0000
,
1000
0000
0000
1000
0000
0000
0100
0000
0010
0000
0000
0000
0001
0000
0000
0000
,
0100
0000
0000
0100
0000
0000
0010
0000
0100
0000
0000
0000
0001
0000
0000
0000
,
0010
0000
0000
0010
0000
0000
0100
0000
1000
0000
0000
0000
0001
0000
0000
0000
,
0100
0000
0000
0010
0000
0000
1000
0000
0002
0000
0000
0000
1003
0000
0000
0000
,
0100
0000
0000
0010
0000
0000
0001
0000
2000
0000
0000
0000
3001
0000
0000
0000
,
1000
0000
0000
0100
0000
0000
0010
0000
0001
0000
0000
0000
0100
0000
0000
0000
,
0101
0101
0110
1010
,
1000
0000
0001
0000
1000
0000
0002
0000
0000
0203
0000
0000
,
0310
0000
0010
0000
0010
0000
2000
0000
0000
3200
0000
0000
,
0310
0000
0010
0000
0010
0000
0002
0000
0000
0203
0000
0000
,
2300
3200
0302
2003
,
3001
0000
0001
0000
0001
0000
1000
0000
1000
0000
1000
0000
,
0001
0000
0000
0000
0010
0000
0000
0000
0001
1000
0000
0000
0010
0000
0000
0000
,
1000
0000
0000
0000
0010
0000
0000
0000
1000
0001
0000
0000
0010
0000
0000
0000
,
0001
0000
0000
0000
0100
0000
0000
0000
0001
1000
0000
0000
0100
0000
0000
0000
,
1000
0001
0000
0000
0010
0000
0000
0000
0110
0000
0000
0000
0000
0000
0000
0000
,
0100
1000
0010
0000
0100
0001
1000
0001
,
0100
0000
0000
0100
0000
0000
0001
0000
1000
0000
0100
0000
0000
0010
0000
0000
,
0001
0100
0001
0000
1000
0100
0010
0001
,
1000
0000
0000
1001
0000
0000
0001
0000
0000
0000
0100
0000
0010
0000
1000
0000
,
0001
0000
0000
1001
0000
0000
1000
0000
0100
0000
0010
0000
0001
0000
1000
0000
,
0010
0000
0000
0110
0000
0000
0100
0000
0001
0000
1000
0000
0100
0000
0000
0000
,
1100
1100
1001
0011
,
0001
0000
0001
0000
0001
0000
2000
0000
0000
3020
0000
0000
,
0130
0000
0100
0000
0100
0000
0002
0000
0000
0023
0000
0000
,
0130
0000
0100
0000
0100
0000
2000
0000
0000
3002
0000
0000
,
0023
2030
3020
0032
,
1003
0000
1000
0000
1000
0000
0001
0000
0001
0000
0001
0000
,
2000
0010
3002
0010
,
2003
0100
3002
0100
,
2003
3200
0320
0032
,
0103
0000
0010
0000
1000
0000
2002
0000
0000
0000
0000
0000
,
0000
3003
0000
0000
,
0110
1001
0000
0000
;

//--------------- dance-single - OrangeRight ----------------
#NOTES:
     dance-single:
     OrangeRight:
     Hard:
     12:
     0,0,0,0,0:
0000
0000
0000
0000
,
0000
0000
0000
0000
,
0000
0000
0000
0000
,
0000
0000
0000
0000
,
2000
0000
3001
0000
,
0000
1000
0100
1000
0100
1000
0000
0001
0100
0001
0100
0001
,
0000
1000
0010
1000
0010
1000
0000
0001
0010
0001
0010
0001
,
1000
0002
0100
0000
0010
0000
0103
0000
,
0201
0310
0120
1030
,
1000
0000
0000
1000
0100
0000
0010
0000
0001
0000
0000
0001
0100
0000
0010
0000
,
2000
3002
2003
3001
,
0001
2000
0010
0000
0100
0000
3010
1000
,
0002
0000
0000
0000
0013
0000
0001
0000
1000
0000
0000
0010
0000
0000
0100
0000
,
0001
0000
0000
0010
0001
0000
1000
0000
0020
0000
0000
0000
1030
0000
0000
0000
,
1000
0000
0000
0010
1000
0000
0001
0000
0020
0000
0000
0000
0130
0000
0000
0000
,
1000
0200
0010
0000
1000
0000
0310
0100
,
2000
0000
3010
0100
0002
0000
0013
0100
,
2000
0000
3001
0100
2000
0000
3100
0001
,
0010
0100
1000
0100
0002
0000
0103
1000
,
0001
0000
0000
0100
0000
0000
0010
0000
0000
0000
1000
0000
0000
0000
1000
0000
,
0001
0000
0000
0000
0000
0000
0000
0000
0000
0001
0000
0000
1000
0000
0000
0000
0000
0000
0010
0000
0000
0000
0000
0000
0200
0000
0000
0000
0000
0000
0000
0000
0000
0000
0000
0000
0301
0000
0000
0000
1000
0000
0000
0000
0001
0000
0000
0000
,
0020
1000
0230
0001
,
1300
0010
0001
0010
2000
0000
3001
1000
,
0200
0001
0320
1000
,
0031
0000
0000
0100
0000
0000
1000
0000
0000
0100
0000
0000
0001
0000
0000
0000
0000
0000
0001
0000
1000
0000
0001
0000
,
2000
3200
0302
0023
,
2030
0000
0000
0000
0001
0000
0000
0000
3100
0000
1000
0100
1000
0000
0001
0000
,
0200
1000
0320
0001
,
1030
0000
0000
0001
0010
0000
0100
0000
1000
0000
0001
0000
1000
0000
0000
0000
,
1000
0000
0000
1100
0000
0000
0100
0000
0010
0000
0001
0000
0100
0000
0001
0000
,
0010
0000
0000
0011
0000
0000
0001
0000
1000
0000
0001
0000
0000
0000
0100
0000
,
0001
0000
0000
0101
0000
0000
0100
0000
0010
0000
1000
0000
0100
0000
1000
0000
,
0001
1000
0000
1000
0000
0000
0010
0000
0000
0000
0100
0000
0000
0000
0001
0000
,
1000
0000
0000
1010
0000
0000
0010
0000
0100
0000
0001
0000
0010
0000
0100
0000
,
1000
0000
0000
1001
0000
0000
0001
0000
0100
0000
0010
0000
0000
1000
0000
0000
,
1001
0000
0000
1100
0000
0000
1001
0000
0000
0001
1000
0001
,
1000
0000
1000
0000
1000
0000
1000
0100
1000
0100
1000
0100
,
1000
0000
0010
0M00
0010
0000
0001
0100
0001
0100
0001
0100
,
0001
0000
0010
0M00
0010
0000
1000
0010
1000
0001
1000
0001
,
0010
0000
0010
0100
0000
0100
1000
0000
1000
0001
0100
0001
,
0100
0000
0000
0000
0010
0000
0000
0000
1000
0000
0000
0000
0001
0000
0000
1000
0000
0000
0001
0000
0000
1000
0000
0000
,
0001
0000
0000
0001
1000
0000
0000
0000
0010
0100
0000
0100
0010
0000
0000
0000
,
1000
0000
0000
1000
0001
0000
0000
0000
0100
0010
0000
0010
0100
0000
0000
0000
,
0001
0000
0000
0001
1000
0000
0000
0000
0100
0010
0000
0010
0100
0000
0000
0000
,
1000
0001
0000
0001
1000
0000
0000
0000
1001
0000
0000
0000
0000
0000
0000
0000
,
1000
1000
0100
1000
0001
0100
0001
0100
,
0010
0000
1000
0010
0000
0000
0100
0000
0000
0000
0001
0000
0000
0000
1000
0000
,
0001
0001
0010
0001
0100
0010
0100
0010
,
1000
0001
0000
0100
0000
0000
0001
0000
0000
0000
1000
0000
0000
0000
0001
0000
,
0100
0010
0100
0010
1000
0001
1000
0001
,
0010
0000
0100
1000
0000
0000
0010
0000
0000
0000
0100
0000
0000
0001
0000
0000
,
1001
0000
0000
0110
0000
0000
1001
0000
0000
1000
0001
1000
,
0001
0000
0001
0000
0001
0000
0001
0010
0001
0010
0001
0010
,
0001
0000
0100
00M0
0100
0000
1000
0010
1000
0010
1000
0010
,
1000
0000
0100
00M0
0100
0000
0001
0100
0001
1000
0100
1000
,
0010
0000
0010
0100
0000
0100
0001
0000
0001
1000
0100
0010
,
0001
0000
0100
0010
0000
0000
1000
0001
1000
0001
1000
0001
,
0000
0001
0100
0001
0100
0001
0000
1000
0100
1000
0100
1000
,
0000
0001
0010
0001
0010
0001
0000
1000
0010
1000
0010
1000
,
0000
0001
0100
0010
1000
0001
0000
1000
0100
0010
0001
1000
,
0001
0000
1000
0000
0110
0000
2002
0000
0000
0000
0000
0000
,
0000
0000
0000
3003
0000
0000
1000
0000
0000
0000
1000
0000
0010
0000
0000
0000
0010
0000
0100
0000
0000
0000
0000
0000
,
0101
0011
0000
0000
;

//--------------- dance-single - OrangeRight ----------------
#NOTES:
     dance-single:
     OrangeRight:
     Challenge:
     14:
     0,0,0,0,0:
0000
0000
0000
0000
,
0000
0000
0000
0000
,
0000
0000
0000
0000
,
0000
0000
0000
0000
,
2000
0000
3001
0000
,
1000
0010
1000
0010
1000
0010
0M00
0010
0001
0010
0001
0010
,
0000
0100
1000
0100
1000
0100
00M0
0100
0001
0100
0001
0100
,
0001
0000
0010
0100
1000
0000
0010
0100
,
0002
0000
0103
01M0
2000
0000
3100
01M0
,
0001
0000
0000
0001
1000
0000
0100
0000
1000
0000
0000
1000
0001
0000
0100
0001
,
0100
0000
0010
0100
0010
0000
1000
0010
2000
0000
0000
0000
3001
0000
0001
0000
,
1000
0000
0000
1000
0001
0000
0010
0000
0001
0000
0000
0001
1000
0000
0010
0000
,
2000
0000
3010
0M10
0002
1000
0000
1003
,
0001
0000
0000
1000
0100
0000
0010
0001
0020
0000
0000
0000
0031
0000
0001
0000
,
1000
0000
0000
0001
0100
0000
0010
1000
0020
0000
0000
0000
1030
0000
1000
0000
,
0001
0000
0000
1000
0100
0000
0010
0000
0001
0000
0000
1000
0010
0000
0100
0000
,
0002
0000
0103
01M0
2000
0000
3010
0M10
,
0012
0000
0103
0010
2010
0000
3100
1000
,
0010
0000
0000
0001
0000
0000
0010
0000
0000
1000
0000
0000
0100
0000
0000
0000
0010
0000
0000
0000
0001
0000
0000
0000
,
0011
0000
0000
0000
0000
0000
0000
0000
0000
0001
0000
0000
1000
0000
0000
0000
0000
0000
0010
0000
0000
0000
0000
0000
0100
0000
0000
0000
0000
0000
0001
0000
0000
0000
0000
0000
0000
0000
0000
0000
1000
0000
0000
0000
0001
0000
0000
0000
,
1000
0000
0000
0000
0000
0000
0000
0000
0000
0100
0000
0000
0010
0000
0000
0000
0000
0000
0001
0000
0000
1000
0000
0000
0002
0000
0000
0000
0000
0000
0000
0000
0000
0000
0000
0000
1003
0000
0000
0000
0001
0000
0000
0000
1000
0000
0000
0000
,
0010
0000
0000
0010
1000
0000
0001
0000
0010
0000
0000
0010
0001
0000
1000
0000
,
0010
0000
1000
0000
0100
0000
01M0
0000
0001
1000
0000
1000
0001
0000
0000
0000
,
0010
0000
0000
0010
0001
0000
1000
0000
0010
0000
0000
0010
1000
0000
0001
0000
,
0100
0000
0000
0001
0000
0000
0010
0000
0000
0M10
0000
0000
2000
0000
0000
0000
0000
0000
3001
0000
1000
0000
0001
0000
,
0200
2300
3200
0302
,
1003
0000
0100
0000
0010
0000
0001
0000
1000
0000
0001
0100
0001
0000
1000
0000
,
0010
0000
0000
0010
1000
0000
0001
0000
0010
0000
0000
0010
0001
0000
1000
0000
,
0001
0000
0000
0100
0010
0000
1000
0000
0100
0010
0000
0010
0100
0000
0000
0000
,
1000
0000
0000
1100
0000
0000
0100
0000
1000
0000
0001
0000
0100
0000
0010
0000
,
0100
0000
0000
0101
0000
0000
0001
0000
0010
0000
0100
0000
0000
0100
1000
0000
,
0010
0000
0000
1010
0000
0000
1000
0000
0100
0000
0001
0000
0100
0000
1000
0000
,
0001
1000
0000
1000
0000
0000
0001
0100
0002
0000
0100
0000
0003
0100
0010
0000
,
1000
0000
0000
1010
0000
0000
1000
0100
2000
0000
0010
0000
3010
0000
0100
0000
,
0001
0000
0000
0011
0000
0000
0001
1000
0002
0000
0000
0000
1003
0000
0000
0000
,
1100
0000
0000
0101
0000
0000
1100
0000
1000
0000
0010
0100
,
0001
0000
1000
0000
0100
0000
0010
0001
1000
0010
0M10
0001
,
2000
0000
0100
0000
0001
0000
3010
1000
0001
0010
0M10
1000
,
0002
0000
0100
0000
1000
0000
0013
0001
1000
0010
0M10
0001
,
1000
0100
1000
0001
0100
0001
1000
0010
1000
0001
0010
0M10
,
2000
0000
0100
0000
0001
0000
3010
0100
0010
1000
0001
1000
,
0001
0000
0000
0100
0010
0000
1000
0000
0001
1000
0000
1000
0001
0000
0000
0000
,
1000
0000
0000
0100
0010
0000
0001
0000
1000
0001
0000
0001
1000
0000
0000
0000
,
0001
0000
0000
1000
0010
0000
0100
0000
0001
0010
0000
0010
0001
0000
0000
0000
,
1000
0000
0000
0010
0000
0000
0000
0000
0000
0010
0000
0000
1000
0000
0000
0000
0000
0000
0000
0000
0000
0000
0000
0000
1001
0000
0000
0000
0000
0000
0000
0000
0001
0000
0000
0000
0000
0000
0000
0000
0100
0000
0000
0000
0010
0000
0000
0000
,
1000
1010
0000
1001
0001
0100
0001
1000
,
0001
0000
0011
0000
0000
0000
0110
0000
0000
0000
1100
0000
0000
0100
1000
0000
,
0001
0101
0000
1001
1000
0100
1000
0001
,
1000
0010
0000
0010
0000
0000
0110
0000
0000
0000
0101
0000
0000
0100
0001
0000
,
1000
1100
0000
1001
0001
0100
0010
1000
,
0001
0000
0011
0000
0000
0000
0110
0000
0000
0000
1100
0000
1000
0001
0000
0000
,
0101
0000
0000
1100
0000
0000
0101
0000
0001
0000
0010
0001
,
1000
0000
0001
0000
0100
0000
0010
1000
0001
0010
0M10
1000
,
0002
0000
0100
0000
1000
0000
0013
0001
1000
0010
0M10
0001
,
2000
0000
0100
0000
0001
0000
3010
1000
0001
0010
0M10
1000
,
0001
0100
0001
1000
0100
1000
0001
0010
0001
1000
0010
0M10
,
0002
0000
1000
0000
1000
0000
1003
0001
1000
0001
1000
0001
,
0000
0100
0001
0100
0001
0100
00M0
0100
1000
0100
1000
0100
,
0000
0010
0001
0010
0001
0010
0M00
0010
1000
0010
1000
0010
,
0000
1000
0100
01M0
0001
1000
0000
0001
0010
0M10
1000
0001
,
1000
0010
0100
0001
1000
0001
2002
0000
0000
0000
0000
0000
,
0000
0000
0000
3003
0000
0000
1000
0000
0001
0000
0010
0000
0100
0000
1000
0000
0010
0000
0100
0000
0000
0000
0000
0000
,
0110
1001
0000
0000
;
